osu file format v14

[General]
AudioFilename: xyHATTE.mp3
AudioLeadIn: 0
PreviewTime: 56225
Countdown: 0
SampleSet: Soft
StackLeniency: 0.7
Mode: 3
LetterboxInBreaks: 0
SpecialStyle: 0
WidescreenStoryboard: 1

[Editor]
DistanceSpacing: 1.5
BeatDivisor: 4
GridSize: 32
TimelineZoom: 2.799999

[Metadata]
Title:XyHATTE
TitleUnicode:XyHATTE
Artist:CosMo@BousouUltimate
ArtistUnicode:cosMo@暴走Ultimate
Creator:LNP-
Version:NOVICE
Source:SOUND VOLTEX III GRAVITY WARS
Tags:SDVX bemani For UltraPlayers cosMo@BousouP
BeatmapID:1031655
BeatmapSetID:483454

[Difficulty]
HPDrainRate:7
CircleSize:4
OverallDifficulty:7
ApproachRate:5
SliderMultiplier:1.4
SliderTickRate:1

[Events]
//Background and Video events
0,0,"background.jpg",0,0
//Break Periods
//Storyboard Layer 0 (Background)
//Storyboard Layer 1 (Fail)
//Storyboard Layer 2 (Pass)
//Storyboard Layer 3 (Foreground)
//Storyboard Layer 4 (Overlay)
//Storyboard Sound Samples
Sample,11090,0,"snare.wav",40
Sample,11631,0,"snare.wav",40
Sample,13252,0,"snare.wav",40
Sample,15414,0,"snare.wav",40
Sample,15955,0,"snare.wav",40
Sample,17576,0,"cymbal09.wav",40
Sample,18117,0,"cymbal09.wav",40
Sample,19739,0,"snare.wav",40
Sample,20009,0,"snare.wav",40
Sample,20279,0,"snare.wav",40
Sample,21901,0,"snare.wav",40
Sample,22441,0,"cymbal09.wav",40
Sample,24063,0,"snare.wav",40
Sample,24604,0,"snare.wav",40
Sample,28387,0,"snare.wav",40
Sample,28928,0,"snare.wav",40
Sample,30549,0,"snare.wav",40
Sample,31090,0,"snare.wav",40
Sample,31090,0,"cymbal09.wav",40
Sample,32712,0,"snare.wav",40
Sample,33252,0,"snare.wav",40
Sample,46495,0,"cymbal09.wav",40
Sample,50820,0,"cymbal09.wav",40
Sample,51090,0,"LR_Tom Hit 2.wav",40
Sample,51631,0,"snare.wav",40
Sample,61360,0,"cymbal09.wav",40
Sample,70009,0,"cymbal09.wav",40
Sample,72982,0,"cymbal09.wav",40
Sample,78658,0,"cymbal09.wav",40
Sample,80279,0,"snare.wav",40
Sample,80549,0,"snare.wav",40
Sample,80820,0,"snare.wav",40
Sample,82441,0,"LR_Tom Hit 2.wav",40
Sample,86766,0,"cymbal09.wav",40
Sample,87036,0,"cymbal10.wav",40
Sample,91631,0,"LR_Tom Hit 3.wav",40
Sample,95414,0,"snare.wav",40
Sample,97576,0,"snare.wav",40
Sample,98117,0,"cymbal09.wav",40
Sample,99739,0,"snare.wav",40
Sample,100549,0,"cymbal09.wav",40
Sample,101090,0,"cymbal09.wav",40
Sample,101631,0,"cymbal09.wav",40
Sample,101901,0,"cymbal09.wav",40
Sample,102171,0,"cymbal10.wav",40
Sample,104063,0,"snare.wav",40
Sample,104333,0,"snare.wav",40
Sample,104604,0,"snare.wav",40
Sample,106225,0,"snare.wav",40
Sample,108387,0,"snare.wav",40
Sample,108928,0,"snare.wav",40

[TimingPoints]
1902,270.27027027027,4,2,1,40,1,0
7577,270.27027027027,4,2,1,40,1,0
9739,-100.0,4,2,1,40,0,1
9806,-100.0,4,2,1,40,0,0
18387,-100.0,4,2,1,40,0,1
18455,-100.0,4,2,1,40,0,0
57306,-100.0,4,2,1,40,0,1
74604,-100.0,4,2,1,40,0,0
94063,-100.0,4,2,1,40,0,1
94131,-100.0,4,2,1,40,0,0

[HitObjects]
64,192,1902,1,8,0:0:0:0:
448,192,2172,1,8,0:0:0:0:
64,192,2442,1,8,0:0:0:0:
192,192,2712,1,8,0:0:0:0:
320,192,2983,1,8,0:0:0:0:
448,192,3253,1,8,0:0:0:0:
192,192,3523,1,8,0:0:0:0:
320,192,3793,1,8,0:0:0:0:
64,192,4064,1,8,0:0:0:0:
192,192,4334,1,0,0:0:0:0:
448,192,4604,1,8,0:0:0:0:
320,192,4874,1,0,0:0:0:0:
64,192,5145,128,8,6310:0:0:0:0:
192,192,5145,1,0,0:0:0:0:
448,192,6310,1,8,0:0:0:0:
64,192,7037,128,8,7577:0:0:0:0:
192,192,7307,128,8,7577:0:0:0:0:
320,192,7577,1,2,0:0:0:0:
448,192,7577,1,4,0:0:0:0:
64,192,7847,128,0,8117:0:0:0:40:snare.wav
192,192,8117,128,0,8387:0:0:0:40:LR_Tom Hit 2.wav
320,192,8387,128,0,8658:0:0:0:40:LR_Tom Hit 3.wav
64,192,8658,1,2,0:0:0:0:
448,192,8658,128,0,8928:0:0:0:40:cymbal09.wav
64,192,8928,128,0,9198:0:0:0:0:
320,192,8928,1,0,0:0:0:0:
192,192,9198,1,0,0:0:0:40:snare.wav
448,192,9198,128,0,9739:0:0:0:40:cymbal08.wav
192,192,9468,1,0,0:0:0:50:snare.wav
64,192,9739,1,2,0:0:0:0:
320,192,9739,1,0,0:0:0:40:cymbal09.wav
64,192,10009,1,2,0:0:0:0:
320,192,10009,1,0,0:0:0:0:
192,192,10279,1,2,0:0:0:0:
64,192,10414,1,0,0:0:0:0:
448,192,10414,1,0,0:0:0:0:
192,192,10685,1,0,0:0:0:0:
448,192,10685,128,0,10955:0:0:0:0:
64,192,10955,1,0,0:0:0:40:snare.wav
320,192,11090,1,2,0:0:0:0:
192,192,11225,1,0,0:0:0:40:snare.wav
64,192,11360,1,2,0:0:0:0:
448,192,11360,1,0,0:0:0:40:snare.wav
320,192,11495,1,0,0:0:0:40:snare.wav
192,192,11631,1,2,0:0:0:0:
64,192,11766,1,0,0:0:0:0:
320,192,11901,1,2,0:0:0:0:
448,192,11901,1,0,0:0:0:0:
64,192,12171,1,2,0:0:0:0:
192,192,12171,1,0,0:0:0:0:
320,192,12441,1,2,0:0:0:0:
64,192,12576,1,0,0:0:0:0:
448,192,12576,1,0,0:0:0:0:
64,192,12847,1,0,0:0:0:0:
320,192,12847,128,0,13117:0:0:0:0:
192,192,13117,1,0,0:0:0:40:snare.wav
64,192,13252,1,2,0:0:0:0:
448,192,13387,1,0,0:0:0:40:snare.wav
64,192,13522,1,2,0:0:0:0:
320,192,13522,1,0,0:0:0:40:snare.wav
192,192,13658,1,0,0:0:0:0:
320,192,13793,1,2,0:0:0:0:
448,192,13793,1,0,0:0:0:40:cymbal09.wav
64,192,14063,1,2,0:0:0:0:
192,192,14063,1,0,0:0:0:40:cymbal10.wav
64,192,14333,1,2,0:0:0:0:
320,192,14333,1,0,0:0:0:0:
192,192,14604,1,2,0:0:0:0:
64,192,14739,1,0,0:0:0:0:
448,192,14739,1,0,0:0:0:0:
192,192,15009,1,0,0:0:0:0:
448,192,15009,128,0,15279:0:0:0:0:
64,192,15279,1,0,0:0:0:40:snare.wav
192,192,15414,1,2,0:0:0:0:
320,192,15549,1,0,0:0:0:40:snare.wav
64,192,15685,1,2,0:0:0:0:
448,192,15685,1,0,0:0:0:40:snare.wav
320,192,15820,1,0,0:0:0:40:snare.wav
192,192,15955,1,2,0:0:0:0:
64,192,16090,1,0,0:0:0:0:
320,192,16225,1,2,0:0:0:0:
448,192,16225,1,4,0:0:0:0:
64,192,16495,1,2,0:0:0:0:
448,192,16495,128,0,16766:0:0:0:0:
64,192,16766,1,2,0:0:0:0:
192,192,16766,1,4,0:0:0:0:
320,192,16901,1,0,0:0:0:0:
448,192,17036,1,2,0:0:0:0:
320,192,17171,1,0,0:0:0:0:
64,192,17306,128,2,17576:0:0:0:0:
192,192,17306,1,0,0:0:0:40:cymbal08.wav
320,192,17576,128,2,17847:0:0:0:0:
192,192,17847,128,2,18117:0:0:0:0:
448,192,18117,128,2,18387:0:0:0:0:
64,192,18387,1,2,0:0:0:0:
192,192,18387,1,4,0:0:0:0:
448,192,18658,1,2,0:0:0:0:
64,192,18928,1,2,0:0:0:0:
320,192,18928,1,0,0:0:0:0:
192,192,19198,1,2,0:0:0:0:
64,192,19468,128,2,20549:0:0:0:0:
448,192,19468,1,0,0:0:0:0:
320,192,19739,1,2,0:0:0:0:
192,192,20009,1,2,0:0:0:0:
320,192,20279,1,2,0:0:0:0:
320,192,20549,128,2,21090:0:0:0:0:
448,192,20549,128,0,21090:0:0:0:0:
64,192,20820,1,2,0:0:0:0:
64,192,21090,1,2,0:0:0:0:
192,192,21090,1,0,0:0:0:0:
448,192,21360,1,2,0:0:0:0:
64,192,21631,1,2,0:0:0:0:
320,192,21631,1,0,0:0:0:0:
448,192,21901,1,2,0:0:0:0:
64,192,22171,1,2,0:0:0:0:
192,192,22171,1,0,0:0:0:40:snare.wav
320,192,22441,1,2,0:0:0:0:
448,192,22441,1,0,0:0:0:40:snare.wav
64,192,22712,1,2,0:0:0:0:
192,192,22712,1,0,0:0:0:40:cymbal10.wav
320,192,22982,1,2,0:0:0:0:
64,192,23252,1,2,0:0:0:0:
448,192,23252,1,0,0:0:0:0:
320,192,23387,1,0,0:0:0:0:
192,192,23522,1,2,0:0:0:0:
64,192,23658,1,0,0:0:0:0:
320,192,23793,1,2,0:0:0:0:
448,192,23793,1,0,0:0:0:0:
192,192,24063,1,2,0:0:0:0:
64,192,24333,1,2,0:0:0:0:
448,192,24333,1,0,0:0:0:40:snare.wav
192,192,24468,1,0,0:0:0:40:snare.wav
320,192,24604,1,2,0:0:0:0:
448,192,24739,1,0,0:0:0:0:
64,192,24874,128,2,25414:0:0:0:0:
192,192,24874,1,0,0:0:0:40:cymbal09.wav
192,192,25144,1,2,0:0:0:0:
320,192,25414,1,2,0:0:0:0:
448,192,25414,128,0,25955:0:0:0:40:cymbal08.wav
320,192,25685,1,2,0:0:0:0:
64,192,25955,1,2,0:0:0:0:
192,192,26045,1,0,0:0:0:40:drum-hitwhistle.wav
320,192,26135,1,0,0:0:0:40:drum-hitwhistle.wav
448,192,26225,1,2,0:0:0:0:
64,192,26495,1,2,0:0:0:0:
192,192,26586,1,0,0:0:0:40:drum-hitwhistle.wav
320,192,26676,1,0,0:0:0:40:drum-hitwhistle.wav
448,192,26766,1,2,0:0:0:0:
64,192,26856,1,0,0:0:0:40:drum-hitwhistle.wav
192,192,26946,1,0,0:0:0:40:drum-hitwhistle.wav
320,192,27036,1,2,0:0:0:0:
448,192,27036,1,4,0:0:0:0:
192,192,27306,1,2,0:0:0:0:
64,192,27576,1,2,0:0:0:0:
448,192,27576,1,0,0:0:0:0:
320,192,27847,1,2,0:0:0:0:
64,192,28117,128,2,28658:0:0:0:0:
192,192,28117,1,0,0:0:0:0:
448,192,28387,1,2,0:0:0:0:
192,192,28658,128,2,29198:0:0:0:0:
320,192,28658,1,0,0:0:0:40:snare.wav
448,192,28928,1,2,0:0:0:0:
64,192,29198,1,2,0:0:0:0:
320,192,29198,128,0,29739:0:0:0:0:
192,192,29468,1,2,0:0:0:0:
64,192,29739,1,2,0:0:0:0:
448,192,29739,1,0,0:0:0:0:
192,192,30009,1,2,0:0:0:0:
320,192,30279,1,2,0:0:0:0:
448,192,30279,128,0,30820:0:0:0:0:
64,192,30549,1,2,0:0:0:0:
192,192,30820,1,2,0:0:0:0:
320,192,30820,128,0,31360:0:0:0:40:snare.wav
64,192,31090,1,2,0:0:0:0:
192,192,31360,128,2,31901:0:0:0:0:
448,192,31360,1,0,0:0:0:40:cymbal10.wav
320,192,31631,1,2,0:0:0:0:
64,192,31901,1,2,0:0:0:0:
448,192,31901,1,0,0:0:0:0:
320,192,32171,1,2,0:0:0:0:
64,192,32441,128,2,32982:0:0:0:0:
192,192,32441,1,0,0:0:0:0:
320,192,32712,1,2,0:0:0:0:
192,192,32982,1,2,0:0:0:0:
448,192,32982,128,0,33522:0:0:0:40:snare.wav
320,192,33252,1,2,0:0:0:0:
64,192,33522,128,2,33793:0:0:0:0:
192,192,33522,1,0,0:0:0:40:cymbal09.wav
448,192,33793,128,2,34063:0:0:0:0:
64,192,34063,128,2,34333:0:0:0:0:
192,192,34063,1,0,0:0:0:40:cymbal09.wav
448,192,34333,128,2,34604:0:0:0:0:
64,192,34604,1,2,0:0:0:0:
192,192,34604,1,0,0:0:0:40:cymbal08.wav
320,192,34739,1,0,0:0:0:0:
64,192,34874,1,2,0:0:0:0:
448,192,34874,1,0,0:0:0:40:cymbal09.wav
192,192,35009,1,0,0:0:0:0:
320,192,35144,1,2,0:0:0:0:
448,192,35144,1,0,0:0:0:40:cymbal09.wav
64,192,35279,1,2,0:0:0:0:
320,192,35414,1,2,0:0:0:0:
448,192,35414,1,0,0:0:0:40:cymbal09.wav
64,192,35549,1,2,0:0:0:0:
320,192,35685,1,2,0:0:0:0:
448,192,35685,1,4,0:0:0:0:
64,192,35955,1,8,0:0:0:0:
64,192,36225,1,8,0:0:0:0:
192,192,36360,1,8,0:0:0:0:
320,192,36495,1,8,0:0:0:0:
448,192,36631,1,8,0:0:0:0:
192,192,36766,1,8,0:0:0:0:
320,192,37036,1,8,0:0:0:0:
192,192,37306,1,8,0:0:0:0:
64,192,37576,1,8,0:0:0:0:
448,192,37847,1,8,0:0:0:0:
192,192,38117,1,8,0:0:0:0:
64,192,38252,1,8,0:0:0:0:
320,192,38387,1,8,0:0:0:0:
448,192,38522,1,8,0:0:0:0:
320,192,38658,1,8,0:0:0:0:
64,192,38793,1,8,0:0:0:0:
192,192,38928,1,8,0:0:0:0:
448,192,39198,1,8,0:0:0:0:
192,192,39468,1,8,0:0:0:0:
64,192,39739,1,8,0:0:0:0:
448,192,40009,1,8,0:0:0:0:
192,192,40279,1,8,0:0:0:0:
448,192,40549,1,8,0:0:0:0:
320,192,40820,1,8,0:0:0:0:
64,192,41090,1,8,0:0:0:0:
192,192,41360,1,8,0:0:0:0:
320,192,41631,1,8,0:0:0:0:
64,192,41901,1,8,0:0:0:0:
448,192,42171,1,8,0:0:0:0:
320,192,42441,1,8,0:0:0:0:
192,192,42712,1,8,0:0:0:0:
64,192,42982,1,8,0:0:0:0:
320,192,43252,1,2,0:0:0:0:
448,192,43252,1,0,0:0:0:40:cymbal08.wav
64,192,43522,1,2,0:0:0:0:
192,192,43522,1,0,0:0:0:40:cymbal09.wav
320,192,43793,1,2,0:0:0:0:
448,192,43793,1,0,0:0:0:40:cymbal08.wav
192,192,43928,1,0,0:0:0:0:
64,192,44063,1,2,0:0:0:0:
448,192,44063,1,0,0:0:0:40:cymbal09.wav
320,192,44198,1,0,0:0:0:0:
64,192,44333,1,2,0:0:0:0:
192,192,44333,1,4,0:0:0:0:
320,192,44604,1,2,0:0:0:0:
448,192,44604,1,0,0:0:0:40:LR_Tom Hit 2.wav
64,192,44874,1,2,0:0:0:0:
192,192,44874,1,0,0:0:0:0:
320,192,45009,1,0,0:0:0:40:LR_Tom Hit 3.wav
448,192,45144,1,2,0:0:0:0:
64,192,45279,1,0,0:0:0:0:
192,192,45414,1,2,0:0:0:0:
448,192,45414,128,0,45685:0:0:0:0:
64,192,45685,1,2,0:0:0:0:
320,192,45685,128,0,45955:0:0:0:0:
192,192,45955,128,2,46225:0:0:0:0:
448,192,45955,1,0,0:0:0:0:
64,192,46225,128,2,46495:0:0:0:0:
320,192,46225,1,0,0:0:0:40:snare.wav
192,192,46495,128,2,46766:0:0:0:0:
448,192,46495,1,0,0:0:0:40:snare.wav
320,192,46766,128,2,47036:0:0:0:0:
448,192,46766,1,0,0:0:0:0:
64,192,47036,1,2,0:0:0:0:
448,192,47036,128,0,47306:0:0:0:40:cymbal09.wav
64,192,47306,1,2,0:0:0:0:
192,192,47306,1,0,0:0:0:0:
320,192,47576,1,2,0:0:0:0:
448,192,47576,1,0,0:0:0:40:cymbal08.wav
192,192,47779,1,2,0:0:0:0:
320,192,47779,1,0,0:0:0:40:cymbal09.wav
64,192,47982,128,2,48252:0:0:0:0:
192,192,47982,1,0,0:0:0:40:cymbal10.wav
320,192,48252,1,2,0:0:0:0:
448,192,48252,1,0,0:0:0:0:
64,192,48387,1,2,0:0:0:0:
192,192,48387,1,0,0:0:0:0:
320,192,48522,1,2,0:0:0:0:
448,192,48522,1,0,0:0:0:0:
64,192,48658,1,2,0:0:0:0:
192,192,48658,1,4,0:0:0:0:
192,192,48928,1,2,0:0:0:0:
448,192,48928,1,0,0:0:0:0:
64,192,49198,1,2,0:0:0:0:
320,192,49198,1,0,0:0:0:0:
192,192,49333,1,0,0:0:0:0:
320,192,49468,1,2,0:0:0:0:
448,192,49468,1,0,0:0:0:40:cymbal09.wav
64,192,49604,1,0,0:0:0:0:
192,192,49739,1,2,0:0:0:0:
448,192,49739,1,0,0:0:0:40:cymbal10.wav
64,192,50009,128,2,50279:0:0:0:0:
320,192,50009,1,0,0:0:0:40:snare.wav
320,192,50279,1,0,0:0:0:40:snare.wav
448,192,50279,1,0,0:0:0:0:
192,192,50414,1,0,0:0:0:0:
64,192,50549,1,2,0:0:0:0:
448,192,50549,1,0,0:0:0:40:cymbal08.wav
320,192,50685,1,0,0:0:0:0:
64,192,50820,1,2,0:0:0:0:
192,192,50820,1,0,0:0:0:40:LR_Tom Hit 2.wav
448,192,50955,1,0,0:0:0:0:
192,192,51090,1,2,0:0:0:0:
64,192,51225,1,0,0:0:0:0:
448,192,51225,1,0,0:0:0:0:
192,192,51495,1,0,0:0:0:0:
448,192,51495,1,0,0:0:0:0:
320,192,51631,1,2,0:0:0:0:
192,192,51766,1,0,0:0:0:0:
64,192,51901,1,2,0:0:0:0:
448,192,51901,1,0,0:0:0:40:snare.wav
320,192,52036,1,0,0:0:0:0:
64,192,52171,1,2,0:0:0:0:
192,192,52171,1,0,0:0:0:40:LR_Tom Hit 2.wav
64,192,52441,1,2,0:0:0:0:
192,192,52441,1,0,0:0:0:40:snare.wav
320,192,52576,1,0,0:0:0:0:
192,192,52712,1,2,0:0:0:0:
448,192,52712,1,0,0:0:0:40:snare.wav
64,192,52982,128,2,53522:0:0:0:0:
448,192,52982,1,0,0:0:0:40:cymbal09.wav
320,192,53252,1,2,0:0:0:0:
192,192,53522,1,2,0:0:0:0:
448,192,53522,128,0,54063:0:0:0:40:cymbal09.wav
64,192,53793,1,2,0:0:0:0:
192,192,54063,1,2,0:0:0:0:
320,192,54063,1,0,0:0:0:40:cymbal09.wav
192,192,54198,1,2,0:0:0:0:
320,192,54198,1,0,0:0:0:40:cymbal09.wav
192,192,54468,1,2,0:0:0:0:
448,192,54468,1,0,0:0:0:40:cymbal08.wav
64,192,54739,1,2,0:0:0:0:
320,192,54739,128,0,55144:0:0:0:40:cymbal08.wav
448,192,54874,1,0,0:0:0:40:snare.wav
64,192,55144,128,2,56225:0:0:0:0:
192,192,55144,1,4,0:0:0:0:
448,192,55414,1,0,0:0:0:0:
320,192,55685,1,0,0:0:0:0:
192,192,55955,128,0,56225:0:0:0:40:LR_Tom Hit 2.wav
320,192,56225,1,0,0:0:0:40:snare.wav
448,192,56225,128,0,56766:0:0:0:40:LR_Tom Hit 3.wav
192,192,56495,1,0,0:0:0:0:
64,192,56766,1,2,0:0:0:0:
320,192,56766,1,0,0:0:0:40:cymbal09.wav
192,192,57036,1,2,0:0:0:0:
448,192,57036,1,0,0:0:0:40:cymbal09.wav
320,192,57171,1,0,0:0:0:0:
64,192,57306,1,2,0:0:0:0:
448,192,57306,128,4,57576:0:0:0:0:
64,192,57576,128,2,57847:0:0:0:0:
192,192,57576,1,0,0:0:0:0:
320,192,57847,128,2,58117:0:0:0:0:
448,192,57847,1,0,0:0:0:0:
64,192,58117,1,2,0:0:0:0:
192,192,58117,128,0,58387:0:0:0:0:
320,192,58387,1,2,0:0:0:0:
448,192,58387,128,0,58658:0:0:0:0:
192,192,58658,1,2,0:0:0:0:
320,192,58658,128,0,58928:0:0:0:0:
64,192,58928,1,2,0:0:0:0:
192,192,58928,128,0,59198:0:0:0:0:
64,192,59198,128,2,59468:0:0:0:0:
448,192,59198,1,0,0:0:0:0:
192,192,59468,1,2,0:0:0:0:
448,192,59468,128,0,59739:0:0:0:0:
64,192,59739,1,2,0:0:0:0:
320,192,59739,1,0,0:0:0:0:
192,192,60009,1,2,0:0:0:0:
448,192,60009,1,0,0:0:0:0:
64,192,60279,1,2,0:0:0:0:
448,192,60279,1,0,0:0:0:0:
192,192,60549,1,2,0:0:0:0:
320,192,60685,1,0,0:0:0:0:
448,192,60685,1,0,0:0:0:0:
64,192,60955,1,0,0:0:0:0:
192,192,60955,1,0,0:0:0:0:
64,192,61225,128,0,61631:0:0:0:0:
448,192,61225,1,0,0:0:0:0:
320,192,61360,1,2,0:0:0:0:
192,192,61495,1,2,0:0:0:0:
320,192,61631,1,2,0:0:0:0:
448,192,61631,1,4,0:0:0:0:
320,192,61901,128,2,62171:0:0:0:0:
448,192,61901,1,0,0:0:0:0:
64,192,62171,1,2,0:0:0:0:
192,192,62171,1,0,0:0:0:40:cymbal09.wav
64,192,62441,1,2,0:0:0:0:
192,192,62441,128,0,62712:0:0:0:0:
320,192,62712,1,2,0:0:0:0:
448,192,62712,1,0,0:0:0:40:cymbal08.wav
192,192,62847,1,0,0:0:0:0:
64,192,62982,1,2,0:0:0:0:
448,192,62982,1,0,0:0:0:40:cymbal09.wav
320,192,63117,1,0,0:0:0:0:
64,192,63252,1,2,0:0:0:0:
192,192,63252,1,0,0:0:0:40:cymbal08.wav
320,192,63387,1,0,0:0:0:0:
64,192,63522,128,2,63793:0:0:0:0:
448,192,63522,1,0,0:0:0:40:cymbal09.wav
320,192,63793,128,2,64266:0:0:0:0:
448,192,63793,1,0,0:0:0:40:cymbal10.wav
192,192,64063,1,2,0:0:0:0:
64,192,64266,128,0,64604:0:0:0:0:
448,192,64266,1,0,0:0:0:0:
192,192,64604,1,2,0:0:0:0:
448,192,64604,1,0,0:0:0:0:
320,192,64739,1,0,0:0:0:0:
64,192,64874,1,2,0:0:0:0:
192,192,65009,1,0,0:0:0:0:
448,192,65009,1,0,0:0:0:0:
192,192,65279,1,0,0:0:0:0:
320,192,65279,1,0,0:0:0:0:
64,192,65549,1,0,0:0:0:0:
320,192,65549,1,0,0:0:0:0:
192,192,65685,128,2,65955:0:0:0:0:
448,192,65685,1,0,0:0:0:40:cymbal09.wav
320,192,65955,1,4,0:0:0:0:
448,192,65955,1,2,0:0:0:0:
192,192,66090,1,0,0:0:0:0:
64,192,66225,1,2,0:0:0:0:
192,192,66360,1,0,0:0:0:0:
320,192,66495,1,2,0:0:0:0:
448,192,66631,1,0,0:0:0:0:
192,192,66766,1,2,0:0:0:0:
320,192,66766,1,0,0:0:0:40:cymbal09.wav
64,192,66901,1,0,0:0:0:0:
320,192,67036,1,2,0:0:0:0:
448,192,67036,1,4,0:0:0:0:
192,192,67171,1,0,0:0:0:0:
64,192,67306,1,2,0:0:0:0:
192,192,67441,1,0,0:0:0:0:
320,192,67576,1,2,0:0:0:0:
448,192,67576,1,0,0:0:0:0:
192,192,67712,1,0,0:0:0:0:
64,192,67847,1,2,0:0:0:0:
448,192,67847,1,0,0:0:0:40:cymbal09.wav
320,192,67982,1,0,0:0:0:0:
64,192,68117,1,4,0:0:0:0:
192,192,68117,128,2,68522:0:0:0:0:
448,192,68387,1,2,0:0:0:0:
320,192,68522,1,0,0:0:0:0:
64,192,68658,128,2,68928:0:0:0:0:
192,192,68658,1,0,0:0:0:0:
192,192,68928,1,2,0:0:0:0:
448,192,68928,1,0,0:0:0:40:cymbal09.wav
320,192,69063,1,0,0:0:0:0:
64,192,69198,1,6,0:0:0:0:
192,192,69333,1,0,0:0:0:0:
448,192,69333,1,0,0:0:0:0:
192,192,69604,1,0,0:0:0:0:
320,192,69604,1,0,0:0:0:0:
64,192,69874,128,0,70279:0:0:0:0:
320,192,69874,1,0,0:0:0:0:
448,192,70009,1,2,0:0:0:0:
192,192,70144,1,2,0:0:0:0:
320,192,70279,1,2,0:0:0:0:
448,192,70279,1,4,0:0:0:0:
192,192,70414,1,0,0:0:0:0:
64,192,70549,1,2,0:0:0:0:
64,192,70820,1,2,0:0:0:0:
192,192,70820,1,0,0:0:0:40:cymbal08.wav
320,192,70955,1,0,0:0:0:0:
448,192,71090,1,2,0:0:0:0:
320,192,71360,1,2,0:0:0:0:
448,192,71360,1,0,0:0:0:40:cymbal09.wav
192,192,71495,1,0,0:0:0:0:
64,192,71631,1,2,0:0:0:0:
64,192,71901,1,2,0:0:0:0:
192,192,71901,1,0,0:0:0:40:cymbal10.wav
320,192,72036,1,0,0:0:0:0:
448,192,72171,1,2,0:0:0:0:
192,192,72306,1,0,0:0:0:0:
64,192,72441,1,2,0:0:0:0:
448,192,72441,128,4,72847:0:0:0:0:
192,192,72712,1,2,0:0:0:0:
64,192,72847,128,0,73387:0:0:0:0:
320,192,72847,1,0,0:0:0:0:
448,192,72982,1,2,0:0:0:0:
192,192,73252,1,2,0:0:0:0:
320,192,73387,1,0,0:0:0:0:
192,192,73522,1,2,0:0:0:0:
448,192,73522,128,0,73793:0:0:0:0:
64,192,73793,1,2,0:0:0:0:
320,192,73793,128,0,74063:0:0:0:40:cymbal09.wav
192,192,74063,128,2,74333:0:0:0:0:
448,192,74063,1,0,0:0:0:0:
64,192,74333,128,2,74604:0:0:0:0:
320,192,74333,1,0,0:0:0:40:cymbal09.wav
192,192,74604,1,2,0:0:0:0:
448,192,74604,1,4,0:0:0:0:
320,192,74874,1,2,0:0:0:0:
448,192,74874,1,0,0:0:0:0:
192,192,75144,1,2,0:0:0:0:
320,192,75144,1,0,0:0:0:0:
64,192,75414,1,2,0:0:0:0:
192,192,75414,1,0,0:0:0:0:
64,192,75685,1,2,0:0:0:0:
320,192,75685,1,0,0:0:0:0:
192,192,75955,1,2,0:0:0:0:
320,192,75955,1,0,0:0:0:0:
192,192,76225,1,2,0:0:0:0:
448,192,76225,1,0,0:0:0:0:
64,192,76495,1,2,0:0:0:0:
448,192,76495,1,0,0:0:0:0:
64,192,76766,1,2,0:0:0:0:
320,192,76766,1,0,0:0:0:0:
192,192,77036,1,2,0:0:0:0:
64,192,77306,1,2,0:0:0:0:
448,192,77306,1,0,0:0:0:0:
320,192,77441,1,0,0:0:0:0:
64,192,77576,1,2,0:0:0:0:
192,192,77576,1,0,0:0:0:0:
320,192,77712,1,0,0:0:0:0:
192,192,77847,1,2,0:0:0:0:
448,192,77847,1,0,0:0:0:0:
320,192,78117,1,2,0:0:0:0:
64,192,78387,128,2,78928:0:0:0:0:
448,192,78387,1,0,0:0:0:0:
192,192,78658,1,2,0:0:0:0:
448,192,78793,1,2,0:0:0:0:
192,192,78928,1,4,0:0:0:0:
320,192,78928,1,2,0:0:0:0:
448,192,79063,1,0,0:0:0:0:
320,192,79198,1,2,0:0:0:0:
192,192,79333,1,0,0:0:0:0:
64,192,79468,1,2,0:0:0:0:
320,192,79604,1,0,0:0:0:0:
192,192,79739,1,2,0:0:0:0:
448,192,79874,1,0,0:0:0:0:
320,192,80009,1,2,0:0:0:0:
448,192,80144,1,0,0:0:0:40:snare.wav
192,192,80279,1,2,0:0:0:0:
320,192,80414,1,0,0:0:0:40:snare.wav
448,192,80549,1,2,0:0:0:0:
64,192,80685,1,0,0:0:0:40:snare.wav
192,192,80820,1,2,0:0:0:0:
320,192,80955,1,0,0:0:0:0:
64,192,81090,128,2,81360:0:0:0:0:
448,192,81090,1,0,0:0:0:40:cymbal09.wav
320,192,81360,128,2,81631:0:0:0:0:
64,192,81631,1,2,0:0:0:0:
192,192,81631,128,0,81901:0:0:0:40:cymbal09.wav
320,192,81901,1,2,0:0:0:0:
448,192,81901,128,0,82171:0:0:0:40:cymbal10.wav
64,192,82171,1,4,0:0:0:0:
192,192,82171,1,2,0:0:0:0:
320,192,82441,1,2,0:0:0:0:
64,192,82576,1,0,0:0:0:40:LR_Tom Hit 2.wav
448,192,82576,128,0,82847:0:0:0:0:
64,192,82847,1,0,0:0:0:40:LR_Tom Hit 3.wav
192,192,82847,128,0,83252:0:0:0:0:
320,192,82982,1,2,0:0:0:0:
320,192,83252,1,2,0:0:0:0:
448,192,83252,1,4,0:0:0:0:
320,192,83522,1,2,0:0:0:0:
448,192,83522,1,0,0:0:0:0:
192,192,83793,1,2,0:0:0:0:
320,192,83793,1,0,0:0:0:0:
64,192,84063,1,2,0:0:0:0:
192,192,84063,1,0,0:0:0:0:
64,192,84333,1,2,0:0:0:0:
320,192,84333,1,0,0:0:0:0:
192,192,84604,1,2,0:0:0:0:
320,192,84604,1,0,0:0:0:0:
192,192,84874,1,2,0:0:0:0:
448,192,84874,1,0,0:0:0:0:
64,192,85144,1,2,0:0:0:0:
448,192,85144,1,0,0:0:0:0:
64,192,85414,1,2,0:0:0:0:
320,192,85414,1,0,0:0:0:40:cymbal09.wav
192,192,85685,1,2,0:0:0:0:
448,192,85685,1,0,0:0:0:0:
64,192,85955,1,2,0:0:0:0:
320,192,85955,1,0,0:0:0:40:cymbal08.wav
192,192,86090,1,0,0:0:0:0:
320,192,86225,1,2,0:0:0:0:
448,192,86360,1,0,0:0:0:0:
64,192,86495,1,2,0:0:0:0:
192,192,86495,1,0,0:0:0:40:cymbal09.wav
64,192,86766,1,2,0:0:0:0:
320,192,86766,1,0,0:0:0:40:snare.wav
64,192,87036,1,2,0:0:0:0:
448,192,87036,1,0,0:0:0:40:snare.wav
192,192,87306,1,2,0:0:0:0:
448,192,87306,1,0,0:0:0:40:cymbal10.wav
64,192,87441,1,2,0:0:0:0:
320,192,87576,1,2,0:0:0:0:
448,192,87576,1,4,0:0:0:0:
320,192,87847,1,0,0:0:0:0:
64,192,88117,1,0,0:0:0:0:
64,192,88387,1,0,0:0:0:0:
192,192,88658,1,0,0:0:0:0:
192,192,88928,1,0,0:0:0:0:
448,192,89198,1,0,0:0:0:0:
320,192,89288,1,0,0:0:0:0:
192,192,89378,1,0,0:0:0:0:
64,192,89468,1,0,0:0:0:40:snare.wav
448,192,89468,1,0,0:0:0:0:
64,192,89739,128,2,90009:0:0:0:0:
320,192,89739,1,4,0:0:0:0:
192,192,90009,128,2,90279:0:0:0:0:
448,192,90009,1,0,0:0:0:0:
64,192,90279,1,2,0:0:0:0:
320,192,90279,128,0,90549:0:0:0:40:snare.wav
192,192,90549,1,2,0:0:0:0:
448,192,90549,128,0,90820:0:0:0:40:snare.wav
64,192,90820,1,2,0:0:0:0:
320,192,90820,1,0,0:0:0:40:snare.wav
192,192,91090,1,2,0:0:0:0:
448,192,91090,1,0,0:0:0:40:snare.wav
320,192,91360,1,2,0:0:0:0:
448,192,91360,1,0,0:0:0:40:LR_Tom Hit 2.wav
192,192,91631,1,2,0:0:0:0:
320,192,91721,1,0,0:0:0:40:LR_Tom Hit 3.wav
192,192,91811,1,0,0:0:0:40:LR_Tom Hit 3.wav
320,192,91901,1,2,0:0:0:0:
448,192,91901,1,0,0:0:0:40:cymbal09.wav
64,192,92171,1,4,0:0:0:0:
192,192,92171,1,2,0:0:0:0:
320,192,92441,1,2,0:0:0:0:
448,192,92441,1,0,0:0:0:40:cymbal09.wav
64,192,92712,1,2,0:0:0:0:
192,192,92712,1,4,0:0:0:0:
64,192,92982,128,2,93522:0:0:0:0:
448,192,92982,1,0,0:0:0:40:snare.wav
448,192,93522,128,0,94063:0:0:0:0:
64,192,94063,1,2,0:0:0:0:
192,192,94063,1,4,0:0:0:0:
320,192,94198,1,0,0:0:0:0:
448,192,94333,1,2,0:0:0:0:
64,192,94604,1,2,0:0:0:0:
448,192,94604,128,0,94874:0:0:0:0:
64,192,94874,1,2,0:0:0:0:
192,192,94874,1,0,0:0:0:0:
320,192,95144,1,2,0:0:0:0:
448,192,95144,1,0,0:0:0:40:snare.wav
192,192,95279,1,0,0:0:0:40:snare.wav
64,192,95414,1,2,0:0:0:0:
64,192,95685,128,2,95955:0:0:0:0:
448,192,95685,1,0,0:0:0:40:snare.wav
320,192,95955,1,2,0:0:0:0:
448,192,95955,1,0,0:0:0:40:snare.wav
64,192,96225,1,2,0:0:0:0:
192,192,96225,1,0,0:0:0:40:snare.wav
320,192,96360,1,0,0:0:0:40:snare.wav
448,192,96495,1,2,0:0:0:0:
64,192,96766,1,2,0:0:0:0:
448,192,96766,128,0,97036:0:0:0:40:snare.wav
64,192,97036,1,2,0:0:0:0:
192,192,97036,1,0,0:0:0:0:
320,192,97306,1,2,0:0:0:0:
448,192,97306,1,0,0:0:0:40:snare.wav
192,192,97441,1,0,0:0:0:40:snare.wav
64,192,97576,1,2,0:0:0:0:
64,192,97847,1,2,0:0:0:0:
448,192,97847,128,0,98117:0:0:0:40:snare.wav
64,192,98117,1,2,0:0:0:0:
192,192,98117,1,0,0:0:0:40:snare.wav
320,192,98252,1,0,0:0:0:40:snare.wav
64,192,98387,1,6,0:0:0:0:
448,192,98387,1,0,0:0:0:40:snare.wav
192,192,98522,1,0,0:0:0:0:
320,192,98658,1,2,0:0:0:0:
192,192,98928,1,2,0:0:0:0:
448,192,98928,128,0,99198:0:0:0:0:
64,192,99198,1,2,0:0:0:0:
192,192,99198,1,0,0:0:0:0:
64,192,99468,1,2,0:0:0:0:
448,192,99468,1,0,0:0:0:40:snare.wav
320,192,99604,1,0,0:0:0:40:snare.wav
192,192,99739,1,2,0:0:0:0:
64,192,100009,128,2,100279:0:0:0:0:
320,192,100009,1,0,0:0:0:40:snare.wav
320,192,100279,1,2,0:0:0:0:
448,192,100279,1,0,0:0:0:40:snare.wav
192,192,100549,128,2,100820:0:0:0:0:
448,192,100549,1,0,0:0:0:40:snare.wav
64,192,100820,1,2,0:0:0:0:
320,192,100820,1,0,0:0:0:0:
192,192,101090,128,2,101360:0:0:0:0:
448,192,101090,1,0,0:0:0:40:snare.wav
64,192,101360,1,2,0:0:0:0:
320,192,101360,1,0,0:0:0:0:
64,192,101631,128,2,101901:0:0:0:0:
448,192,101631,1,0,0:0:0:40:snare.wav
192,192,101901,1,2,0:0:0:0:
320,192,101901,1,0,0:0:0:40:snare.wav
64,192,102171,128,2,102441:0:0:0:0:
448,192,102171,1,0,0:0:0:40:snare.wav
320,192,102441,1,2,0:0:0:0:
448,192,102441,1,0,0:0:0:0:
192,192,102576,1,2,0:0:0:0:
64,192,102712,1,2,0:0:0:0:
448,192,102712,1,4,0:0:0:0:
192,192,102982,1,2,0:0:0:0:
64,192,103252,1,2,0:0:0:0:
320,192,103252,1,0,0:0:0:0:
192,192,103522,1,2,0:0:0:0:
64,192,103793,128,2,104874:0:0:0:0:
448,192,103793,1,0,0:0:0:0:
320,192,104063,1,2,0:0:0:0:
192,192,104333,1,2,0:0:0:0:
320,192,104604,1,2,0:0:0:0:
320,192,104874,128,2,105414:0:0:0:0:
448,192,104874,128,0,105414:0:0:0:0:
64,192,105144,1,2,0:0:0:0:
64,192,105414,1,2,0:0:0:0:
192,192,105414,1,0,0:0:0:0:
448,192,105685,1,2,0:0:0:0:
64,192,105955,1,2,0:0:0:0:
320,192,105955,1,0,0:0:0:0:
448,192,106225,1,2,0:0:0:0:
64,192,106495,1,2,0:0:0:0:
192,192,106495,1,0,0:0:0:40:snare.wav
320,192,106766,1,2,0:0:0:0:
448,192,106766,1,0,0:0:0:40:snare.wav
64,192,107036,1,2,0:0:0:0:
192,192,107036,1,4,0:0:0:0:
320,192,107306,1,2,0:0:0:0:
64,192,107576,1,2,0:0:0:0:
448,192,107576,1,0,0:0:0:0:
320,192,107712,1,0,0:0:0:0:
192,192,107847,1,2,0:0:0:0:
64,192,107982,1,0,0:0:0:0:
320,192,108117,1,2,0:0:0:0:
448,192,108117,1,0,0:0:0:0:
192,192,108387,1,2,0:0:0:0:
64,192,108658,1,2,0:0:0:0:
448,192,108658,1,0,0:0:0:40:snare.wav
192,192,108793,1,0,0:0:0:40:snare.wav
320,192,108928,1,2,0:0:0:0:
448,192,109063,1,0,0:0:0:0:
64,192,109198,128,2,109739:0:0:0:0:
192,192,109198,1,0,0:0:0:40:cymbal09.wav
192,192,109468,1,2,0:0:0:0:
320,192,109739,1,2,0:0:0:0:
448,192,109739,128,0,110279:0:0:0:40:cymbal09.wav
320,192,110009,1,2,0:0:0:0:
64,192,110279,1,2,0:0:0:0:
192,192,110369,1,0,0:0:0:40:drum-hitwhistle.wav
320,192,110459,1,0,0:0:0:40:drum-hitwhistle.wav
448,192,110549,1,2,0:0:0:0:
64,192,110820,1,2,0:0:0:0:
192,192,110910,1,0,0:0:0:40:drum-hitwhistle.wav
320,192,111000,1,0,0:0:0:40:drum-hitwhistle.wav
448,192,111090,1,2,0:0:0:0:
64,192,111180,1,0,0:0:0:40:drum-hitwhistle.wav
192,192,111270,1,0,0:0:0:40:drum-hitwhistle.wav
320,192,111360,128,0,111631:0:0:0:0:
448,192,111631,128,0,111901:0:0:0:40:snare.wav
64,192,111901,128,0,112171:0:0:0:40:snare.wav
192,192,112171,128,0,112441:0:0:0:0:
320,192,112441,1,2,0:0:0:0:
448,192,112441,1,4,0:0:0:0:
192,192,112712,1,0,0:0:0:0:
64,192,112982,1,0,0:0:0:40:snare.wav
448,192,112982,1,0,0:0:0:0:
320,192,113252,1,0,0:0:0:0:
64,192,113387,1,0,0:0:0:40:snare.wav
320,192,113522,1,0,0:0:0:0:
64,192,113658,1,0,0:0:0:0:
192,192,113793,1,0,0:0:0:40:snare.wav
64,192,114063,1,0,0:0:0:40:snare.wav
448,192,114063,1,0,0:0:0:0:
320,192,114198,1,0,0:0:0:0:
64,192,114333,128,0,114604:0:0:0:40:snare.wav
192,192,114604,1,2,0:0:0:0:
320,192,114604,128,4,118928:0:0:0:0:
448,192,114604,128,0,118928:0:0:0:0:
