osu file format v14

[General]
AudioFilename: xyHATTE.mp3
AudioLeadIn: 0
PreviewTime: 56225
Countdown: 0
SampleSet: Soft
StackLeniency: 0.7
Mode: 3
LetterboxInBreaks: 0
SpecialStyle: 0
WidescreenStoryboard: 1

[Editor]
DistanceSpacing: 1.5
BeatDivisor: 4
GridSize: 32
TimelineZoom: 2.850002

[Metadata]
Title:XyHATTE
TitleUnicode:XyHATTE
Artist:CosMo@BousouUltimate
ArtistUnicode:cosMo@暴走Ultimate
Creator:LNP-
Version:GRAVITY
Source:SOUND VOLTEX III GRAVITY WARS
Tags:SDVX bemani For UltraPlayers cosMo@BousouP
BeatmapID:1358058
BeatmapSetID:483454

[Difficulty]
HPDrainRate:8.2
CircleSize:4
OverallDifficulty:8.2
ApproachRate:5
SliderMultiplier:1.4
SliderTickRate:1

[Events]
//Background and Video events
0,0,"background.jpg",0,0
//Break Periods
//Storyboard Layer 0 (Background)
//Storyboard Layer 1 (Fail)
//Storyboard Layer 2 (Pass)
//Storyboard Layer 3 (Foreground)
//Storyboard Layer 4 (Overlay)
//Storyboard Sound Samples
Sample,34874,0,"cymbal09.wav",40
Sample,50820,0,"cymbal09.wav",40
Sample,101901,0,"cymbal09.wav",40

[TimingPoints]
1902,270.27027027027,4,2,1,40,1,0
7577,270.27027027027,4,2,1,40,1,0
9739,-100,4,2,1,40,0,1
9806,-100,4,2,1,40,0,0
18387,-100,4,2,1,40,0,1
18455,-100,4,2,1,40,0,0
57306,-100,4,2,1,40,0,1
74604,-100,4,2,1,40,0,0
94063,-100,4,2,1,40,0,1
94131,-100,4,2,1,40,0,0

[HitObjects]
192,192,1902,5,8,0:0:0:0:
448,192,2172,1,8,0:0:0:0:
64,192,2442,1,8,0:0:0:0:
192,192,2712,1,8,0:0:0:0:
320,192,2983,1,8,0:0:0:0:
448,192,3253,1,8,0:0:0:0:
192,192,3523,1,8,0:0:0:0:
320,192,3793,1,8,0:0:0:0:
64,192,4064,1,8,0:0:0:0:
192,192,4334,1,0,0:0:0:0:
448,192,4604,1,8,0:0:0:0:
320,192,4874,1,0,0:0:0:0:
64,192,5111,1,0,0:0:0:0:
192,192,5145,1,8,0:0:0:0:
320,192,5212,1,8,0:0:0:0:
320,192,5392,1,0,0:0:0:0:
192,192,5483,1,8,0:0:0:0:
320,192,5618,1,8,0:0:0:0:
192,192,5753,1,8,0:0:0:0:
320,192,5854,1,8,0:0:0:0:
192,192,5989,1,8,0:0:0:0:
320,192,6124,1,8,0:0:0:0:
448,192,6310,1,8,0:0:0:0:
64,192,7037,128,8,7307:0:0:0:0:
192,192,7037,128,0,7307:0:0:0:0:
320,192,7307,128,8,7510:0:0:0:0:
448,192,7307,128,0,7510:0:0:0:0:
64,192,7577,1,2,0:0:0:0:
320,192,7577,1,4,0:0:0:0:
448,192,7577,1,0,0:0:0:0:
64,192,7847,128,0,8117:0:0:0:40:snare.wav
192,192,7847,1,0,0:0:0:0:
448,192,7937,1,0,0:0:0:40:snare.wav
192,192,8027,1,0,0:0:0:40:snare.wav
320,192,8117,1,0,0:0:0:40:LR_Tom Hit 2.wav
448,192,8117,128,0,8387:0:0:0:0:
64,192,8207,1,0,0:0:0:40:LR_Tom Hit 2.wav
320,192,8297,1,0,0:0:0:40:LR_Tom Hit 2.wav
64,192,8387,128,0,8567:0:0:0:40:LR_Tom Hit 3.wav
192,192,8387,1,0,0:0:0:0:
448,192,8477,1,0,0:0:0:40:LR_Tom Hit 3.wav
320,192,8567,1,0,0:0:0:40:LR_Tom Hit 3.wav
64,192,8658,1,2,0:0:0:0:
192,192,8658,128,0,8928:0:0:0:40:cymbal09.wav
448,192,8658,1,0,0:0:0:0:
320,192,8928,1,0,0:0:0:0:
448,192,8928,128,0,9198:0:0:0:0:
64,192,9018,1,0,0:0:0:0:
320,192,9108,1,0,0:0:0:0:
64,192,9198,1,0,0:0:0:40:snare.wav
192,192,9198,1,0,0:0:0:40:cymbal08.wav
320,192,9266,1,0,0:0:0:40:snare.wav
448,192,9333,1,0,0:0:0:40:snare.wav
192,192,9401,1,0,0:0:0:40:snare.wav
320,192,9468,1,0,0:0:0:50:snare.wav
448,192,9468,1,0,0:0:0:0:
64,192,9536,1,0,0:0:0:50:snare.wav
192,192,9536,1,0,0:0:0:0:
320,192,9604,1,0,0:0:0:50:snare.wav
448,192,9604,1,0,0:0:0:0:
192,192,9671,1,0,0:0:0:50:snare.wav
64,192,9739,1,2,0:0:0:0:
320,192,9739,1,0,0:0:0:40:cymbal09.wav
448,192,9739,128,0,9874:0:0:0:0:
64,192,10009,1,2,0:0:0:0:
448,192,10009,128,0,10144:0:0:0:0:
192,192,10279,1,2,0:0:0:0:
320,192,10279,1,0,0:0:0:0:
192,192,10414,128,0,10549:0:0:0:0:
448,192,10414,1,0,0:0:0:0:
64,192,10549,1,2,0:0:0:0:
448,192,10549,1,0,0:0:0:0:
64,192,10685,1,0,0:0:0:0:
320,192,10685,128,0,10955:0:0:0:0:
192,192,10820,1,2,0:0:0:0:
448,192,10820,1,0,0:0:0:0:
64,192,10955,1,0,0:0:0:40:snare.wav
448,192,10955,1,0,0:0:0:0:
192,192,11022,1,0,0:0:0:40:snare.wav
320,192,11090,1,2,0:0:0:0:
448,192,11090,1,0,0:0:0:40:snare.wav
192,192,11158,1,0,0:0:0:40:snare.wav
64,192,11225,1,0,0:0:0:40:snare.wav
320,192,11225,1,0,0:0:0:0:
448,192,11293,1,0,0:0:0:40:snare.wav
64,192,11360,1,2,0:0:0:0:
192,192,11360,1,0,0:0:0:40:snare.wav
192,192,11495,1,0,0:0:0:40:snare.wav
320,192,11495,1,0,0:0:0:0:
320,192,11631,1,2,0:0:0:0:
448,192,11631,1,0,0:0:0:40:snare.wav
192,192,11766,1,0,0:0:0:0:
320,192,11766,1,0,0:0:0:0:
64,192,11901,128,2,12036:0:0:0:0:
192,192,11901,1,0,0:0:0:0:
448,192,12036,1,0,0:0:0:0:
192,192,12171,128,2,12306:0:0:0:0:
320,192,12171,1,0,0:0:0:0:
64,192,12306,1,0,0:0:0:0:
192,192,12441,1,2,0:0:0:0:
448,192,12441,1,0,0:0:0:0:
320,192,12576,128,0,12712:0:0:0:0:
448,192,12576,1,0,0:0:0:0:
64,192,12712,1,2,0:0:0:0:
192,192,12712,1,0,0:0:0:0:
64,192,12847,1,0,0:0:0:0:
448,192,12847,128,0,13117:0:0:0:0:
192,192,12982,1,2,0:0:0:0:
320,192,12982,1,0,0:0:0:0:
64,192,13117,1,0,0:0:0:40:snare.wav
320,192,13117,1,0,0:0:0:0:
192,192,13185,1,0,0:0:0:40:snare.wav
64,192,13252,1,2,0:0:0:0:
448,192,13252,1,0,0:0:0:40:snare.wav
192,192,13387,1,0,0:0:0:40:snare.wav
448,192,13387,1,0,0:0:0:0:
320,192,13455,1,0,0:0:0:40:snare.wav
64,192,13522,1,2,0:0:0:0:
448,192,13522,1,0,0:0:0:40:snare.wav
192,192,13590,1,0,0:0:0:0:
64,192,13658,1,0,0:0:0:0:
320,192,13658,1,0,0:0:0:0:
448,192,13725,1,0,0:0:0:0:
64,192,13793,1,2,0:0:0:0:
192,192,13793,1,0,0:0:0:40:cymbal09.wav
320,192,13793,1,0,0:0:0:0:
64,192,13928,1,2,0:0:0:0:
192,192,13928,1,0,0:0:0:40:cymbal09.wav
448,192,13928,1,0,0:0:0:0:
64,192,14063,1,2,0:0:0:0:
192,192,14063,1,0,0:0:0:40:cymbal10.wav
320,192,14063,1,0,0:0:0:0:
448,192,14063,128,0,14198:0:0:0:0:
64,192,14333,1,2,0:0:0:0:
448,192,14333,128,0,14468:0:0:0:0:
192,192,14604,1,2,0:0:0:0:
320,192,14604,1,0,0:0:0:0:
192,192,14739,128,0,14874:0:0:0:0:
448,192,14739,1,0,0:0:0:0:
64,192,14874,1,2,0:0:0:0:
448,192,14874,1,0,0:0:0:0:
192,192,15009,1,0,0:0:0:0:
320,192,15009,128,0,15279:0:0:0:0:
64,192,15144,1,2,0:0:0:0:
192,192,15144,1,0,0:0:0:0:
64,192,15279,1,0,0:0:0:40:snare.wav
448,192,15279,1,0,0:0:0:0:
192,192,15347,1,0,0:0:0:40:snare.wav
320,192,15414,1,2,0:0:0:0:
448,192,15414,1,0,0:0:0:40:snare.wav
64,192,15482,1,0,0:0:0:40:snare.wav
192,192,15549,1,0,0:0:0:40:snare.wav
320,192,15549,1,0,0:0:0:0:
448,192,15617,1,0,0:0:0:40:snare.wav
64,192,15685,1,2,0:0:0:0:
192,192,15685,1,0,0:0:0:40:snare.wav
64,192,15820,1,0,0:0:0:40:snare.wav
320,192,15820,1,0,0:0:0:0:
192,192,15955,1,2,0:0:0:0:
320,192,15955,1,0,0:0:0:40:snare.wav
192,192,16090,1,0,0:0:0:0:
448,192,16090,1,0,0:0:0:0:
64,192,16225,1,2,0:0:0:0:
320,192,16225,1,4,0:0:0:0:
448,192,16225,1,0,0:0:0:0:
192,192,16360,1,0,0:0:0:0:
64,192,16462,1,0,0:0:0:0:
320,192,16495,1,2,0:0:0:0:
448,192,16495,128,0,16698:0:0:0:0:
192,192,16631,1,0,0:0:0:0:
64,192,16766,1,2,0:0:0:0:
320,192,16766,1,4,0:0:0:0:
448,192,16766,1,0,0:0:0:0:
192,192,16901,1,0,0:0:0:0:
448,192,16901,1,0,0:0:0:0:
64,192,17036,1,2,0:0:0:0:
320,192,17036,1,0,0:0:0:0:
64,192,17171,1,0,0:0:0:0:
192,192,17171,1,0,0:0:0:0:
64,192,17306,128,2,17576:0:0:0:0:
320,192,17306,1,0,0:0:0:40:cymbal08.wav
448,192,17306,1,0,0:0:0:0:
192,192,17441,1,0,0:0:0:40:drum-hitwhistle.wav
448,192,17441,1,0,0:0:0:0:
320,192,17509,1,0,0:0:0:40:drum-hitwhistle.wav
192,192,17576,128,2,17847:0:0:0:0:
448,192,17576,1,0,0:0:0:40:cymbal09.wav
64,192,17712,1,0,0:0:0:40:drum-hitwhistle.wav
320,192,17712,1,0,0:0:0:0:
64,192,17847,1,2,0:0:0:0:
320,192,17847,128,0,18117:0:0:0:0:
192,192,17982,1,0,0:0:0:40:drum-hitwhistle.wav
448,192,17982,1,0,0:0:0:0:
64,192,18049,1,0,0:0:0:0:
192,192,18117,1,2,0:0:0:0:
448,192,18117,1,0,0:0:0:40:cymbal09.wav
64,192,18185,1,0,0:0:0:0:
320,192,18252,1,0,0:0:0:40:drum-hitwhistle.wav
448,192,18252,1,0,0:0:0:0:
192,192,18320,1,0,0:0:0:40:drum-hitwhistle.wav
64,192,18387,1,2,0:0:0:0:
320,192,18387,1,4,0:0:0:0:
448,192,18387,1,0,0:0:0:0:
192,192,18522,1,0,0:0:0:0:
64,192,18658,1,2,0:0:0:0:
448,192,18658,1,0,0:0:0:0:
320,192,18725,1,0,0:0:0:0:
192,192,18793,1,0,0:0:0:0:
64,192,18860,1,0,0:0:0:0:
192,192,18928,1,2,0:0:0:0:
320,192,18928,1,0,0:0:0:0:
448,192,18995,1,0,0:0:0:0:
320,192,19063,1,0,0:0:0:0:
192,192,19131,1,0,0:0:0:0:
64,192,19198,1,2,0:0:0:0:
448,192,19198,1,0,0:0:0:0:
320,192,19266,1,0,0:0:0:0:
192,192,19333,1,0,0:0:0:0:
64,192,19401,1,0,0:0:0:0:
320,192,19468,1,2,0:0:0:0:
448,192,19468,1,0,0:0:0:0:
64,192,19604,1,0,0:0:0:40:snare.wav
192,192,19671,1,0,0:0:0:40:snare.wav
320,192,19739,1,2,0:0:0:0:
448,192,19739,1,0,0:0:0:40:snare.wav
64,192,19806,1,0,0:0:0:0:
192,192,19874,1,0,0:0:0:40:snare.wav
320,192,19941,1,0,0:0:0:40:snare.wav
64,192,20009,1,2,0:0:0:0:
448,192,20009,1,0,0:0:0:40:snare.wav
192,192,20076,1,0,0:0:0:0:
320,192,20144,1,0,0:0:0:40:snare.wav
448,192,20212,1,0,0:0:0:0:
64,192,20279,1,2,0:0:0:0:
192,192,20279,1,0,0:0:0:40:snare.wav
320,192,20347,1,0,0:0:0:0:
448,192,20414,1,0,0:0:0:0:
192,192,20482,1,0,0:0:0:0:
64,192,20549,1,2,0:0:0:0:
448,192,20549,1,0,0:0:0:0:
192,192,20617,1,0,0:0:0:0:
320,192,20617,1,0,0:0:0:0:
64,192,20685,1,0,0:0:0:0:
448,192,20685,1,0,0:0:0:0:
192,192,20752,1,0,0:0:0:0:
320,192,20752,1,0,0:0:0:0:
64,192,20820,1,2,0:0:0:0:
448,192,20820,1,0,0:0:0:0:
192,192,20887,1,0,0:0:0:0:
320,192,20887,1,0,0:0:0:0:
64,192,20955,1,0,0:0:0:0:
448,192,20955,1,0,0:0:0:0:
192,192,21022,1,0,0:0:0:0:
320,192,21022,1,0,0:0:0:0:
64,192,21090,1,2,0:0:0:0:
448,192,21090,1,0,0:0:0:0:
320,192,21158,1,0,0:0:0:0:
192,192,21225,1,0,0:0:0:0:
64,192,21293,1,0,0:0:0:0:
320,192,21360,1,2,0:0:0:0:
448,192,21360,1,0,0:0:0:0:
192,192,21428,1,0,0:0:0:0:
64,192,21495,1,0,0:0:0:0:
192,192,21563,1,0,0:0:0:0:
320,192,21631,1,2,0:0:0:0:
448,192,21631,1,0,0:0:0:0:
64,192,21698,1,0,0:0:0:0:
192,192,21766,1,0,0:0:0:40:snare.wav
320,192,21833,1,0,0:0:0:40:snare.wav
64,192,21901,1,2,0:0:0:0:
448,192,21901,1,0,0:0:0:40:snare.wav
192,192,21968,1,0,0:0:0:0:
320,192,22036,1,0,0:0:0:40:snare.wav
192,192,22104,1,0,0:0:0:40:snare.wav
64,192,22171,1,2,0:0:0:0:
448,192,22171,1,0,0:0:0:40:snare.wav
192,192,22239,1,0,0:0:0:0:
320,192,22306,1,0,0:0:0:40:snare.wav
448,192,22374,1,0,0:0:0:0:
64,192,22441,1,2,0:0:0:0:
192,192,22441,1,0,0:0:0:40:snare.wav
320,192,22441,1,0,0:0:0:40:cymbal09.wav
448,192,22509,1,0,0:0:0:0:
64,192,22576,1,2,0:0:0:0:
192,192,22576,1,0,0:0:0:0:
320,192,22644,1,0,0:0:0:0:
64,192,22712,1,2,0:0:0:0:
192,192,22712,1,0,0:0:0:40:cymbal10.wav
448,192,22712,1,0,0:0:0:0:
320,192,22847,1,0,0:0:0:0:
64,192,22982,1,2,0:0:0:0:
448,192,22982,1,0,0:0:0:0:
320,192,23049,1,0,0:0:0:0:
192,192,23117,1,0,0:0:0:0:
64,192,23185,1,0,0:0:0:0:
192,192,23252,1,2,0:0:0:0:
448,192,23252,1,0,0:0:0:0:
320,192,23320,1,0,0:0:0:0:
192,192,23387,1,0,0:0:0:0:
320,192,23455,1,0,0:0:0:0:
64,192,23522,1,2,0:0:0:0:
448,192,23522,1,0,0:0:0:0:
192,192,23590,1,0,0:0:0:0:
320,192,23658,1,0,0:0:0:0:
192,192,23725,1,0,0:0:0:0:
64,192,23793,1,2,0:0:0:0:
448,192,23793,1,0,0:0:0:0:
320,192,23860,1,0,0:0:0:0:
192,192,23928,1,0,0:0:0:40:snare.wav
64,192,23995,1,0,0:0:0:40:snare.wav
192,192,24063,1,2,0:0:0:0:
448,192,24063,1,0,0:0:0:40:snare.wav
320,192,24131,1,0,0:0:0:0:
192,192,24198,1,0,0:0:0:40:snare.wav
320,192,24266,1,0,0:0:0:40:snare.wav
64,192,24333,1,2,0:0:0:0:
448,192,24333,1,0,0:0:0:40:snare.wav
192,192,24401,1,0,0:0:0:0:
320,192,24468,1,0,0:0:0:40:snare.wav
192,192,24536,1,0,0:0:0:0:
64,192,24604,1,2,0:0:0:0:
448,192,24604,1,0,0:0:0:40:snare.wav
320,192,24671,1,0,0:0:0:0:
192,192,24739,1,0,0:0:0:0:
64,192,24806,1,0,0:0:0:0:
192,192,24874,1,2,0:0:0:0:
320,192,24874,1,0,0:0:0:40:cymbal09.wav
448,192,24874,1,0,0:0:0:0:
64,192,24941,1,0,0:0:0:0:
320,192,25009,1,0,0:0:0:0:
448,192,25009,1,0,0:0:0:0:
192,192,25076,1,0,0:0:0:0:
64,192,25144,1,2,0:0:0:0:
448,192,25144,1,0,0:0:0:0:
64,192,25279,1,0,0:0:0:0:
192,192,25279,1,0,0:0:0:0:
320,192,25347,1,0,0:0:0:0:
64,192,25414,1,2,0:0:0:0:
192,192,25414,1,0,0:0:0:40:cymbal08.wav
448,192,25414,1,0,0:0:0:0:
320,192,25549,1,0,0:0:0:0:
448,192,25549,1,0,0:0:0:0:
64,192,25685,1,2,0:0:0:0:
192,192,25685,1,0,0:0:0:0:
320,192,25752,1,0,0:0:0:0:
64,192,25820,1,0,0:0:0:0:
448,192,25820,1,0,0:0:0:0:
192,192,25887,1,0,0:0:0:0:
320,192,25955,1,2,0:0:0:0:
448,192,25955,1,0,0:0:0:0:
64,192,26045,1,0,0:0:0:40:drum-hitwhistle.wav
192,192,26045,1,0,0:0:0:0:
320,192,26135,1,0,0:0:0:40:drum-hitwhistle.wav
448,192,26135,1,0,0:0:0:0:
64,192,26225,1,2,0:0:0:0:
192,192,26225,1,0,0:0:0:0:
320,192,26315,1,0,0:0:0:0:
448,192,26405,1,0,0:0:0:0:
64,192,26495,1,2,0:0:0:0:
192,192,26495,1,0,0:0:0:0:
320,192,26586,1,0,0:0:0:40:drum-hitwhistle.wav
448,192,26586,1,0,0:0:0:0:
64,192,26676,1,0,0:0:0:40:drum-hitwhistle.wav
192,192,26676,1,0,0:0:0:0:
320,192,26766,1,2,0:0:0:0:
448,192,26766,1,0,0:0:0:0:
64,192,26856,1,0,0:0:0:40:drum-hitwhistle.wav
192,192,26856,1,0,0:0:0:0:
320,192,26946,1,0,0:0:0:40:drum-hitwhistle.wav
448,192,26946,1,0,0:0:0:0:
64,192,27036,1,2,0:0:0:0:
192,192,27036,1,4,0:0:0:0:
448,192,27036,1,0,0:0:0:0:
192,192,27171,1,0,0:0:0:0:
320,192,27306,1,2,0:0:0:0:
448,192,27306,1,0,0:0:0:0:
192,192,27441,1,0,0:0:0:0:
64,192,27576,1,2,0:0:0:0:
448,192,27576,1,0,0:0:0:0:
192,192,27712,1,0,0:0:0:0:
320,192,27847,1,2,0:0:0:0:
448,192,27847,1,0,0:0:0:0:
192,192,27982,1,0,0:0:0:0:
64,192,28117,128,2,28658:0:0:0:0:
448,192,28117,1,0,0:0:0:0:
192,192,28252,1,0,0:0:0:40:snare.wav
320,192,28320,1,0,0:0:0:40:snare.wav
192,192,28387,1,2,0:0:0:0:
448,192,28387,1,0,0:0:0:40:snare.wav
448,192,28522,1,0,0:0:0:40:snare.wav
320,192,28590,1,0,0:0:0:40:snare.wav
192,192,28658,128,2,29198:0:0:0:0:
448,192,28658,1,0,0:0:0:40:snare.wav
320,192,28793,1,0,0:0:0:40:snare.wav
64,192,28928,1,2,0:0:0:0:
448,192,28928,1,0,0:0:0:40:snare.wav
320,192,29063,1,0,0:0:0:0:
64,192,29198,1,2,0:0:0:0:
320,192,29198,128,0,29739:0:0:0:0:
448,192,29333,1,0,0:0:0:0:
64,192,29468,1,2,0:0:0:0:
192,192,29468,1,0,0:0:0:0:
448,192,29604,1,0,0:0:0:0:
64,192,29739,1,2,0:0:0:0:
448,192,29739,1,0,0:0:0:0:
320,192,29874,1,0,0:0:0:0:
64,192,30009,1,2,0:0:0:0:
192,192,30009,1,0,0:0:0:0:
320,192,30144,1,0,0:0:0:0:
64,192,30279,1,2,0:0:0:0:
448,192,30279,128,0,30820:0:0:0:0:
320,192,30414,1,0,0:0:0:40:snare.wav
192,192,30482,1,0,0:0:0:40:snare.wav
64,192,30549,1,2,0:0:0:0:
320,192,30549,1,0,0:0:0:40:snare.wav
64,192,30685,1,0,0:0:0:40:snare.wav
192,192,30752,1,0,0:0:0:40:snare.wav
64,192,30820,1,2,0:0:0:0:
320,192,30820,128,0,31360:0:0:0:40:snare.wav
448,192,30955,1,0,0:0:0:40:snare.wav
64,192,31090,1,2,0:0:0:0:
192,192,31090,1,0,0:0:0:40:snare.wav
448,192,31090,1,0,0:0:0:40:cymbal09.wav
64,192,31225,1,2,0:0:0:0:
192,192,31225,1,0,0:0:0:0:
64,192,31360,1,2,0:0:0:0:
192,192,31360,128,0,31901:0:0:0:40:cymbal10.wav
448,192,31360,1,0,0:0:0:0:
320,192,31495,1,0,0:0:0:0:
64,192,31631,1,2,0:0:0:0:
448,192,31631,1,0,0:0:0:0:
320,192,31766,1,0,0:0:0:0:
64,192,31901,1,2,0:0:0:0:
448,192,31901,1,0,0:0:0:0:
192,192,32036,1,0,0:0:0:0:
320,192,32171,1,2,0:0:0:0:
448,192,32171,1,0,0:0:0:0:
192,192,32306,1,0,0:0:0:0:
64,192,32441,1,2,0:0:0:0:
320,192,32441,128,0,32982:0:0:0:0:
448,192,32576,1,0,0:0:0:40:snare.wav
192,192,32644,1,0,0:0:0:40:snare.wav
64,192,32712,1,2,0:0:0:0:
448,192,32712,1,0,0:0:0:40:snare.wav
64,192,32847,1,0,0:0:0:40:snare.wav
192,192,32914,1,0,0:0:0:40:snare.wav
64,192,32982,128,2,33522:0:0:0:0:
448,192,32982,1,0,0:0:0:40:snare.wav
320,192,33117,1,0,0:0:0:40:snare.wav
192,192,33252,1,2,0:0:0:0:
448,192,33252,1,0,0:0:0:40:snare.wav
320,192,33387,1,0,0:0:0:0:
192,192,33522,1,2,0:0:0:0:
320,192,33522,1,0,0:0:0:40:cymbal09.wav
448,192,33522,128,0,33793:0:0:0:0:
192,192,33658,1,0,0:0:0:0:
64,192,33793,128,2,34063:0:0:0:0:
320,192,33793,1,0,0:0:0:0:
448,192,33928,1,0,0:0:0:0:
192,192,34063,1,2,0:0:0:0:
320,192,34063,1,0,0:0:0:40:cymbal09.wav
448,192,34063,128,0,34333:0:0:0:0:
192,192,34198,1,0,0:0:0:0:
64,192,34333,128,2,34604:0:0:0:0:
320,192,34333,1,0,0:0:0:0:
448,192,34468,1,0,0:0:0:0:
192,192,34604,1,2,0:0:0:0:
320,192,34604,1,0,0:0:0:40:cymbal08.wav
448,192,34604,128,0,34874:0:0:0:0:
320,192,34739,128,0,35009:0:0:0:0:
192,192,34874,128,2,35144:0:0:0:0:
64,192,35009,128,0,35279:0:0:0:0:
320,192,35144,1,2,0:0:0:0:
448,192,35144,128,0,35279:0:0:0:40:cymbal09.wav
192,192,35279,1,2,0:0:0:0:
320,192,35279,128,0,35414:0:0:0:0:
64,192,35414,128,2,35549:0:0:0:0:
192,192,35414,1,0,0:0:0:40:cymbal09.wav
192,192,35549,128,2,35685:0:0:0:0:
320,192,35549,1,0,0:0:0:0:
64,192,35685,1,2,0:0:0:0:
320,192,35685,1,4,0:0:0:0:
448,192,35685,1,0,0:0:0:0:
64,192,35955,1,8,0:0:0:0:
64,192,36225,1,8,0:0:0:0:
192,192,36360,1,8,0:0:0:0:
320,192,36495,1,8,0:0:0:0:
448,192,36631,1,8,0:0:0:0:
64,192,36766,1,8,0:0:0:0:
192,192,36766,1,0,0:0:0:0:
320,192,37036,1,8,0:0:0:0:
192,192,37306,1,8,0:0:0:0:
64,192,37576,1,8,0:0:0:0:
320,192,37847,1,8,0:0:0:0:
448,192,37847,1,0,0:0:0:0:
320,192,38117,1,8,0:0:0:0:
192,192,38252,1,8,0:0:0:0:
64,192,38387,1,8,0:0:0:0:
448,192,38387,1,0,0:0:0:0:
320,192,38522,1,8,0:0:0:0:
192,192,38658,1,8,0:0:0:0:
64,192,38793,1,8,0:0:0:0:
192,192,38928,1,8,0:0:0:0:
448,192,38928,1,0,0:0:0:0:
448,192,39198,1,8,0:0:0:0:
192,192,39468,1,8,0:0:0:0:
320,192,39468,1,0,0:0:0:0:
64,192,39739,1,8,0:0:0:0:
64,192,40009,1,8,0:0:0:0:
448,192,40009,1,0,0:0:0:0:
192,192,40279,1,8,0:0:0:0:
192,192,40549,1,8,0:0:0:0:
448,192,40549,1,0,0:0:0:0:
320,192,40820,1,8,0:0:0:0:
320,192,41090,1,8,0:0:0:0:
448,192,41090,1,0,0:0:0:0:
192,192,41360,1,8,0:0:0:0:
320,192,41631,1,8,0:0:0:0:
64,192,41901,1,8,0:0:0:0:
64,192,42171,1,8,0:0:0:0:
448,192,42171,1,0,0:0:0:0:
320,192,42441,1,8,0:0:0:0:
192,192,42712,1,8,0:0:0:0:
448,192,42712,1,0,0:0:0:0:
64,192,42982,1,8,0:0:0:0:
64,192,43252,1,2,0:0:0:0:
192,192,43252,1,0,0:0:0:40:cymbal08.wav
448,192,43252,1,0,0:0:0:0:
64,192,43522,1,2,0:0:0:0:
192,192,43522,1,0,0:0:0:40:cymbal09.wav
448,192,43522,1,0,0:0:0:0:
64,192,43793,1,2,0:0:0:0:
320,192,43793,1,0,0:0:0:40:cymbal08.wav
448,192,43793,128,0,43928:0:0:0:0:
192,192,43928,1,0,0:0:0:0:
320,192,43928,128,0,44063:0:0:0:0:
64,192,44063,128,2,44198:0:0:0:0:
192,192,44063,1,0,0:0:0:40:cymbal09.wav
448,192,44063,1,0,0:0:0:0:
192,192,44198,128,0,44333:0:0:0:0:
320,192,44198,1,0,0:0:0:0:
64,192,44333,1,2,0:0:0:0:
320,192,44333,1,4,0:0:0:0:
448,192,44333,1,0,0:0:0:0:
192,192,44468,1,0,0:0:0:0:
64,192,44604,1,2,0:0:0:0:
448,192,44604,1,0,0:0:0:40:LR_Tom Hit 2.wav
320,192,44739,1,0,0:0:0:40:LR_Tom Hit 2.wav
64,192,44874,1,2,0:0:0:0:
192,192,44874,1,0,0:0:0:0:
64,192,45009,1,0,0:0:0:40:LR_Tom Hit 3.wav
320,192,45009,1,0,0:0:0:0:
192,192,45144,1,2,0:0:0:0:
448,192,45144,1,0,0:0:0:0:
320,192,45279,1,0,0:0:0:0:
448,192,45279,1,0,0:0:0:0:
64,192,45414,1,2,0:0:0:0:
320,192,45414,128,0,45685:0:0:0:0:
448,192,45549,1,0,0:0:0:0:
192,192,45685,128,2,45955:0:0:0:0:
448,192,45685,1,0,0:0:0:0:
320,192,45820,1,0,0:0:0:0:
64,192,45955,128,2,46225:0:0:0:0:
320,192,45955,1,0,0:0:0:0:
192,192,46090,1,0,0:0:0:40:snare.wav
320,192,46158,1,0,0:0:0:40:snare.wav
192,192,46225,1,2,0:0:0:0:
448,192,46225,1,0,0:0:0:40:snare.wav
320,192,46360,1,0,0:0:0:40:snare.wav
192,192,46428,1,0,0:0:0:40:snare.wav
64,192,46495,128,2,46766:0:0:0:0:
320,192,46495,1,0,0:0:0:40:snare.wav
448,192,46495,1,0,0:0:0:40:cymbal09.wav
192,192,46631,1,0,0:0:0:0:
192,192,46766,128,2,46968:0:0:0:0:
448,192,46766,1,0,0:0:0:0:
320,192,46901,1,0,0:0:0:40:LR_Tom Hit 2.wav
448,192,46968,1,0,0:0:0:40:LR_Tom Hit 2.wav
64,192,47036,1,2,0:0:0:0:
192,192,47036,1,0,0:0:0:40:cymbal09.wav
320,192,47036,128,0,47306:0:0:0:0:
448,192,47171,1,0,0:0:0:40:LR_Tom Hit 2.wav
64,192,47306,1,2,0:0:0:0:
448,192,47306,128,0,47441:0:0:0:0:
320,192,47441,1,0,0:0:0:40:LR_Tom Hit 3.wav
192,192,47509,1,0,0:0:0:0:
64,192,47576,1,2,0:0:0:0:
320,192,47576,128,0,47712:0:0:0:40:cymbal08.wav
448,192,47576,128,0,47712:0:0:0:0:
64,192,47779,1,2,0:0:0:0:
192,192,47779,128,0,47914:0:0:0:40:cymbal09.wav
320,192,47779,128,0,47914:0:0:0:0:
64,192,47982,128,2,48252:0:0:0:0:
192,192,47982,128,0,48252:0:0:0:40:cymbal10.wav
448,192,47982,1,0,0:0:0:0:
320,192,48252,1,2,0:0:0:0:
448,192,48252,1,0,0:0:0:0:
192,192,48387,1,2,0:0:0:0:
448,192,48387,1,0,0:0:0:0:
64,192,48522,1,2,0:0:0:0:
320,192,48522,1,0,0:0:0:0:
64,192,48658,1,2,0:0:0:0:
192,192,48658,1,4,0:0:0:0:
448,192,48658,1,0,0:0:0:0:
320,192,48793,1,0,0:0:0:0:
64,192,48928,1,2,0:0:0:0:
192,192,48928,1,0,0:0:0:0:
192,192,49198,1,2,0:0:0:0:
448,192,49198,1,0,0:0:0:0:
64,192,49333,1,0,0:0:0:0:
320,192,49333,1,0,0:0:0:0:
64,192,49468,1,2,0:0:0:0:
192,192,49468,1,0,0:0:0:40:cymbal09.wav
448,192,49468,1,0,0:0:0:0:
192,192,49604,1,0,0:0:0:0:
320,192,49604,1,0,0:0:0:0:
64,192,49739,1,2,0:0:0:0:
320,192,49739,1,0,0:0:0:40:cymbal10.wav
448,192,49739,1,0,0:0:0:0:
192,192,49874,1,0,0:0:0:0:
64,192,49941,1,0,0:0:0:0:
320,192,50009,1,2,0:0:0:0:
448,192,50009,1,0,0:0:0:40:snare.wav
64,192,50076,1,0,0:0:0:40:snare.wav
192,192,50076,1,0,0:0:0:0:
320,192,50144,1,0,0:0:0:40:snare.wav
448,192,50144,1,0,0:0:0:0:
64,192,50212,1,0,0:0:0:40:snare.wav
192,192,50212,1,0,0:0:0:0:
320,192,50279,1,0,0:0:0:40:snare.wav
448,192,50279,1,0,0:0:0:0:
192,192,50369,1,0,0:0:0:0:
64,192,50459,1,0,0:0:0:0:
192,192,50549,1,2,0:0:0:0:
320,192,50549,1,0,0:0:0:40:cymbal08.wav
448,192,50549,1,0,0:0:0:0:
64,192,50685,1,0,0:0:0:0:
448,192,50685,1,0,0:0:0:0:
64,192,50820,1,2,0:0:0:0:
192,192,50820,1,0,0:0:0:40:LR_Tom Hit 2.wav
320,192,50910,1,0,0:0:0:40:LR_Tom Hit 2.wav
64,192,51000,1,0,0:0:0:40:LR_Tom Hit 2.wav
192,192,51090,1,2,0:0:0:0:
448,192,51090,1,0,0:0:0:40:LR_Tom Hit 2.wav
320,192,51180,1,0,0:0:0:40:LR_Tom Hit 2.wav
64,192,51270,1,0,0:0:0:40:LR_Tom Hit 2.wav
320,192,51360,1,2,0:0:0:0:
448,192,51360,1,0,0:0:0:40:LR_Tom Hit 3.wav
192,192,51450,1,0,0:0:0:40:LR_Tom Hit 3.wav
64,192,51540,1,0,0:0:0:40:LR_Tom Hit 3.wav
320,192,51631,1,2,0:0:0:0:
448,192,51631,1,0,0:0:0:40:snare.wav
64,192,51721,1,0,0:0:0:40:snare.wav
192,192,51721,1,0,0:0:0:0:
320,192,51811,1,0,0:0:0:40:snare.wav
448,192,51811,1,0,0:0:0:0:
64,192,51901,1,2,0:0:0:0:
192,192,51901,1,0,0:0:0:40:snare.wav
320,192,51991,1,0,0:0:0:40:snare.wav
64,192,52081,1,0,0:0:0:40:snare.wav
192,192,52171,1,2,0:0:0:0:
448,192,52171,1,0,0:0:0:40:LR_Tom Hit 2.wav
320,192,52261,1,0,0:0:0:40:LR_Tom Hit 2.wav
192,192,52351,1,0,0:0:0:40:LR_Tom Hit 2.wav
64,192,52441,1,2,0:0:0:0:
448,192,52441,1,0,0:0:0:40:snare.wav
192,192,52531,1,0,0:0:0:40:snare.wav
320,192,52531,1,0,0:0:0:0:
64,192,52622,1,0,0:0:0:40:snare.wav
448,192,52622,1,0,0:0:0:0:
192,192,52712,1,2,0:0:0:0:
320,192,52712,1,0,0:0:0:40:snare.wav
320,192,52847,1,0,0:0:0:0:
64,192,52982,128,2,53455:0:0:0:0:
192,192,52982,1,0,0:0:0:40:cymbal09.wav
448,192,52982,1,0,0:0:0:0:
448,192,53072,1,0,0:0:0:0:
320,192,53162,1,0,0:0:0:0:
192,192,53252,1,2,0:0:0:0:
448,192,53342,1,0,0:0:0:0:
320,192,53432,1,0,0:0:0:0:
64,192,53522,1,2,0:0:0:0:
192,192,53522,1,0,0:0:0:40:cymbal09.wav
448,192,53522,128,0,53995:0:0:0:0:
64,192,53613,1,0,0:0:0:0:
192,192,53703,1,0,0:0:0:0:
320,192,53793,1,2,0:0:0:0:
64,192,53883,1,0,0:0:0:0:
192,192,53973,1,0,0:0:0:0:
64,192,54063,1,2,0:0:0:0:
320,192,54063,1,0,0:0:0:40:cymbal09.wav
448,192,54063,1,0,0:0:0:0:
64,192,54198,1,2,0:0:0:0:
320,192,54198,128,0,54333:0:0:0:40:cymbal09.wav
448,192,54198,128,0,54333:0:0:0:0:
64,192,54468,128,2,54604:0:0:0:0:
192,192,54468,128,0,54604:0:0:0:40:cymbal08.wav
320,192,54468,1,0,0:0:0:0:
64,192,54739,128,2,55076:0:0:0:0:
192,192,54739,128,0,55076:0:0:0:40:cymbal08.wav
320,192,54739,1,0,0:0:0:0:
448,192,54874,1,0,0:0:0:40:snare.wav
320,192,54941,1,0,0:0:0:40:snare.wav
448,192,55009,1,0,0:0:0:40:snare.wav
320,192,55076,1,0,0:0:0:40:snare.wav
64,192,55144,128,2,56225:0:0:0:0:
192,192,55144,1,4,0:0:0:0:
448,192,55144,128,0,55414:0:0:0:0:
320,192,55414,128,0,55685:0:0:0:0:
192,192,55685,128,0,55955:0:0:0:0:
448,192,55955,1,0,0:0:0:40:LR_Tom Hit 2.wav
192,192,56045,1,0,0:0:0:40:LR_Tom Hit 2.wav
320,192,56135,1,0,0:0:0:40:LR_Tom Hit 3.wav
192,192,56225,128,0,56495:0:0:0:40:snare.wav
448,192,56225,128,0,56698:0:0:0:40:LR_Tom Hit 3.wav
320,192,56495,128,0,56698:0:0:0:0:
64,192,56766,1,2,0:0:0:0:
320,192,56766,1,0,0:0:0:40:cymbal09.wav
448,192,56766,1,0,0:0:0:0:
64,192,57036,1,2,0:0:0:0:
192,192,57036,128,0,57171:0:0:0:40:cymbal09.wav
448,192,57036,1,0,0:0:0:0:
64,192,57171,1,0,0:0:0:0:
320,192,57171,128,0,57306:0:0:0:0:
64,192,57306,1,2,0:0:0:0:
192,192,57306,1,4,0:0:0:0:
448,192,57306,128,0,57576:0:0:0:0:
320,192,57441,1,0,0:0:0:0:
64,192,57576,128,2,57847:0:0:0:0:
192,192,57576,1,0,0:0:0:0:
448,192,57712,1,0,0:0:0:0:
192,192,57847,1,2,0:0:0:0:
320,192,57847,128,0,58117:0:0:0:0:
448,192,57982,1,0,0:0:0:0:
64,192,58117,1,2,0:0:0:0:
192,192,58117,128,0,58387:0:0:0:0:
320,192,58252,1,0,0:0:0:0:
64,192,58387,1,2,0:0:0:0:
448,192,58387,128,0,58658:0:0:0:0:
192,192,58522,1,0,0:0:0:0:
64,192,58658,1,2,0:0:0:0:
320,192,58658,128,0,58928:0:0:0:0:
448,192,58793,1,0,0:0:0:0:
192,192,58928,128,2,59198:0:0:0:0:
448,192,58928,1,0,0:0:0:0:
320,192,59063,1,0,0:0:0:0:
64,192,59198,128,2,59468:0:0:0:0:
320,192,59198,1,0,0:0:0:0:
192,192,59333,1,0,0:0:0:0:
192,192,59468,1,2,0:0:0:0:
448,192,59468,128,0,59739:0:0:0:0:
64,192,59604,1,0,0:0:0:0:
64,192,59739,1,2,0:0:0:0:
320,192,59739,1,0,0:0:0:0:
192,192,59829,1,0,0:0:0:0:
320,192,59919,1,0,0:0:0:0:
64,192,60009,1,2,0:0:0:0:
448,192,60009,1,0,0:0:0:0:
320,192,60099,1,0,0:0:0:0:
192,192,60189,1,0,0:0:0:0:
64,192,60279,1,2,0:0:0:0:
448,192,60279,1,0,0:0:0:0:
320,192,60369,1,0,0:0:0:0:
192,192,60459,1,0,0:0:0:0:
64,192,60549,1,2,0:0:0:0:
448,192,60549,1,0,0:0:0:0:
192,192,60685,128,0,60820:0:0:0:0:
448,192,60685,1,0,0:0:0:0:
64,192,60820,1,2,0:0:0:0:
320,192,60820,1,0,0:0:0:0:
192,192,60955,1,0,0:0:0:0:
320,192,60955,128,0,61090:0:0:0:0:
64,192,61090,1,2,0:0:0:0:
448,192,61090,1,0,0:0:0:0:
320,192,61225,1,0,0:0:0:0:
448,192,61225,128,0,61631:0:0:0:0:
64,192,61360,1,2,0:0:0:0:
192,192,61360,1,0,0:0:0:40:cymbal09.wav
64,192,61495,1,2,0:0:0:0:
192,192,61495,1,0,0:0:0:0:
64,192,61631,1,2,0:0:0:0:
192,192,61631,1,4,0:0:0:0:
320,192,61631,1,0,0:0:0:0:
448,192,61766,1,0,0:0:0:0:
64,192,61901,128,2,62104:0:0:0:0:
320,192,61901,128,0,62104:0:0:0:0:
192,192,62036,1,0,0:0:0:0:
64,192,62171,1,2,0:0:0:0:
320,192,62171,1,0,0:0:0:40:cymbal09.wav
448,192,62171,1,0,0:0:0:0:
64,192,62306,1,0,0:0:0:0:
192,192,62441,128,2,62644:0:0:0:0:
448,192,62441,128,0,62644:0:0:0:0:
320,192,62576,1,0,0:0:0:0:
64,192,62712,128,2,62982:0:0:0:0:
192,192,62712,1,0,0:0:0:40:cymbal08.wav
448,192,62712,1,0,0:0:0:0:
320,192,62847,1,0,0:0:0:0:
192,192,62982,128,2,63252:0:0:0:0:
320,192,62982,1,0,0:0:0:40:cymbal09.wav
448,192,62982,1,0,0:0:0:0:
64,192,63117,1,0,0:0:0:0:
64,192,63252,1,2,0:0:0:0:
320,192,63252,1,0,0:0:0:40:cymbal08.wav
448,192,63252,1,0,0:0:0:0:
192,192,63387,1,0,0:0:0:0:
448,192,63387,1,0,0:0:0:0:
64,192,63522,1,2,0:0:0:0:
320,192,63522,128,0,63793:0:0:0:40:cymbal09.wav
448,192,63522,1,0,0:0:0:0:
192,192,63658,1,0,0:0:0:0:
64,192,63793,1,2,0:0:0:0:
192,192,63793,1,0,0:0:0:40:cymbal10.wav
448,192,63793,128,0,64198:0:0:0:0:
320,192,63860,1,0,0:0:0:0:
64,192,63928,1,0,0:0:0:0:
192,192,63995,1,0,0:0:0:0:
64,192,64063,1,2,0:0:0:0:
320,192,64063,1,0,0:0:0:0:
192,192,64198,1,0,0:0:0:0:
64,192,64266,128,0,64604:0:0:0:0:
448,192,64266,1,0,0:0:0:0:
192,192,64333,1,2,0:0:0:0:
320,192,64333,1,0,0:0:0:0:
448,192,64468,1,0,0:0:0:0:
192,192,64604,1,2,0:0:0:0:
320,192,64604,1,0,0:0:0:0:
448,192,64604,1,0,0:0:0:0:
64,192,64739,1,0,0:0:0:0:
448,192,64739,1,0,0:0:0:0:
64,192,64874,1,2,0:0:0:0:
320,192,64874,1,0,0:0:0:0:
192,192,65009,128,0,65144:0:0:0:0:
448,192,65009,1,0,0:0:0:0:
64,192,65144,1,2,0:0:0:0:
320,192,65144,1,0,0:0:0:0:
448,192,65144,1,0,0:0:0:0:
192,192,65279,1,0,0:0:0:0:
320,192,65279,128,0,65414:0:0:0:0:
64,192,65414,1,2,0:0:0:0:
448,192,65504,128,0,65685:0:0:0:0:
192,192,65549,1,0,0:0:0:0:
64,192,65685,128,2,65887:0:0:0:0:
192,192,65685,1,0,0:0:0:40:cymbal09.wav
320,192,65685,1,0,0:0:0:0:
448,192,65820,1,0,0:0:0:0:
64,192,65955,1,4,0:0:0:0:
192,192,65955,1,2,0:0:0:0:
448,192,65955,1,0,0:0:0:0:
320,192,66022,1,0,0:0:0:0:
192,192,66090,1,0,0:0:0:0:
64,192,66158,1,0,0:0:0:0:
320,192,66225,1,2,0:0:0:0:
448,192,66225,1,0,0:0:0:0:
192,192,66293,1,0,0:0:0:0:
64,192,66360,1,0,0:0:0:0:
320,192,66428,1,0,0:0:0:0:
64,192,66495,1,2,0:0:0:0:
448,192,66495,1,0,0:0:0:0:
192,192,66563,1,0,0:0:0:0:
448,192,66631,1,0,0:0:0:0:
320,192,66698,1,0,0:0:0:0:
64,192,66766,1,2,0:0:0:0:
192,192,66766,1,0,0:0:0:40:cymbal09.wav
448,192,66766,1,0,0:0:0:0:
320,192,66833,1,0,0:0:0:0:
64,192,66901,1,0,0:0:0:0:
192,192,66968,1,0,0:0:0:0:
64,192,67036,1,2,0:0:0:0:
320,192,67036,1,4,0:0:0:0:
448,192,67036,1,0,0:0:0:0:
192,192,67104,1,0,0:0:0:0:
448,192,67171,1,0,0:0:0:0:
320,192,67239,1,0,0:0:0:0:
64,192,67306,1,2,0:0:0:0:
192,192,67306,1,0,0:0:0:0:
448,192,67374,1,0,0:0:0:0:
320,192,67441,1,0,0:0:0:0:
192,192,67509,1,0,0:0:0:0:
64,192,67576,1,2,0:0:0:0:
448,192,67576,1,0,0:0:0:0:
192,192,67712,1,0,0:0:0:0:
448,192,67712,1,0,0:0:0:0:
64,192,67847,1,2,0:0:0:0:
320,192,67847,1,0,0:0:0:40:cymbal09.wav
448,192,67847,1,0,0:0:0:0:
192,192,67982,1,0,0:0:0:0:
320,192,67982,1,0,0:0:0:0:
64,192,68117,1,4,0:0:0:0:
192,192,68117,1,2,0:0:0:0:
448,192,68117,128,0,68522:0:0:0:0:
320,192,68252,1,0,0:0:0:0:
64,192,68387,1,2,0:0:0:0:
320,192,68387,1,0,0:0:0:0:
192,192,68522,1,0,0:0:0:0:
64,192,68658,128,2,68928:0:0:0:0:
320,192,68658,1,0,0:0:0:0:
448,192,68658,1,0,0:0:0:0:
192,192,68793,1,0,0:0:0:0:
192,192,68928,1,2,0:0:0:0:
320,192,68928,1,0,0:0:0:40:cymbal09.wav
448,192,68928,1,0,0:0:0:0:
64,192,68995,1,0,0:0:0:0:
320,192,69063,1,0,0:0:0:0:
192,192,69131,1,0,0:0:0:0:
64,192,69198,1,4,0:0:0:0:
320,192,69198,1,2,0:0:0:0:
448,192,69198,1,0,0:0:0:0:
192,192,69333,128,0,69468:0:0:0:0:
448,192,69333,1,0,0:0:0:0:
64,192,69468,1,2,0:0:0:0:
320,192,69468,1,0,0:0:0:0:
192,192,69604,1,0,0:0:0:0:
320,192,69604,128,0,69739:0:0:0:0:
64,192,69739,1,2,0:0:0:0:
448,192,69739,1,0,0:0:0:0:
192,192,69874,1,0,0:0:0:0:
448,192,69874,128,0,70279:0:0:0:0:
64,192,70009,1,2,0:0:0:0:
320,192,70009,1,0,0:0:0:40:cymbal09.wav
64,192,70144,1,2,0:0:0:0:
320,192,70144,1,0,0:0:0:0:
64,192,70279,1,2,0:0:0:0:
192,192,70279,1,4,0:0:0:0:
320,192,70279,1,0,0:0:0:0:
192,192,70414,1,0,0:0:0:0:
448,192,70414,1,0,0:0:0:0:
320,192,70482,1,0,0:0:0:0:
192,192,70549,1,2,0:0:0:0:
448,192,70549,1,0,0:0:0:0:
64,192,70685,1,0,0:0:0:0:
320,192,70685,1,0,0:0:0:0:
192,192,70752,1,0,0:0:0:0:
64,192,70820,1,2,0:0:0:0:
320,192,70820,1,0,0:0:0:40:cymbal08.wav
448,192,70820,1,0,0:0:0:0:
192,192,70955,1,0,0:0:0:0:
448,192,70955,1,0,0:0:0:0:
320,192,71022,1,0,0:0:0:0:
64,192,71090,1,2,0:0:0:0:
448,192,71090,1,0,0:0:0:0:
192,192,71158,1,0,0:0:0:0:
320,192,71225,1,0,0:0:0:0:
64,192,71293,1,0,0:0:0:0:
192,192,71360,1,2,0:0:0:0:
320,192,71360,1,0,0:0:0:40:cymbal09.wav
448,192,71360,1,0,0:0:0:0:
64,192,71428,1,0,0:0:0:0:
320,192,71495,1,0,0:0:0:0:
192,192,71563,1,0,0:0:0:0:
64,192,71631,1,2,0:0:0:0:
448,192,71631,1,0,0:0:0:0:
320,192,71698,1,0,0:0:0:0:
64,192,71766,1,0,0:0:0:0:
192,192,71833,1,0,0:0:0:0:
64,192,71901,1,2,0:0:0:0:
320,192,71901,1,0,0:0:0:40:cymbal10.wav
448,192,71901,1,0,0:0:0:0:
192,192,72036,1,0,0:0:0:0:
320,192,72036,1,0,0:0:0:0:
64,192,72171,1,2,0:0:0:0:
192,192,72171,1,0,0:0:0:0:
192,192,72306,1,0,0:0:0:0:
320,192,72306,1,0,0:0:0:0:
64,192,72441,1,2,0:0:0:0:
320,192,72441,1,4,0:0:0:0:
448,192,72441,1,0,0:0:0:0:
192,192,72509,1,0,0:0:0:0:
320,192,72576,1,0,0:0:0:0:
192,192,72644,1,0,0:0:0:0:
64,192,72712,1,2,0:0:0:0:
448,192,72712,1,0,0:0:0:0:
320,192,72779,1,0,0:0:0:0:
192,192,72847,1,0,0:0:0:0:
320,192,72914,1,0,0:0:0:0:
64,192,72982,1,2,0:0:0:0:
192,192,72982,1,0,0:0:0:40:cymbal09.wav
448,192,72982,1,0,0:0:0:0:
320,192,73049,1,0,0:0:0:0:
192,192,73117,1,0,0:0:0:0:
64,192,73185,1,0,0:0:0:0:
320,192,73252,1,2,0:0:0:0:
448,192,73252,1,0,0:0:0:0:
64,192,73320,1,0,0:0:0:0:
192,192,73387,1,0,0:0:0:0:
320,192,73455,1,0,0:0:0:0:
64,192,73522,1,2,0:0:0:0:
448,192,73522,1,0,0:0:0:0:
192,192,73590,1,0,0:0:0:0:
320,192,73658,1,0,0:0:0:40:drum-hitwhistle.wav
448,192,73658,1,0,0:0:0:0:
64,192,73725,1,0,0:0:0:40:drum-hitwhistle.wav
192,192,73793,1,2,0:0:0:0:
320,192,73793,1,0,0:0:0:40:cymbal09.wav
448,192,73793,1,0,0:0:0:0:
64,192,73860,1,0,0:0:0:0:
320,192,73928,1,0,0:0:0:40:drum-hitwhistle.wav
448,192,73928,1,0,0:0:0:0:
192,192,73995,1,0,0:0:0:40:drum-hitwhistle.wav
64,192,74063,1,2,0:0:0:0:
448,192,74063,1,0,0:0:0:0:
320,192,74131,1,0,0:0:0:0:
64,192,74198,1,0,0:0:0:0:
192,192,74198,1,0,0:0:0:0:
448,192,74266,1,0,0:0:0:0:
64,192,74333,1,2,0:0:0:0:
192,192,74333,1,0,0:0:0:40:cymbal09.wav
320,192,74333,1,0,0:0:0:0:
448,192,74401,1,0,0:0:0:40:drum-hitwhistle.wav
64,192,74468,1,0,0:0:0:40:drum-hitwhistle.wav
192,192,74468,1,0,0:0:0:0:
320,192,74536,1,0,0:0:0:40:drum-hitwhistle.wav
64,192,74604,1,2,0:0:0:0:
192,192,74604,1,4,0:0:0:0:
448,192,74604,1,0,0:0:0:0:
64,192,74874,1,2,0:0:0:0:
448,192,74874,128,0,75414:0:0:0:0:
64,192,75144,1,2,0:0:0:0:
320,192,75144,128,0,75685:0:0:0:0:
64,192,75414,1,2,0:0:0:0:
192,192,75414,128,0,75955:0:0:0:0:
64,192,75685,128,2,76225:0:0:0:0:
448,192,75685,1,0,0:0:0:0:
320,192,75955,128,2,76495:0:0:0:0:
448,192,75955,1,0,0:0:0:0:
192,192,76225,128,2,76766:0:0:0:0:
448,192,76225,1,0,0:0:0:0:
64,192,76495,1,2,0:0:0:0:
448,192,76495,128,0,77036:0:0:0:0:
64,192,76766,128,2,77036:0:0:0:0:
320,192,76766,1,0,0:0:0:0:
192,192,77036,1,2,0:0:0:0:
320,192,77036,1,0,0:0:0:0:
192,192,77171,1,0,0:0:0:0:
320,192,77272,1,0,0:0:0:0:
64,192,77306,1,2,0:0:0:0:
448,192,77306,1,0,0:0:0:0:
192,192,77441,1,0,0:0:0:0:
448,192,77441,1,0,0:0:0:0:
64,192,77576,1,2,0:0:0:0:
320,192,77576,1,0,0:0:0:0:
64,192,77712,1,0,0:0:0:0:
192,192,77712,1,0,0:0:0:0:
64,192,77847,1,2,0:0:0:0:
448,192,77847,1,0,0:0:0:0:
320,192,77982,1,0,0:0:0:0:
192,192,78117,1,2,0:0:0:0:
448,192,78117,1,0,0:0:0:0:
320,192,78252,1,0,0:0:0:0:
64,192,78387,1,2,0:0:0:0:
448,192,78387,1,0,0:0:0:0:
192,192,78455,1,0,0:0:0:0:
320,192,78522,1,0,0:0:0:0:
448,192,78590,1,0,0:0:0:0:
64,192,78658,1,2,0:0:0:0:
192,192,78658,1,0,0:0:0:40:cymbal09.wav
320,192,78658,1,0,0:0:0:0:
448,192,78725,1,0,0:0:0:0:
64,192,78793,1,2,0:0:0:0:
192,192,78793,1,0,0:0:0:0:
320,192,78860,1,0,0:0:0:0:
64,192,78928,1,4,0:0:0:0:
192,192,78928,1,2,0:0:0:0:
448,192,78928,1,0,0:0:0:0:
320,192,78995,1,0,0:0:0:0:
448,192,79063,1,0,0:0:0:0:
192,192,79131,1,0,0:0:0:0:
64,192,79198,1,2,0:0:0:0:
320,192,79198,1,0,0:0:0:0:
192,192,79266,1,0,0:0:0:0:
448,192,79333,1,0,0:0:0:0:
320,192,79401,1,0,0:0:0:0:
64,192,79468,1,2,0:0:0:0:
192,192,79468,1,0,0:0:0:0:
448,192,79536,1,0,0:0:0:0:
64,192,79604,1,0,0:0:0:0:
192,192,79671,1,0,0:0:0:0:
320,192,79739,1,2,0:0:0:0:
448,192,79739,1,0,0:0:0:0:
64,192,79806,1,0,0:0:0:0:
192,192,79874,1,0,0:0:0:0:
320,192,79941,1,0,0:0:0:0:
64,192,80009,1,2,0:0:0:0:
448,192,80009,1,0,0:0:0:0:
192,192,80076,1,0,0:0:0:0:
448,192,80144,1,0,0:0:0:40:snare.wav
64,192,80212,1,0,0:0:0:40:snare.wav
192,192,80279,1,2,0:0:0:0:
320,192,80279,1,0,0:0:0:40:snare.wav
448,192,80347,1,0,0:0:0:0:
64,192,80414,1,0,0:0:0:40:snare.wav
320,192,80482,1,0,0:0:0:40:snare.wav
64,192,80549,1,2,0:0:0:0:
448,192,80549,1,0,0:0:0:40:snare.wav
192,192,80617,1,0,0:0:0:0:
448,192,80685,1,0,0:0:0:40:snare.wav
192,192,80752,1,0,0:0:0:0:
64,192,80820,1,2,0:0:0:0:
320,192,80820,1,0,0:0:0:40:snare.wav
192,192,80955,1,0,0:0:0:0:
320,192,81022,1,0,0:0:0:0:
64,192,81090,1,2,0:0:0:0:
192,192,81090,1,0,0:0:0:40:cymbal09.wav
448,192,81090,1,0,0:0:0:0:
320,192,81180,1,0,0:0:0:0:
192,192,81270,1,0,0:0:0:0:
64,192,81360,1,2,0:0:0:0:
448,192,81360,1,0,0:0:0:0:
192,192,81450,1,0,0:0:0:0:
320,192,81540,1,0,0:0:0:0:
64,192,81631,1,2,0:0:0:0:
192,192,81631,1,0,0:0:0:40:cymbal09.wav
448,192,81631,1,0,0:0:0:0:
320,192,81721,1,0,0:0:0:0:
192,192,81811,1,0,0:0:0:0:
64,192,81901,1,2,0:0:0:0:
320,192,81901,1,0,0:0:0:40:cymbal10.wav
448,192,81901,1,0,0:0:0:0:
192,192,81991,1,0,0:0:0:0:
320,192,82081,1,0,0:0:0:0:
64,192,82171,1,4,0:0:0:0:
192,192,82171,1,2,0:0:0:0:
448,192,82171,1,0,0:0:0:0:
320,192,82306,1,0,0:0:0:0:
64,192,82441,1,2,0:0:0:0:
448,192,82441,1,0,0:0:0:40:LR_Tom Hit 2.wav
320,192,82509,1,0,0:0:0:40:LR_Tom Hit 2.wav
192,192,82576,1,0,0:0:0:40:LR_Tom Hit 2.wav
448,192,82576,1,0,0:0:0:0:
320,192,82644,1,0,0:0:0:40:LR_Tom Hit 2.wav
64,192,82712,1,2,0:0:0:0:
448,192,82712,1,0,0:0:0:40:LR_Tom Hit 3.wav
192,192,82779,1,0,0:0:0:40:LR_Tom Hit 3.wav
64,192,82847,1,0,0:0:0:40:LR_Tom Hit 3.wav
320,192,82847,1,0,0:0:0:0:
192,192,82914,1,0,0:0:0:40:LR_Tom Hit 3.wav
64,192,82982,1,2,0:0:0:0:
448,192,82982,1,0,0:0:0:0:
320,192,83049,1,0,0:0:0:40:drum-hitwhistle.wav
192,192,83117,1,0,0:0:0:40:drum-hitwhistle.wav
64,192,83185,1,0,0:0:0:40:drum-hitwhistle.wav
192,192,83252,1,2,0:0:0:0:
320,192,83252,1,4,0:0:0:0:
448,192,83252,1,0,0:0:0:0:
320,192,83387,1,0,0:0:0:0:
64,192,83522,1,2,0:0:0:0:
448,192,83522,128,0,84063:0:0:0:0:
64,192,83793,1,2,0:0:0:0:
320,192,83793,128,0,84333:0:0:0:0:
64,192,84063,1,2,0:0:0:0:
192,192,84063,128,0,84604:0:0:0:0:
64,192,84333,128,2,84874:0:0:0:0:
448,192,84333,1,0,0:0:0:0:
320,192,84604,128,2,85144:0:0:0:0:
448,192,84604,1,0,0:0:0:0:
192,192,84874,128,2,85347:0:0:0:0:
448,192,84874,1,0,0:0:0:0:
64,192,85144,1,2,0:0:0:0:
448,192,85144,128,0,85347:0:0:0:0:
64,192,85414,1,2,0:0:0:0:
192,192,85414,1,0,0:0:0:40:cymbal09.wav
448,192,85414,1,0,0:0:0:0:
320,192,85549,1,0,0:0:0:0:
192,192,85685,1,2,0:0:0:0:
448,192,85685,1,0,0:0:0:0:
320,192,85820,1,0,0:0:0:0:
64,192,85955,1,2,0:0:0:0:
192,192,85955,1,0,0:0:0:40:cymbal08.wav
448,192,85955,1,0,0:0:0:0:
192,192,86090,1,0,0:0:0:0:
448,192,86090,1,0,0:0:0:0:
64,192,86225,1,2,0:0:0:0:
320,192,86225,1,0,0:0:0:0:
64,192,86360,1,0,0:0:0:0:
192,192,86360,1,0,0:0:0:0:
64,192,86495,1,2,0:0:0:0:
320,192,86495,1,0,0:0:0:40:cymbal09.wav
448,192,86495,1,0,0:0:0:0:
320,192,86698,1,0,0:0:0:40:snare.wav
64,192,86766,1,2,0:0:0:0:
192,192,86766,1,0,0:0:0:40:snare.wav
448,192,86766,1,0,0:0:0:40:cymbal09.wav
320,192,86833,1,0,0:0:0:40:snare.wav
64,192,86901,1,0,0:0:0:40:snare.wav
448,192,86901,1,0,0:0:0:0:
320,192,86968,1,0,0:0:0:40:snare.wav
64,192,87036,1,2,0:0:0:0:
192,192,87036,1,0,0:0:0:40:snare.wav
448,192,87036,1,0,0:0:0:40:cymbal10.wav
320,192,87171,1,0,0:0:0:0:
64,192,87306,1,2,0:0:0:0:
192,192,87306,1,0,0:0:0:40:cymbal10.wav
448,192,87306,1,0,0:0:0:0:
192,192,87441,1,2,0:0:0:0:
320,192,87441,1,0,0:0:0:0:
64,192,87576,1,2,0:0:0:0:
320,192,87576,1,4,0:0:0:0:
448,192,87576,1,0,0:0:0:0:
192,192,87667,1,0,0:0:0:0:
64,192,87757,1,0,0:0:0:0:
320,192,87847,1,0,0:0:0:0:
448,192,87847,1,0,0:0:0:0:
192,192,87937,1,0,0:0:0:0:
320,192,88027,1,0,0:0:0:0:
64,192,88117,1,0,0:0:0:0:
448,192,88117,1,0,0:0:0:0:
320,192,88207,1,0,0:0:0:0:
192,192,88297,1,0,0:0:0:0:
64,192,88387,1,0,0:0:0:0:
448,192,88387,1,0,0:0:0:0:
320,192,88477,1,0,0:0:0:0:
448,192,88567,1,0,0:0:0:0:
64,192,88658,1,0,0:0:0:0:
192,192,88658,1,0,0:0:0:0:
320,192,88748,1,0,0:0:0:0:
448,192,88838,1,0,0:0:0:0:
64,192,88928,1,0,0:0:0:0:
192,192,88928,1,0,0:0:0:0:
320,192,89018,1,0,0:0:0:0:
192,192,89108,1,0,0:0:0:0:
64,192,89198,1,0,0:0:0:0:
448,192,89198,1,0,0:0:0:0:
320,192,89288,1,0,0:0:0:0:
192,192,89378,1,0,0:0:0:0:
64,192,89468,1,0,0:0:0:40:snare.wav
448,192,89468,1,0,0:0:0:0:
320,192,89558,1,0,0:0:0:0:
192,192,89649,1,0,0:0:0:0:
64,192,89739,1,2,0:0:0:0:
320,192,89739,1,4,0:0:0:0:
448,192,89739,1,0,0:0:0:0:
192,192,89829,1,0,0:0:0:0:
448,192,89919,1,0,0:0:0:0:
64,192,90009,1,2,0:0:0:0:
192,192,90009,1,0,0:0:0:0:
448,192,90099,1,0,0:0:0:0:
192,192,90189,1,0,0:0:0:0:
64,192,90279,1,2,0:0:0:0:
448,192,90279,1,0,0:0:0:40:snare.wav
192,192,90369,1,0,0:0:0:40:snare.wav
320,192,90459,1,0,0:0:0:40:snare.wav
64,192,90549,1,2,0:0:0:0:
448,192,90549,1,0,0:0:0:40:snare.wav
192,192,90640,1,0,0:0:0:40:snare.wav
320,192,90730,1,0,0:0:0:40:snare.wav
64,192,90820,1,2,0:0:0:0:
192,192,90820,1,0,0:0:0:40:snare.wav
448,192,90910,1,0,0:0:0:0:
320,192,91000,1,0,0:0:0:0:
192,192,91090,1,2,0:0:0:0:
448,192,91090,1,0,0:0:0:40:snare.wav
64,192,91180,1,0,0:0:0:40:snare.wav
192,192,91270,1,0,0:0:0:40:snare.wav
64,192,91360,1,2,0:0:0:0:
320,192,91360,1,0,0:0:0:40:LR_Tom Hit 2.wav
448,192,91450,1,0,0:0:0:40:LR_Tom Hit 2.wav
320,192,91540,1,0,0:0:0:40:LR_Tom Hit 2.wav
192,192,91631,1,2,0:0:0:0:
448,192,91631,1,0,0:0:0:40:LR_Tom Hit 3.wav
64,192,91721,1,0,0:0:0:40:LR_Tom Hit 3.wav
320,192,91811,1,0,0:0:0:40:LR_Tom Hit 3.wav
64,192,91901,1,2,0:0:0:0:
448,192,91901,1,0,0:0:0:40:cymbal09.wav
192,192,91991,1,0,0:0:0:0:
320,192,92081,1,0,0:0:0:0:
64,192,92171,1,4,0:0:0:0:
192,192,92171,1,2,0:0:0:0:
448,192,92171,1,0,0:0:0:0:
320,192,92261,1,0,0:0:0:0:
192,192,92351,1,0,0:0:0:0:
64,192,92441,1,2,0:0:0:0:
448,192,92441,1,0,0:0:0:40:cymbal09.wav
320,192,92531,1,0,0:0:0:0:
192,192,92622,1,0,0:0:0:0:
64,192,92712,1,2,0:0:0:0:
320,192,92712,1,4,0:0:0:0:
448,192,92712,1,0,0:0:0:0:
192,192,92802,1,0,0:0:0:40:snare.wav
320,192,92892,1,0,0:0:0:40:snare.wav
448,192,92892,1,0,0:0:0:0:
64,192,92982,1,2,0:0:0:0:
192,192,92982,1,0,0:0:0:40:snare.wav
320,192,93072,1,0,0:0:0:0:
448,192,93162,1,0,0:0:0:0:
64,192,93252,1,0,0:0:0:0:
192,192,93342,1,0,0:0:0:0:
320,192,93432,1,0,0:0:0:0:
448,192,93522,1,0,0:0:0:0:
64,192,93613,1,0,0:0:0:0:
192,192,93703,1,0,0:0:0:0:
320,192,93793,1,0,0:0:0:0:
448,192,93883,1,0,0:0:0:0:
192,192,93973,1,0,0:0:0:0:
64,192,94063,1,2,0:0:0:0:
320,192,94063,1,4,0:0:0:0:
448,192,94063,1,0,0:0:0:0:
192,192,94198,1,0,0:0:0:0:
64,192,94333,1,2,0:0:0:0:
320,192,94333,1,0,0:0:0:0:
192,192,94468,1,0,0:0:0:0:
320,192,94536,1,0,0:0:0:0:
64,192,94604,1,2,0:0:0:0:
448,192,94604,128,0,94874:0:0:0:0:
64,192,94739,1,0,0:0:0:0:
192,192,94874,1,2,0:0:0:0:
320,192,94874,1,0,0:0:0:0:
192,192,95009,1,0,0:0:0:40:snare.wav
320,192,95076,1,0,0:0:0:40:snare.wav
64,192,95144,1,2,0:0:0:0:
448,192,95144,1,0,0:0:0:40:snare.wav
320,192,95279,1,0,0:0:0:40:snare.wav
192,192,95347,1,0,0:0:0:40:snare.wav
64,192,95414,1,2,0:0:0:0:
320,192,95414,1,0,0:0:0:40:snare.wav
448,192,95482,1,0,0:0:0:40:snare.wav
192,192,95549,1,0,0:0:0:40:snare.wav
320,192,95617,1,0,0:0:0:40:snare.wav
64,192,95685,128,2,95955:0:0:0:0:
448,192,95685,1,0,0:0:0:40:snare.wav
448,192,95820,1,0,0:0:0:40:snare.wav
192,192,95955,1,2,0:0:0:0:
320,192,95955,1,0,0:0:0:40:snare.wav
64,192,96090,1,0,0:0:0:0:
192,192,96225,1,2,0:0:0:0:
448,192,96225,1,0,0:0:0:40:snare.wav
320,192,96360,1,0,0:0:0:40:snare.wav
64,192,96495,1,2,0:0:0:0:
192,192,96495,1,0,0:0:0:0:
320,192,96631,1,0,0:0:0:0:
64,192,96766,1,2,0:0:0:0:
448,192,96766,128,0,97036:0:0:0:40:snare.wav
64,192,96901,1,0,0:0:0:40:snare.wav
192,192,97036,1,2,0:0:0:0:
320,192,97036,1,0,0:0:0:0:
448,192,97171,1,0,0:0:0:0:
64,192,97306,1,2,0:0:0:0:
320,192,97306,1,0,0:0:0:40:snare.wav
448,192,97374,1,0,0:0:0:40:snare.wav
192,192,97441,1,0,0:0:0:40:snare.wav
320,192,97509,1,0,0:0:0:40:snare.wav
192,192,97576,1,2,0:0:0:0:
448,192,97576,1,0,0:0:0:40:snare.wav
320,192,97712,1,0,0:0:0:40:snare.wav
192,192,97779,1,0,0:0:0:40:snare.wav
64,192,97847,128,2,98117:0:0:0:0:
448,192,97847,1,0,0:0:0:40:snare.wav
448,192,97982,1,0,0:0:0:40:snare.wav
192,192,98117,1,2,0:0:0:0:
320,192,98117,1,0,0:0:0:40:snare.wav
448,192,98117,1,0,0:0:0:40:cymbal09.wav
64,192,98252,1,0,0:0:0:40:snare.wav
320,192,98252,1,0,0:0:0:0:
64,192,98387,1,2,0:0:0:0:
192,192,98387,1,4,0:0:0:0:
448,192,98387,1,0,0:0:0:40:snare.wav
320,192,98522,1,0,0:0:0:0:
64,192,98658,1,2,0:0:0:0:
192,192,98658,1,0,0:0:0:0:
192,192,98793,1,0,0:0:0:0:
320,192,98860,1,0,0:0:0:0:
64,192,98928,1,2,0:0:0:0:
448,192,98928,128,0,99198:0:0:0:0:
64,192,99063,1,0,0:0:0:0:
192,192,99198,1,2,0:0:0:0:
320,192,99198,1,0,0:0:0:0:
192,192,99333,1,0,0:0:0:40:snare.wav
320,192,99401,1,0,0:0:0:40:snare.wav
64,192,99468,1,2,0:0:0:0:
448,192,99468,1,0,0:0:0:40:snare.wav
320,192,99604,1,0,0:0:0:40:snare.wav
192,192,99671,1,0,0:0:0:40:snare.wav
64,192,99739,1,2,0:0:0:0:
320,192,99739,1,0,0:0:0:40:snare.wav
448,192,99806,1,0,0:0:0:40:snare.wav
192,192,99874,1,0,0:0:0:40:snare.wav
320,192,99941,1,0,0:0:0:40:snare.wav
64,192,100009,1,2,0:0:0:0:
448,192,100009,128,0,100279:0:0:0:40:snare.wav
64,192,100144,1,0,0:0:0:40:snare.wav
192,192,100279,1,2,0:0:0:0:
320,192,100279,1,0,0:0:0:40:snare.wav
320,192,100414,1,0,0:0:0:0:
64,192,100549,128,2,100820:0:0:0:0:
192,192,100549,1,0,0:0:0:40:snare.wav
448,192,100549,128,0,100820:0:0:0:40:cymbal09.wav
192,192,100685,1,0,0:0:0:40:snare.wav
192,192,100820,1,2,0:0:0:0:
320,192,100820,1,0,0:0:0:0:
320,192,100955,1,0,0:0:0:0:
64,192,101090,128,2,101360:0:0:0:0:
192,192,101090,1,0,0:0:0:40:snare.wav
448,192,101090,128,0,101360:0:0:0:40:cymbal09.wav
192,192,101225,1,0,0:0:0:40:snare.wav
192,192,101360,1,2,0:0:0:0:
320,192,101360,1,0,0:0:0:0:
320,192,101495,1,0,0:0:0:0:
64,192,101631,1,2,0:0:0:0:
192,192,101631,1,0,0:0:0:40:snare.wav
448,192,101631,1,0,0:0:0:40:cymbal09.wav
320,192,101698,1,0,0:0:0:40:snare.wav
64,192,101766,1,0,0:0:0:40:snare.wav
192,192,101833,1,0,0:0:0:40:snare.wav
320,192,101901,1,2,0:0:0:0:
448,192,101901,1,0,0:0:0:40:snare.wav
64,192,102036,1,0,0:0:0:40:snare.wav
192,192,102104,1,0,0:0:0:40:snare.wav
64,192,102171,1,2,0:0:0:0:
320,192,102171,1,0,0:0:0:40:snare.wav
448,192,102171,1,0,0:0:0:40:cymbal10.wav
192,192,102239,1,0,0:0:0:0:
320,192,102306,1,0,0:0:0:0:
448,192,102374,1,0,0:0:0:0:
64,192,102441,1,2,0:0:0:0:
192,192,102441,1,0,0:0:0:0:
320,192,102509,1,0,0:0:0:0:
64,192,102576,1,2,0:0:0:0:
448,192,102576,1,0,0:0:0:0:
192,192,102644,1,0,0:0:0:0:
64,192,102712,1,2,0:0:0:0:
320,192,102712,1,4,0:0:0:0:
448,192,102712,1,0,0:0:0:0:
320,192,102847,1,0,0:0:0:0:
64,192,102982,1,2,0:0:0:0:
448,192,102982,1,0,0:0:0:0:
320,192,103049,1,0,0:0:0:0:
192,192,103117,1,0,0:0:0:0:
64,192,103185,1,0,0:0:0:0:
192,192,103252,1,2,0:0:0:0:
320,192,103252,1,0,0:0:0:0:
448,192,103320,1,0,0:0:0:0:
320,192,103387,1,0,0:0:0:0:
192,192,103455,1,0,0:0:0:0:
64,192,103522,1,2,0:0:0:0:
448,192,103522,1,0,0:0:0:0:
320,192,103590,1,0,0:0:0:0:
192,192,103658,1,0,0:0:0:0:
64,192,103725,1,0,0:0:0:0:
320,192,103793,1,2,0:0:0:0:
448,192,103793,1,0,0:0:0:0:
64,192,103928,1,0,0:0:0:40:snare.wav
192,192,103995,1,0,0:0:0:40:snare.wav
320,192,104063,1,2,0:0:0:0:
448,192,104063,1,0,0:0:0:40:snare.wav
64,192,104131,1,0,0:0:0:0:
192,192,104198,1,0,0:0:0:40:snare.wav
320,192,104266,1,0,0:0:0:40:snare.wav
64,192,104333,1,2,0:0:0:0:
448,192,104333,1,0,0:0:0:40:snare.wav
192,192,104401,1,0,0:0:0:0:
320,192,104468,1,0,0:0:0:40:snare.wav
448,192,104536,1,0,0:0:0:0:
64,192,104604,1,2,0:0:0:0:
192,192,104604,1,0,0:0:0:40:snare.wav
320,192,104671,1,0,0:0:0:0:
448,192,104739,1,0,0:0:0:0:
192,192,104806,1,0,0:0:0:0:
64,192,104874,1,2,0:0:0:0:
448,192,104874,1,0,0:0:0:0:
192,192,104941,1,0,0:0:0:0:
320,192,104941,1,0,0:0:0:0:
64,192,105009,1,0,0:0:0:0:
448,192,105009,1,0,0:0:0:0:
192,192,105076,1,0,0:0:0:0:
320,192,105076,1,0,0:0:0:0:
64,192,105144,1,2,0:0:0:0:
448,192,105144,1,0,0:0:0:0:
192,192,105212,1,0,0:0:0:0:
320,192,105212,1,0,0:0:0:0:
64,192,105279,1,0,0:0:0:0:
448,192,105279,1,0,0:0:0:0:
192,192,105347,1,0,0:0:0:0:
320,192,105347,1,0,0:0:0:0:
64,192,105414,1,2,0:0:0:0:
448,192,105414,1,0,0:0:0:0:
320,192,105482,1,0,0:0:0:0:
192,192,105549,1,0,0:0:0:0:
64,192,105617,1,0,0:0:0:0:
320,192,105685,1,2,0:0:0:0:
448,192,105685,1,0,0:0:0:0:
192,192,105752,1,0,0:0:0:0:
64,192,105820,1,0,0:0:0:0:
192,192,105887,1,0,0:0:0:0:
320,192,105955,1,2,0:0:0:0:
448,192,105955,1,0,0:0:0:0:
64,192,106022,1,0,0:0:0:0:
192,192,106090,1,0,0:0:0:40:snare.wav
320,192,106158,1,0,0:0:0:40:snare.wav
64,192,106225,1,2,0:0:0:0:
448,192,106225,1,0,0:0:0:40:snare.wav
192,192,106293,1,0,0:0:0:0:
320,192,106360,1,0,0:0:0:40:snare.wav
192,192,106428,1,0,0:0:0:40:snare.wav
64,192,106495,1,2,0:0:0:0:
448,192,106495,1,0,0:0:0:40:snare.wav
320,192,106563,1,0,0:0:0:0:
192,192,106631,1,0,0:0:0:40:snare.wav
64,192,106698,1,0,0:0:0:0:
192,192,106766,1,2,0:0:0:0:
320,192,106766,1,0,0:0:0:40:snare.wav
448,192,106766,1,0,0:0:0:0:
64,192,106833,1,0,0:0:0:0:
320,192,106901,1,2,0:0:0:0:
448,192,106901,1,0,0:0:0:0:
192,192,106968,1,0,0:0:0:0:
64,192,107036,1,2,0:0:0:0:
320,192,107036,1,4,0:0:0:0:
448,192,107036,1,0,0:0:0:0:
192,192,107171,1,0,0:0:0:0:
64,192,107306,1,2,0:0:0:0:
448,192,107306,1,0,0:0:0:0:
320,192,107374,1,0,0:0:0:0:
192,192,107441,1,0,0:0:0:0:
64,192,107509,1,0,0:0:0:0:
192,192,107576,1,2,0:0:0:0:
448,192,107576,1,0,0:0:0:0:
320,192,107644,1,0,0:0:0:0:
192,192,107712,1,0,0:0:0:0:
320,192,107779,1,0,0:0:0:0:
64,192,107847,1,2,0:0:0:0:
448,192,107847,1,0,0:0:0:0:
192,192,107914,1,0,0:0:0:0:
320,192,107982,1,0,0:0:0:0:
192,192,108049,1,0,0:0:0:0:
64,192,108117,1,2,0:0:0:0:
448,192,108117,1,0,0:0:0:0:
320,192,108185,1,0,0:0:0:0:
192,192,108252,1,0,0:0:0:40:snare.wav
64,192,108320,1,0,0:0:0:40:snare.wav
320,192,108387,1,2,0:0:0:0:
448,192,108387,1,0,0:0:0:40:snare.wav
192,192,108455,1,0,0:0:0:0:
448,192,108522,1,0,0:0:0:40:snare.wav
320,192,108590,1,0,0:0:0:40:snare.wav
64,192,108658,1,2,0:0:0:0:
192,192,108658,1,0,0:0:0:40:snare.wav
320,192,108725,1,0,0:0:0:0:
448,192,108793,1,0,0:0:0:40:snare.wav
64,192,108860,1,0,0:0:0:0:
192,192,108928,1,2,0:0:0:0:
448,192,108928,1,0,0:0:0:40:snare.wav
320,192,108995,1,0,0:0:0:0:
64,192,109063,1,0,0:0:0:0:
192,192,109131,1,0,0:0:0:0:
64,192,109198,1,2,0:0:0:0:
320,192,109198,1,0,0:0:0:40:cymbal09.wav
448,192,109198,1,0,0:0:0:0:
192,192,109266,1,0,0:0:0:0:
64,192,109333,1,0,0:0:0:0:
448,192,109333,1,0,0:0:0:0:
320,192,109401,1,0,0:0:0:0:
192,192,109468,1,2,0:0:0:0:
448,192,109468,1,0,0:0:0:0:
64,192,109604,1,0,0:0:0:0:
320,192,109604,1,0,0:0:0:0:
192,192,109671,1,0,0:0:0:0:
64,192,109739,1,2,0:0:0:0:
320,192,109739,1,0,0:0:0:40:cymbal09.wav
448,192,109739,1,0,0:0:0:0:
192,192,109806,1,0,0:0:0:0:
64,192,109874,1,0,0:0:0:0:
448,192,109874,1,0,0:0:0:0:
192,192,110009,1,2,0:0:0:0:
320,192,110009,1,0,0:0:0:0:
64,192,110076,1,0,0:0:0:0:
192,192,110144,1,0,0:0:0:0:
448,192,110144,1,0,0:0:0:0:
320,192,110212,1,0,0:0:0:0:
64,192,110279,1,2,0:0:0:0:
448,192,110279,1,0,0:0:0:0:
192,192,110369,1,0,0:0:0:40:drum-hitwhistle.wav
320,192,110369,1,0,0:0:0:0:
64,192,110459,1,0,0:0:0:40:drum-hitwhistle.wav
448,192,110459,1,0,0:0:0:0:
192,192,110549,1,2,0:0:0:0:
320,192,110549,1,0,0:0:0:0:
64,192,110640,1,0,0:0:0:0:
448,192,110730,1,0,0:0:0:0:
64,192,110820,1,2,0:0:0:0:
192,192,110820,1,0,0:0:0:0:
320,192,110910,1,0,0:0:0:40:drum-hitwhistle.wav
448,192,110910,1,0,0:0:0:0:
64,192,111000,1,0,0:0:0:40:drum-hitwhistle.wav
192,192,111000,1,0,0:0:0:0:
320,192,111090,1,2,0:0:0:0:
448,192,111090,1,0,0:0:0:0:
64,192,111180,1,0,0:0:0:40:drum-hitwhistle.wav
192,192,111180,1,0,0:0:0:0:
320,192,111270,1,0,0:0:0:40:drum-hitwhistle.wav
448,192,111270,1,0,0:0:0:0:
64,192,111360,1,0,0:0:0:0:
320,192,111450,1,0,0:0:0:0:
192,192,111540,1,0,0:0:0:0:
64,192,111631,1,0,0:0:0:40:snare.wav
448,192,111631,1,0,0:0:0:0:
320,192,111721,1,0,0:0:0:0:
192,192,111811,1,0,0:0:0:0:
64,192,111901,1,0,0:0:0:40:snare.wav
320,192,111901,1,0,0:0:0:0:
448,192,111991,1,0,0:0:0:0:
64,192,112081,1,0,0:0:0:0:
192,192,112171,1,0,0:0:0:0:
448,192,112171,1,0,0:0:0:0:
320,192,112261,1,0,0:0:0:0:
192,192,112351,1,0,0:0:0:0:
64,192,112441,1,2,0:0:0:0:
320,192,112441,1,4,0:0:0:0:
448,192,112441,1,0,0:0:0:0:
64,192,112712,128,0,112982:0:0:0:0:
448,192,112712,1,0,0:0:0:0:
192,192,112982,1,0,0:0:0:40:snare.wav
448,192,112982,128,0,113252:0:0:0:0:
320,192,113117,1,0,0:0:0:0:
64,192,113252,1,0,0:0:0:0:
192,192,113252,128,0,113522:0:0:0:0:
448,192,113387,1,0,0:0:0:40:snare.wav
64,192,113522,1,0,0:0:0:0:
320,192,113522,128,0,113793:0:0:0:0:
192,192,113658,1,0,0:0:0:0:
64,192,113793,128,0,114063:0:0:0:40:snare.wav
448,192,113793,1,0,0:0:0:0:
192,192,114063,1,0,0:0:0:40:snare.wav
448,192,114063,128,0,114333:0:0:0:0:
320,192,114198,1,0,0:0:0:0:
64,192,114333,1,0,0:0:0:40:snare.wav
192,192,114333,1,0,0:0:0:0:
320,192,114401,1,0,0:0:0:40:snare.wav
192,192,114468,1,0,0:0:0:40:snare.wav
320,192,114536,1,0,0:0:0:40:snare.wav
64,192,114604,128,2,116766:0:0:0:0:
192,192,114604,128,4,118928:0:0:0:0:
448,192,114604,128,0,118928:0:0:0:0:
