osu file format v14

[General]
AudioFilename: untitled.mp3
AudioLeadIn: 1500
PreviewTime: 30361
Countdown: 0
SampleSet: None
StackLeniency: 0.7
Mode: 3
LetterboxInBreaks: 0
SpecialStyle: 0
WidescreenStoryboard: 1

[Editor]
Bookmarks: 30361,65060
DistanceSpacing: 1.4
BeatDivisor: 4
GridSize: 16
TimelineZoom: 1

[Metadata]
Title:Level 2
TitleUnicode:Level 2
Artist:Corporate
ArtistUnicode:Corporate
Creator:Agka
Version:unscalable vectors
Source:
Tags:
BeatmapID:1922366
BeatmapSetID:920523

[Difficulty]
HPDrainRate:6
CircleSize:7
OverallDifficulty:5
ApproachRate:9
SliderMultiplier:1.4
SliderTickRate:1

[Events]
//Background and Video events
0,0,"download.png",0,0
//Break Periods
2,76465,81810
//Storyboard Layer 0 (Background)
//Storyboard Layer 1 (Fail)
//Storyboard Layer 2 (Pass)
//Storyboard Layer 3 (Foreground)
//Storyboard Sound Samples

[TimingPoints]
0,361.4458,4,1,0,15,1,0

[HitObjects]
36,192,7229,5,0,0:0:0:0:
475,192,7229,1,0,0:0:0:0:
109,192,7410,1,0,0:0:0:0:
475,192,7590,1,0,0:0:0:0:
182,192,7771,1,0,0:0:0:0:
256,192,11928,1,0,0:0:0:0:
256,192,12108,1,0,0:0:0:0:
256,192,12289,1,0,0:0:0:0:
256,192,12470,1,0,0:0:0:0:
182,192,12831,1,0,0:0:0:0:
329,192,12831,1,0,0:0:0:0:
36,192,13012,1,0,0:0:0:0:
475,192,13373,1,0,0:0:0:0:
182,192,13554,1,0,0:0:0:0:
36,192,13735,1,0,0:0:0:0:
475,192,13916,1,0,0:0:0:0:
182,192,14096,1,0,0:0:0:0:
36,192,14277,1,0,0:0:0:0:
475,192,14458,1,0,0:0:0:0:
182,192,14639,1,0,0:0:0:0:
36,192,14819,1,0,0:0:0:0:
475,192,15000,1,0,0:0:0:0:
182,192,15181,1,0,0:0:0:0:
36,192,15361,1,0,0:0:0:0:
475,192,15542,1,0,0:0:0:0:
182,192,15723,1,0,0:0:0:0:
36,192,15904,1,0,0:0:0:0:
109,192,15904,1,0,0:0:0:0:
475,192,16084,1,0,0:0:0:0:
182,192,16265,1,0,0:0:0:0:
36,192,16446,1,0,0:0:0:0:
402,192,16627,1,0,0:0:0:0:
475,192,16627,1,0,0:0:0:0:
182,192,16807,1,0,0:0:0:0:
36,192,16988,1,0,0:0:0:0:
475,192,17169,1,0,0:0:0:0:
109,192,17349,1,0,0:0:0:0:
182,192,17349,1,0,0:0:0:0:
36,192,17530,1,0,0:0:0:0:
256,192,17710,1,0,0:0:0:0:
475,192,17711,1,0,0:0:0:0:
256,192,17892,1,0,0:0:0:0:
256,192,18072,1,0,0:0:0:0:
256,192,18253,1,0,0:0:0:0:
329,192,18434,1,0,0:0:0:0:
182,192,18675,1,0,0:0:0:0:
36,192,18795,1,0,0:0:0:0:
329,192,18795,1,0,0:0:0:0:
109,192,18976,1,0,0:0:0:0:
475,192,19157,1,0,0:0:0:0:
182,192,19337,1,0,0:0:0:0:
256,192,23494,1,0,0:0:0:0:
256,192,23675,1,0,0:0:0:0:
256,192,23855,1,0,0:0:0:0:
256,192,24036,1,0,0:0:0:0:
329,192,24217,1,0,0:0:0:0:
475,192,24398,1,0,0:0:0:0:
182,192,24578,1,0,0:0:0:0:
36,192,24759,1,0,0:0:0:0:
475,192,24940,1,0,0:0:0:0:
182,192,25120,1,0,0:0:0:0:
36,192,25301,1,0,0:0:0:0:
475,192,25482,1,0,0:0:0:0:
182,192,25663,1,0,0:0:0:0:
36,192,25843,1,0,0:0:0:0:
475,192,26024,1,0,0:0:0:0:
182,192,26205,1,0,0:0:0:0:
36,192,26386,1,0,0:0:0:0:
475,192,26566,1,0,0:0:0:0:
182,192,26747,1,0,0:0:0:0:
36,192,26928,1,0,0:0:0:0:
475,192,27108,1,0,0:0:0:0:
182,192,27289,1,0,0:0:0:0:
36,192,27470,1,0,0:0:0:0:
109,192,27470,1,0,0:0:0:0:
475,192,27651,1,0,0:0:0:0:
182,192,27831,1,0,0:0:0:0:
36,192,28012,1,0,0:0:0:0:
402,192,28193,1,0,0:0:0:0:
475,192,28193,1,0,0:0:0:0:
182,192,28373,1,0,0:0:0:0:
36,192,28554,1,0,0:0:0:0:
475,192,28735,1,0,0:0:0:0:
329,192,28916,1,0,0:0:0:0:
402,192,28916,1,0,0:0:0:0:
182,192,29096,1,0,0:0:0:0:
329,192,29277,1,0,0:0:0:0:
182,0,29639,128,0,30361:0:0:0:0:
256,192,30000,1,0,0:0:0:0:
329,0,30000,128,0,30361:0:0:0:0:
109,192,30361,1,0,0:0:0:0:
256,192,30361,1,0,0:0:0:0:
402,192,30361,1,0,0:0:0:0:
36,192,30542,1,0,0:0:0:0:
475,192,30723,1,0,0:0:0:0:
36,192,30904,1,0,0:0:0:0:
182,192,30904,1,0,0:0:0:0:
329,192,31084,1,0,0:0:0:0:
402,192,31084,1,0,0:0:0:0:
109,192,31265,1,0,0:0:0:0:
475,192,31265,1,0,0:0:0:0:
182,192,31446,1,0,0:0:0:0:
329,192,31446,1,0,0:0:0:0:
402,192,31446,1,0,0:0:0:0:
256,192,31627,1,0,0:0:0:0:
36,192,31807,1,0,0:0:0:0:
109,192,31807,1,0,0:0:0:0:
475,192,31807,1,0,0:0:0:0:
182,192,31988,1,0,0:0:0:0:
36,192,32169,1,0,0:0:0:0:
329,192,32169,1,0,0:0:0:0:
402,192,32169,1,0,0:0:0:0:
475,192,32349,1,0,0:0:0:0:
109,192,32530,1,0,0:0:0:0:
182,192,32530,1,0,0:0:0:0:
329,192,32711,1,0,0:0:0:0:
109,192,32892,1,0,0:0:0:0:
475,192,32892,1,0,0:0:0:0:
182,192,33072,1,0,0:0:0:0:
36,192,33253,1,0,0:0:0:0:
109,192,33253,1,0,0:0:0:0:
329,192,33434,1,0,0:0:0:0:
402,192,33434,1,0,0:0:0:0:
182,192,33614,1,0,0:0:0:0:
109,0,33614,128,0,33795:0:0:0:0:
402,192,33795,1,0,0:0:0:0:
36,192,33976,1,0,0:0:0:0:
109,192,33976,1,0,0:0:0:0:
475,192,33976,1,0,0:0:0:0:
182,192,34157,1,0,0:0:0:0:
329,192,34157,1,0,0:0:0:0:
402,192,34157,1,0,0:0:0:0:
36,192,34337,1,0,0:0:0:0:
109,192,34337,1,0,0:0:0:0:
329,192,34518,1,0,0:0:0:0:
109,192,34699,1,0,0:0:0:0:
182,192,34699,1,0,0:0:0:0:
109,192,34880,1,0,0:0:0:0:
182,192,34880,1,0,0:0:0:0:
329,192,35060,1,0,0:0:0:0:
402,192,35060,1,0,0:0:0:0:
182,192,35241,1,0,0:0:0:0:
109,192,35422,1,0,0:0:0:0:
182,192,35422,1,0,0:0:0:0:
36,192,35602,1,0,0:0:0:0:
329,192,35602,1,0,0:0:0:0:
402,192,35602,1,0,0:0:0:0:
182,192,35783,1,0,0:0:0:0:
109,192,35964,1,0,0:0:0:0:
475,192,35964,1,0,0:0:0:0:
36,192,36145,1,0,0:0:0:0:
329,192,36145,1,0,0:0:0:0:
109,192,36325,1,0,0:0:0:0:
329,192,36506,1,0,0:0:0:0:
402,192,36506,1,0,0:0:0:0:
36,192,36687,1,0,0:0:0:0:
109,192,36687,1,0,0:0:0:0:
182,192,36687,1,0,0:0:0:0:
329,192,36867,1,0,0:0:0:0:
402,192,36867,1,0,0:0:0:0:
256,192,37048,1,0,0:0:0:0:
475,192,37048,1,0,0:0:0:0:
109,192,37229,1,0,0:0:0:0:
182,192,37229,1,0,0:0:0:0:
329,192,37410,1,0,0:0:0:0:
109,192,37590,1,0,0:0:0:0:
402,192,37590,1,0,0:0:0:0:
182,192,37771,1,0,0:0:0:0:
36,192,37952,1,0,0:0:0:0:
402,192,38133,1,0,0:0:0:0:
109,192,38313,1,0,0:0:0:0:
182,192,38313,1,0,0:0:0:0:
329,192,38494,1,0,0:0:0:0:
36,192,38675,1,0,0:0:0:0:
402,192,38675,1,0,0:0:0:0:
182,192,38855,1,0,0:0:0:0:
36,192,39036,1,0,0:0:0:0:
109,192,39036,1,0,0:0:0:0:
329,192,39036,1,0,0:0:0:0:
402,192,39217,1,0,0:0:0:0:
182,192,39398,1,0,0:0:0:0:
36,192,39578,1,0,0:0:0:0:
109,192,39578,1,0,0:0:0:0:
402,192,39759,1,0,0:0:0:0:
475,192,39759,1,0,0:0:0:0:
109,192,39940,1,0,0:0:0:0:
182,192,39940,1,0,0:0:0:0:
402,192,40120,1,0,0:0:0:0:
182,192,40301,1,0,0:0:0:0:
329,192,40482,1,0,0:0:0:0:
402,192,40482,1,0,0:0:0:0:
109,192,40663,1,0,0:0:0:0:
182,192,40663,1,0,0:0:0:0:
329,192,40843,1,0,0:0:0:0:
36,192,41024,1,0,0:0:0:0:
109,192,41024,1,0,0:0:0:0:
329,192,41205,1,0,0:0:0:0:
402,192,41205,1,0,0:0:0:0:
256,192,41386,1,0,0:0:0:0:
475,192,41386,1,0,0:0:0:0:
109,192,41566,1,0,0:0:0:0:
182,192,41566,1,0,0:0:0:0:
329,192,41747,1,0,0:0:0:0:
402,192,41747,1,0,0:0:0:0:
36,192,41928,1,0,0:0:0:0:
109,192,41928,1,0,0:0:0:0:
182,192,42108,1,0,0:0:0:0:
475,192,42289,1,0,0:0:0:0:
36,192,42470,1,0,0:0:0:0:
182,192,42470,1,0,0:0:0:0:
329,192,42651,1,0,0:0:0:0:
402,192,42651,1,0,0:0:0:0:
475,192,42831,1,0,0:0:0:0:
36,192,43012,1,0,0:0:0:0:
109,192,43012,1,0,0:0:0:0:
182,192,43012,1,0,0:0:0:0:
329,192,43193,1,0,0:0:0:0:
36,192,43373,1,0,0:0:0:0:
109,192,43373,1,0,0:0:0:0:
475,192,43373,1,0,0:0:0:0:
182,192,43554,1,0,0:0:0:0:
36,192,43735,1,0,0:0:0:0:
475,192,43916,1,0,0:0:0:0:
109,192,44096,1,0,0:0:0:0:
182,192,44096,1,0,0:0:0:0:
36,192,44277,1,0,0:0:0:0:
256,192,44458,1,0,0:0:0:0:
475,192,44458,1,0,0:0:0:0:
182,192,44639,1,0,0:0:0:0:
36,192,44819,1,0,0:0:0:0:
256,192,44819,1,0,0:0:0:0:
475,192,44819,1,0,0:0:0:0:
182,192,45000,1,0,0:0:0:0:
109,192,45181,1,0,0:0:0:0:
36,192,45361,1,0,0:0:0:0:
329,192,45361,1,0,0:0:0:0:
109,192,45542,1,0,0:0:0:0:
182,192,45542,1,0,0:0:0:0:
475,192,45542,1,0,0:0:0:0:
329,192,45723,1,0,0:0:0:0:
402,192,45723,1,0,0:0:0:0:
36,192,45904,1,0,0:0:0:0:
182,192,45904,1,0,0:0:0:0:
402,192,46084,1,0,0:0:0:0:
475,192,46084,1,0,0:0:0:0:
36,192,46265,1,0,0:0:0:0:
182,192,46265,1,0,0:0:0:0:
256,192,46446,1,0,0:0:0:0:
182,192,46627,1,0,0:0:0:0:
329,192,46627,1,0,0:0:0:0:
402,192,46627,1,0,0:0:0:0:
36,192,46807,1,0,0:0:0:0:
256,192,46807,1,0,0:0:0:0:
256,192,46988,1,0,0:0:0:0:
475,192,46988,1,0,0:0:0:0:
256,192,47169,1,0,0:0:0:0:
109,192,47349,1,0,0:0:0:0:
256,192,47349,1,0,0:0:0:0:
256,192,47530,1,0,0:0:0:0:
402,192,47530,1,0,0:0:0:0:
36,192,47711,1,0,0:0:0:0:
109,192,47711,1,0,0:0:0:0:
182,192,47892,1,0,0:0:0:0:
475,192,48072,1,0,0:0:0:0:
36,192,48253,1,0,0:0:0:0:
182,192,48253,1,0,0:0:0:0:
329,192,48434,1,0,0:0:0:0:
402,192,48434,1,0,0:0:0:0:
109,192,48614,1,0,0:0:0:0:
475,192,48614,1,0,0:0:0:0:
36,192,48795,1,0,0:0:0:0:
182,192,48795,1,0,0:0:0:0:
402,192,48976,1,0,0:0:0:0:
36,192,49157,1,0,0:0:0:0:
109,192,49157,1,0,0:0:0:0:
475,192,49157,1,0,0:0:0:0:
182,192,49337,1,0,0:0:0:0:
36,192,49518,1,0,0:0:0:0:
475,192,49699,1,0,0:0:0:0:
109,192,49880,1,0,0:0:0:0:
182,192,49880,1,0,0:0:0:0:
36,192,50060,1,0,0:0:0:0:
329,192,50241,1,0,0:0:0:0:
475,192,50241,1,0,0:0:0:0:
36,192,50422,1,0,0:0:0:0:
109,192,50422,1,0,0:0:0:0:
329,192,50602,1,0,0:0:0:0:
402,192,50602,1,0,0:0:0:0:
475,192,50602,1,0,0:0:0:0:
182,192,50783,1,0,0:0:0:0:
36,192,50964,1,0,0:0:0:0:
182,192,51145,1,0,0:0:0:0:
329,192,51145,1,0,0:0:0:0:
109,192,51325,1,0,0:0:0:0:
402,192,51325,1,0,0:0:0:0:
329,192,51506,1,0,0:0:0:0:
475,192,51506,1,0,0:0:0:0:
109,192,51687,1,0,0:0:0:0:
182,192,51687,1,0,0:0:0:0:
329,192,51867,1,0,0:0:0:0:
109,192,52048,1,0,0:0:0:0:
182,192,52048,1,0,0:0:0:0:
475,192,52048,1,0,0:0:0:0:
329,192,52229,1,0,0:0:0:0:
36,192,52410,1,0,0:0:0:0:
109,192,52590,1,0,0:0:0:0:
182,192,52590,1,0,0:0:0:0:
329,192,52771,1,0,0:0:0:0:
402,192,52771,1,0,0:0:0:0:
109,192,52952,1,0,0:0:0:0:
182,0,52952,128,0,53494:0:0:0:0:
402,192,53133,1,0,0:0:0:0:
475,192,53133,1,0,0:0:0:0:
109,192,53313,1,0,0:0:0:0:
36,192,53494,1,0,0:0:0:0:
256,192,53494,1,0,0:0:0:0:
402,192,53494,1,0,0:0:0:0:
109,192,53675,1,0,0:0:0:0:
329,192,53855,1,0,0:0:0:0:
36,192,54036,1,0,0:0:0:0:
109,192,54036,1,0,0:0:0:0:
182,192,54217,1,0,0:0:0:0:
256,192,54217,1,0,0:0:0:0:
402,192,54217,1,0,0:0:0:0:
329,192,54398,1,0,0:0:0:0:
109,192,54578,1,0,0:0:0:0:
182,192,54578,1,0,0:0:0:0:
475,192,54578,1,0,0:0:0:0:
36,192,54759,1,0,0:0:0:0:
329,192,54940,1,0,0:0:0:0:
475,192,54940,1,0,0:0:0:0:
182,192,55120,1,0,0:0:0:0:
36,192,55301,1,0,0:0:0:0:
109,192,55301,1,0,0:0:0:0:
475,192,55482,1,0,0:0:0:0:
109,192,55663,1,0,0:0:0:0:
182,192,55663,1,0,0:0:0:0:
256,192,55843,1,0,0:0:0:0:
329,192,55843,1,0,0:0:0:0:
402,192,56024,1,0,0:0:0:0:
475,192,56024,1,0,0:0:0:0:
182,192,56205,1,0,0:0:0:0:
36,192,56386,1,0,0:0:0:0:
402,192,56386,1,0,0:0:0:0:
475,192,56566,1,0,0:0:0:0:
182,192,56747,1,0,0:0:0:0:
36,192,56928,1,0,0:0:0:0:
329,192,57108,1,0,0:0:0:0:
402,192,57108,1,0,0:0:0:0:
475,192,57108,1,0,0:0:0:0:
109,192,57289,1,0,0:0:0:0:
182,192,57289,1,0,0:0:0:0:
36,192,57470,1,0,0:0:0:0:
329,192,57470,1,0,0:0:0:0:
402,192,57651,1,0,0:0:0:0:
36,192,57831,1,0,0:0:0:0:
109,192,57831,1,0,0:0:0:0:
182,192,57831,1,0,0:0:0:0:
329,192,58012,1,0,0:0:0:0:
109,192,58193,1,0,0:0:0:0:
182,192,58373,1,0,0:0:0:0:
329,192,58373,1,0,0:0:0:0:
402,192,58554,1,0,0:0:0:0:
475,192,58554,1,0,0:0:0:0:
402,192,58735,1,0,0:0:0:0:
475,192,58735,1,0,0:0:0:0:
109,192,58916,1,0,0:0:0:0:
182,192,58916,1,0,0:0:0:0:
329,192,59096,1,0,0:0:0:0:
402,192,59096,1,0,0:0:0:0:
36,192,59277,1,0,0:0:0:0:
182,192,59277,1,0,0:0:0:0:
329,192,59458,1,0,0:0:0:0:
475,192,59639,1,0,0:0:0:0:
36,192,59819,1,0,0:0:0:0:
182,192,59819,1,0,0:0:0:0:
329,192,60000,1,0,0:0:0:0:
402,192,60000,1,0,0:0:0:0:
475,192,60181,1,0,0:0:0:0:
36,192,60361,1,0,0:0:0:0:
182,192,60361,1,0,0:0:0:0:
109,192,60542,1,0,0:0:0:0:
329,192,60723,1,0,0:0:0:0:
475,192,60723,1,0,0:0:0:0:
182,192,60904,1,0,0:0:0:0:
36,192,61084,1,0,0:0:0:0:
475,192,61265,1,0,0:0:0:0:
109,192,61446,1,0,0:0:0:0:
182,192,61446,1,0,0:0:0:0:
36,192,61627,1,0,0:0:0:0:
402,192,61807,1,0,0:0:0:0:
475,192,61807,1,0,0:0:0:0:
182,192,61988,1,0,0:0:0:0:
36,192,62169,1,0,0:0:0:0:
109,192,62169,1,0,0:0:0:0:
402,192,62169,1,0,0:0:0:0:
475,192,62349,1,0,0:0:0:0:
182,192,62530,1,0,0:0:0:0:
36,192,62711,1,0,0:0:0:0:
329,192,62892,1,0,0:0:0:0:
402,192,62892,1,0,0:0:0:0:
182,192,63072,1,0,0:0:0:0:
36,192,63253,1,0,0:0:0:0:
109,192,63253,1,0,0:0:0:0:
402,192,63434,1,0,0:0:0:0:
109,192,63614,1,0,0:0:0:0:
182,192,63614,1,0,0:0:0:0:
182,192,63795,1,0,0:0:0:0:
182,192,63976,1,0,0:0:0:0:
475,192,63976,1,0,0:0:0:0:
256,0,63976,128,0,64337:0:0:0:0:
109,192,64157,1,0,0:0:0:0:
182,192,64157,1,0,0:0:0:0:
329,192,64337,1,0,0:0:0:0:
402,192,64337,1,0,0:0:0:0:
475,192,64518,1,0,0:0:0:0:
109,192,64699,1,0,0:0:0:0:
182,192,64699,1,0,0:0:0:0:
36,192,64880,1,0,0:0:0:0:
329,192,65060,1,0,0:0:0:0:
402,192,65060,1,0,0:0:0:0:
182,192,65151,1,0,0:0:0:0:
36,192,65241,1,0,0:0:0:0:
182,192,65331,1,0,0:0:0:0:
329,192,65422,1,0,0:0:0:0:
475,192,65422,1,0,0:0:0:0:
182,192,65512,1,0,0:0:0:0:
109,192,65602,1,0,0:0:0:0:
329,192,65602,1,0,0:0:0:0:
475,192,65693,1,0,0:0:0:0:
182,192,65783,1,0,0:0:0:0:
256,192,65783,1,0,0:0:0:0:
329,192,65783,1,0,0:0:0:0:
475,192,65874,1,0,0:0:0:0:
329,192,65964,1,0,0:0:0:0:
402,192,65964,1,0,0:0:0:0:
182,192,66054,1,0,0:0:0:0:
109,192,66145,1,0,0:0:0:0:
329,192,66145,1,0,0:0:0:0:
402,192,66145,1,0,0:0:0:0:
182,192,66235,1,0,0:0:0:0:
36,192,66325,1,0,0:0:0:0:
329,192,66506,1,0,0:0:0:0:
402,192,66506,1,0,0:0:0:0:
475,192,66506,1,0,0:0:0:0:
109,192,66687,1,0,0:0:0:0:
329,192,66687,1,0,0:0:0:0:
475,192,66777,1,0,0:0:0:0:
36,192,66867,1,0,0:0:0:0:
329,192,66867,1,0,0:0:0:0:
475,192,66958,1,0,0:0:0:0:
329,192,67048,1,0,0:0:0:0:
402,192,67048,1,0,0:0:0:0:
182,192,67139,1,0,0:0:0:0:
109,192,67229,1,0,0:0:0:0:
329,192,67229,1,0,0:0:0:0:
182,192,67319,1,0,0:0:0:0:
36,192,67410,1,0,0:0:0:0:
402,192,67410,1,0,0:0:0:0:
182,192,67500,1,0,0:0:0:0:
329,192,67590,1,0,0:0:0:0:
475,192,67590,1,0,0:0:0:0:
109,192,67771,1,0,0:0:0:0:
329,192,67771,1,0,0:0:0:0:
36,192,67952,1,0,0:0:0:0:
256,192,67952,1,0,0:0:0:0:
329,192,67952,1,0,0:0:0:0:
475,192,68042,1,0,0:0:0:0:
329,192,68133,1,0,0:0:0:0:
402,192,68133,1,0,0:0:0:0:
182,192,68223,1,0,0:0:0:0:
329,192,68313,1,0,0:0:0:0:
182,192,68404,1,0,0:0:0:0:
36,192,68494,1,0,0:0:0:0:
182,192,68584,1,0,0:0:0:0:
36,192,68675,1,0,0:0:0:0:
329,192,68675,1,0,0:0:0:0:
182,192,68765,1,0,0:0:0:0:
329,192,68855,1,0,0:0:0:0:
475,192,68946,1,0,0:0:0:0:
36,192,69036,1,0,0:0:0:0:
329,192,69036,1,0,0:0:0:0:
182,192,69217,1,0,0:0:0:0:
475,192,69217,1,0,0:0:0:0:
109,192,69398,1,0,0:0:0:0:
329,192,69398,1,0,0:0:0:0:
182,192,69488,1,0,0:0:0:0:
36,192,69578,1,0,0:0:0:0:
182,192,69669,1,0,0:0:0:0:
329,192,69759,1,0,0:0:0:0:
475,192,69759,1,0,0:0:0:0:
256,192,69759,1,0,0:0:0:0:
182,192,69849,1,0,0:0:0:0:
256,192,69939,1,0,0:0:0:0:
109,192,69940,1,0,0:0:0:0:
329,192,69940,1,0,0:0:0:0:
475,192,70030,1,0,0:0:0:0:
329,192,70120,1,0,0:0:0:0:
256,192,70120,1,0,0:0:0:0:
475,192,70211,1,0,0:0:0:0:
329,192,70301,1,0,0:0:0:0:
256,192,70301,1,0,0:0:0:0:
182,192,70392,1,0,0:0:0:0:
36,192,70481,1,0,0:0:0:0:
109,192,70482,1,0,0:0:0:0:
475,192,70662,1,0,0:0:0:0:
402,192,70663,1,0,0:0:0:0:
36,192,70843,1,0,0:0:0:0:
329,192,70843,1,0,0:0:0:0:
182,192,70934,1,0,0:0:0:0:
329,192,71024,1,0,0:0:0:0:
475,192,71114,1,0,0:0:0:0:
329,192,71205,1,0,0:0:0:0:
475,192,71295,1,0,0:0:0:0:
36,192,71386,1,0,0:0:0:0:
329,192,71386,1,0,0:0:0:0:
182,192,71476,1,0,0:0:0:0:
329,192,71566,1,0,0:0:0:0:
402,192,71566,1,0,0:0:0:0:
182,192,71657,1,0,0:0:0:0:
36,192,71747,1,0,0:0:0:0:
475,192,71747,1,0,0:0:0:0:
182,192,71837,1,0,0:0:0:0:
329,192,71928,1,0,0:0:0:0:
402,192,71928,1,0,0:0:0:0:
109,192,72108,1,0,0:0:0:0:
329,192,72289,1,0,0:0:0:0:
475,192,72289,1,0,0:0:0:0:
182,192,72380,1,0,0:0:0:0:
36,192,72470,1,0,0:0:0:0:
329,192,72470,1,0,0:0:0:0:
182,192,72560,1,0,0:0:0:0:
109,192,72651,1,0,0:0:0:0:
329,192,72651,1,0,0:0:0:0:
475,192,72741,1,0,0:0:0:0:
329,192,72831,1,0,0:0:0:0:
402,192,72831,1,0,0:0:0:0:
475,192,72922,1,0,0:0:0:0:
109,192,73012,1,0,0:0:0:0:
329,192,73012,1,0,0:0:0:0:
182,192,73102,1,0,0:0:0:0:
329,192,73193,1,0,0:0:0:0:
475,192,73193,1,0,0:0:0:0:
182,192,73283,1,0,0:0:0:0:
36,192,73374,1,0,0:0:0:0:
402,192,73374,1,0,0:0:0:0:
475,192,73554,1,0,0:0:0:0:
36,192,73735,1,0,0:0:0:0:
329,192,73735,1,0,0:0:0:0:
402,192,73735,1,0,0:0:0:0:
182,192,73825,1,0,0:0:0:0:
36,192,73916,1,0,0:0:0:0:
475,192,73916,1,0,0:0:0:0:
182,192,74006,1,0,0:0:0:0:
109,192,74096,1,0,0:0:0:0:
329,192,74096,1,0,0:0:0:0:
182,192,74187,1,0,0:0:0:0:
36,192,74277,1,0,0:0:0:0:
329,192,74277,1,0,0:0:0:0:
182,192,74367,1,0,0:0:0:0:
329,192,74458,1,0,0:0:0:0:
402,192,74458,1,0,0:0:0:0:
475,192,74548,1,0,0:0:0:0:
109,192,74639,1,0,0:0:0:0:
329,192,74639,1,0,0:0:0:0:
475,192,74729,1,0,0:0:0:0:
182,192,74819,1,0,0:0:0:0:
256,192,74819,1,0,0:0:0:0:
402,192,75000,1,0,0:0:0:0:
36,192,75181,1,0,0:0:0:0:
329,192,75181,1,0,0:0:0:0:
182,192,75271,1,0,0:0:0:0:
36,192,75361,1,0,0:0:0:0:
182,192,75452,1,0,0:0:0:0:
402,192,75542,1,0,0:0:0:0:
475,192,75542,1,0,0:0:0:0:
329,192,75633,1,0,0:0:0:0:
36,192,75723,1,0,0:0:0:0:
475,192,75723,1,0,0:0:0:0:
329,192,75813,1,0,0:0:0:0:
182,192,75904,1,0,0:0:0:0:
402,192,75904,1,0,0:0:0:0:
329,192,75994,1,0,0:0:0:0:
109,192,76084,1,0,0:0:0:0:
182,192,76084,1,0,0:0:0:0:
329,192,76175,1,0,0:0:0:0:
402,192,76265,1,0,0:0:0:0:
36,192,82410,5,0,0:0:0:0:
109,192,82500,1,0,0:0:0:0:
182,192,82590,1,0,0:0:0:0:
256,192,82681,1,0,0:0:0:0:
329,192,82771,1,0,0:0:0:0:
475,192,82771,1,0,0:0:0:0:
402,192,82861,1,0,0:0:0:0:
36,192,82952,1,0,0:0:0:0:
182,192,82952,1,0,0:0:0:0:
109,192,83042,1,0,0:0:0:0:
182,192,83133,1,0,0:0:0:0:
256,192,83223,1,0,0:0:0:0:
329,192,83313,1,0,0:0:0:0:
475,192,83313,1,0,0:0:0:0:
402,192,83404,1,0,0:0:0:0:
182,192,83494,1,0,0:0:0:0:
402,192,83494,1,0,0:0:0:0:
36,192,83855,1,0,0:0:0:0:
475,192,83855,1,0,0:0:0:0:
109,192,83946,1,0,0:0:0:0:
182,192,84036,1,0,0:0:0:0:
256,192,84036,1,0,0:0:0:0:
329,192,84127,1,0,0:0:0:0:
402,192,84217,1,0,0:0:0:0:
36,192,84307,1,0,0:0:0:0:
109,192,84398,1,0,0:0:0:0:
475,192,84398,1,0,0:0:0:0:
256,192,84488,1,0,0:0:0:0:
182,192,84578,1,0,0:0:0:0:
329,192,84578,1,0,0:0:0:0:
402,192,84669,1,0,0:0:0:0:
109,192,84759,1,0,0:0:0:0:
256,192,84849,1,0,0:0:0:0:
256,192,84940,1,0,0:0:0:0:
475,192,84940,1,0,0:0:0:0:
182,192,85120,1,0,0:0:0:0:
36,192,85301,1,0,0:0:0:0:
109,192,85392,1,0,0:0:0:0:
182,192,85482,1,0,0:0:0:0:
475,192,85482,1,0,0:0:0:0:
256,192,85572,1,0,0:0:0:0:
182,192,85663,1,0,0:0:0:0:
329,192,85663,1,0,0:0:0:0:
402,192,85753,1,0,0:0:0:0:
36,192,85843,1,0,0:0:0:0:
109,192,85934,1,0,0:0:0:0:
182,192,86024,1,0,0:0:0:0:
475,192,86024,1,0,0:0:0:0:
256,192,86114,1,0,0:0:0:0:
182,192,86205,1,0,0:0:0:0:
329,192,86205,1,0,0:0:0:0:
402,192,86295,1,0,0:0:0:0:
402,192,86386,1,0,0:0:0:0:
475,192,86566,1,0,0:0:0:0:
36,192,86747,1,0,0:0:0:0:
182,192,86747,1,0,0:0:0:0:
109,192,86837,1,0,0:0:0:0:
182,192,86928,1,0,0:0:0:0:
256,192,87018,1,0,0:0:0:0:
329,192,87108,1,0,0:0:0:0:
475,192,87108,1,0,0:0:0:0:
402,192,87199,1,0,0:0:0:0:
36,192,87289,1,0,0:0:0:0:
182,192,87289,1,0,0:0:0:0:
109,192,87380,1,0,0:0:0:0:
182,192,87470,1,0,0:0:0:0:
256,192,87560,1,0,0:0:0:0:
329,192,87651,1,0,0:0:0:0:
475,192,87651,1,0,0:0:0:0:
402,192,87741,1,0,0:0:0:0:
182,192,87831,1,0,0:0:0:0:
402,192,87831,1,0,0:0:0:0:
36,192,88193,1,0,0:0:0:0:
109,192,88193,1,0,0:0:0:0:
182,192,88283,1,0,0:0:0:0:
256,192,88374,1,0,0:0:0:0:
329,192,88464,1,0,0:0:0:0:
402,192,88554,1,0,0:0:0:0:
475,192,88645,1,0,0:0:0:0:
36,192,88735,1,0,0:0:0:0:
109,192,88825,1,0,0:0:0:0:
182,192,88916,1,0,0:0:0:0:
256,192,89006,1,0,0:0:0:0:
329,192,89096,1,0,0:0:0:0:
402,192,89187,1,0,0:0:0:0:
402,192,89277,1,0,0:0:0:0:
36,192,89639,1,0,0:0:0:0:
109,192,89729,1,0,0:0:0:0:
182,192,89819,1,0,0:0:0:0:
256,192,89910,1,0,0:0:0:0:
329,192,90000,1,0,0:0:0:0:
402,192,90090,1,0,0:0:0:0:
36,192,90181,1,0,0:0:0:0:
109,192,90271,1,0,0:0:0:0:
182,192,90361,1,0,0:0:0:0:
256,192,90452,1,0,0:0:0:0:
329,192,90542,1,0,0:0:0:0:
402,192,90633,1,0,0:0:0:0:
402,192,90723,1,0,0:0:0:0:
36,192,91084,1,0,0:0:0:0:
109,192,91175,1,0,0:0:0:0:
182,192,91265,1,0,0:0:0:0:
256,192,91355,1,0,0:0:0:0:
329,192,91446,1,0,0:0:0:0:
402,192,91536,1,0,0:0:0:0:
36,192,91627,1,0,0:0:0:0:
109,192,91717,1,0,0:0:0:0:
182,192,91807,1,0,0:0:0:0:
256,192,91898,1,0,0:0:0:0:
329,192,91988,1,0,0:0:0:0:
402,192,92078,1,0,0:0:0:0:
36,192,92530,1,0,0:0:0:0:
109,192,92620,1,0,0:0:0:0:
182,192,92711,1,0,0:0:0:0:
256,192,92801,1,0,0:0:0:0:
329,192,92892,1,0,0:0:0:0:
402,192,92982,1,0,0:0:0:0:
36,192,93072,1,0,0:0:0:0:
109,192,93163,1,0,0:0:0:0:
182,192,93253,1,0,0:0:0:0:
256,192,93343,1,0,0:0:0:0:
329,192,93434,1,0,0:0:0:0:
402,192,93524,1,0,0:0:0:0:
402,192,93614,1,0,0:0:0:0:
36,192,93976,1,0,0:0:0:0:
109,192,94066,1,0,0:0:0:0:
182,192,94157,1,0,0:0:0:0:
256,192,94247,1,0,0:0:0:0:
329,192,94337,1,0,0:0:0:0:
402,192,94428,1,0,0:0:0:0:
36,192,94518,1,0,0:0:0:0:
109,192,94608,1,0,0:0:0:0:
182,192,94699,1,0,0:0:0:0:
256,192,94789,1,0,0:0:0:0:
329,192,94880,1,0,0:0:0:0:
402,192,94970,1,0,0:0:0:0:
36,192,95422,1,0,0:0:0:0:
109,192,95512,1,0,0:0:0:0:
182,192,95602,1,0,0:0:0:0:
256,192,95693,1,0,0:0:0:0:
329,192,95783,1,0,0:0:0:0:
402,192,95874,1,0,0:0:0:0:
36,192,95964,1,0,0:0:0:0:
109,192,96054,1,0,0:0:0:0:
182,192,96145,1,0,0:0:0:0:
256,192,96235,1,0,0:0:0:0:
329,192,96325,1,0,0:0:0:0:
402,192,96416,1,0,0:0:0:0:
402,192,96506,1,0,0:0:0:0:
36,192,96867,1,0,0:0:0:0:
109,192,96958,1,0,0:0:0:0:
182,192,97048,1,0,0:0:0:0:
256,192,97139,1,0,0:0:0:0:
329,192,97229,1,0,0:0:0:0:
402,192,97319,1,0,0:0:0:0:
36,192,97410,1,0,0:0:0:0:
109,192,97500,1,0,0:0:0:0:
182,192,97590,1,0,0:0:0:0:
256,192,97681,1,0,0:0:0:0:
329,192,97771,1,0,0:0:0:0:
402,192,97861,1,0,0:0:0:0:
36,192,98313,1,0,0:0:0:0:
109,192,98404,1,0,0:0:0:0:
182,192,98494,1,0,0:0:0:0:
256,192,98584,1,0,0:0:0:0:
329,192,98675,1,0,0:0:0:0:
402,192,98765,1,0,0:0:0:0:
36,192,98855,1,0,0:0:0:0:
109,192,98946,1,0,0:0:0:0:
182,192,99036,1,0,0:0:0:0:
256,192,99127,1,0,0:0:0:0:
329,192,99217,1,0,0:0:0:0:
402,192,99307,1,0,0:0:0:0:
36,192,99759,1,0,0:0:0:0:
109,192,99849,1,0,0:0:0:0:
182,192,99940,1,0,0:0:0:0:
256,192,100030,1,0,0:0:0:0:
329,192,100120,1,0,0:0:0:0:
402,192,100211,1,0,0:0:0:0:
36,192,100301,1,0,0:0:0:0:
109,192,100392,1,0,0:0:0:0:
182,192,100482,1,0,0:0:0:0:
256,192,100572,1,0,0:0:0:0:
329,192,100663,1,0,0:0:0:0:
402,192,100753,1,0,0:0:0:0:
402,192,100843,1,0,0:0:0:0:
36,192,101205,1,0,0:0:0:0:
109,192,101295,1,0,0:0:0:0:
182,192,101386,1,0,0:0:0:0:
256,192,101476,1,0,0:0:0:0:
329,192,101566,1,0,0:0:0:0:
402,192,101657,1,0,0:0:0:0:
36,192,101747,1,0,0:0:0:0:
109,192,101837,1,0,0:0:0:0:
182,192,101928,1,0,0:0:0:0:
256,192,102018,1,0,0:0:0:0:
329,192,102108,1,0,0:0:0:0:
402,192,102199,1,0,0:0:0:0:
402,192,102289,1,0,0:0:0:0:
36,192,102651,1,0,0:0:0:0:
109,192,102741,1,0,0:0:0:0:
182,192,102831,1,0,0:0:0:0:
256,192,102922,1,0,0:0:0:0:
329,192,103012,1,0,0:0:0:0:
402,192,103102,1,0,0:0:0:0:
36,192,103193,1,0,0:0:0:0:
109,192,103283,1,0,0:0:0:0:
182,192,103374,1,0,0:0:0:0:
256,192,103464,1,0,0:0:0:0:
329,192,103554,1,0,0:0:0:0:
402,192,103645,1,0,0:0:0:0:
402,192,103735,1,0,0:0:0:0:
36,192,104096,1,0,0:0:0:0:
109,192,104187,1,0,0:0:0:0:
182,192,104277,1,0,0:0:0:0:
256,192,104367,1,0,0:0:0:0:
329,192,104458,1,0,0:0:0:0:
402,192,104548,1,0,0:0:0:0:
36,192,104639,1,0,0:0:0:0:
109,192,104729,1,0,0:0:0:0:
182,192,104819,1,0,0:0:0:0:
256,192,104910,1,0,0:0:0:0:
329,192,105000,1,0,0:0:0:0:
402,192,105090,1,0,0:0:0:0:
402,192,105181,1,0,0:0:0:0:
36,192,105542,1,0,0:0:0:0:
109,192,105633,1,0,0:0:0:0:
182,192,105723,1,0,0:0:0:0:
256,192,105813,1,0,0:0:0:0:
329,192,105904,1,0,0:0:0:0:
402,192,105994,1,0,0:0:0:0:
36,192,106084,1,0,0:0:0:0:
109,192,106175,1,0,0:0:0:0:
182,192,106265,1,0,0:0:0:0:
256,192,106355,1,0,0:0:0:0:
329,192,106446,1,0,0:0:0:0:
402,192,106536,1,0,0:0:0:0:
402,192,106627,1,0,0:0:0:0:
36,192,106988,1,0,0:0:0:0:
109,192,107078,1,0,0:0:0:0:
182,192,107169,1,0,0:0:0:0:
256,192,107259,1,0,0:0:0:0:
329,192,107349,1,0,0:0:0:0:
402,192,107440,1,0,0:0:0:0:
36,192,107530,1,0,0:0:0:0:
109,192,107620,1,0,0:0:0:0:
182,192,107711,1,0,0:0:0:0:
256,192,107801,1,0,0:0:0:0:
329,192,107892,1,0,0:0:0:0:
402,192,107982,1,0,0:0:0:0:
402,192,108072,1,0,0:0:0:0:
402,192,108253,1,0,0:0:0:0:
402,192,108343,1,0,0:0:0:0:
36,192,108434,1,0,0:0:0:0:
109,192,108524,1,0,0:0:0:0:
182,192,108614,1,0,0:0:0:0:
256,192,108705,1,0,0:0:0:0:
329,192,108795,1,0,0:0:0:0:
402,192,108886,1,0,0:0:0:0:
36,192,108976,1,0,0:0:0:0:
182,192,109157,1,0,0:0:0:0:
329,192,109337,1,0,0:0:0:0:
402,192,109518,1,0,0:0:0:0:
402,192,109699,1,0,0:0:0:0:
402,192,109789,1,0,0:0:0:0:
36,192,109880,1,0,0:0:0:0:
182,192,110060,1,0,0:0:0:0:
402,192,110241,1,0,0:0:0:0:
402,192,110422,1,0,0:0:0:0:
402,192,110602,1,0,0:0:0:0:
182,192,110783,1,0,0:0:0:0:
402,192,110783,1,0,0:0:0:0:
109,192,110874,1,0,0:0:0:0:
182,192,110964,1,0,0:0:0:0:
402,192,110964,1,0,0:0:0:0:
182,192,111145,1,0,0:0:0:0:
402,192,111145,1,0,0:0:0:0:
36,192,111325,1,0,0:0:0:0:
329,192,111325,1,0,0:0:0:0:
329,192,111506,1,0,0:0:0:0:
329,192,111687,1,0,0:0:0:0:
36,192,111867,1,0,0:0:0:0:
329,192,111867,1,0,0:0:0:0:
109,192,112048,1,0,0:0:0:0:
182,192,112048,1,0,0:0:0:0:
329,192,112048,1,0,0:0:0:0:
329,192,112229,1,0,0:0:0:0:
475,192,112229,1,0,0:0:0:0:
36,192,112410,1,0,0:0:0:0:
329,192,112410,1,0,0:0:0:0:
329,192,112590,1,0,0:0:0:0:
182,192,112771,1,0,0:0:0:0:
182,192,112952,1,0,0:0:0:0:
36,192,113133,1,0,0:0:0:0:
182,192,113133,1,0,0:0:0:0:
182,192,113313,1,0,0:0:0:0:
182,192,113494,1,0,0:0:0:0:
329,192,113494,1,0,0:0:0:0:
402,192,113494,1,0,0:0:0:0:
182,192,113675,1,0,0:0:0:0:
182,192,113855,1,0,0:0:0:0:
182,192,114036,1,0,0:0:0:0:
36,192,114217,1,0,0:0:0:0:
329,192,114217,1,0,0:0:0:0:
329,192,114398,1,0,0:0:0:0:
329,192,114578,1,0,0:0:0:0:
36,192,114759,1,0,0:0:0:0:
329,192,114759,1,0,0:0:0:0:
256,192,114940,1,0,0:0:0:0:
329,192,114940,1,0,0:0:0:0:
402,192,114940,1,0,0:0:0:0:
329,192,115120,1,0,0:0:0:0:
475,192,115120,1,0,0:0:0:0:
36,192,115301,1,0,0:0:0:0:
329,192,115301,1,0,0:0:0:0:
329,192,115482,1,0,0:0:0:0:
182,192,115663,1,0,0:0:0:0:
182,192,115843,1,0,0:0:0:0:
182,192,116024,1,0,0:0:0:0:
329,192,116024,1,0,0:0:0:0:
36,192,116205,1,0,0:0:0:0:
182,192,116205,1,0,0:0:0:0:
182,192,116386,1,0,0:0:0:0:
329,192,116386,1,0,0:0:0:0:
402,192,116386,1,0,0:0:0:0:
182,192,116566,1,0,0:0:0:0:
329,192,116566,1,0,0:0:0:0:
402,192,116566,1,0,0:0:0:0:
182,192,116747,1,0,0:0:0:0:
475,192,116747,1,0,0:0:0:0:
109,192,116928,1,0,0:0:0:0:
182,192,116928,1,0,0:0:0:0:
402,192,116928,1,0,0:0:0:0:
36,192,117108,1,0,0:0:0:0:
256,192,117108,1,0,0:0:0:0:
329,192,117108,1,0,0:0:0:0:
329,192,117289,1,0,0:0:0:0:
329,192,117470,1,0,0:0:0:0:
36,192,117651,1,0,0:0:0:0:
329,192,117651,1,0,0:0:0:0:
109,192,117831,1,0,0:0:0:0:
182,192,117831,1,0,0:0:0:0:
329,192,117831,1,0,0:0:0:0:
329,192,118012,1,0,0:0:0:0:
475,192,118012,1,0,0:0:0:0:
36,192,118193,1,0,0:0:0:0:
329,192,118193,1,0,0:0:0:0:
329,192,118374,1,0,0:0:0:0:
182,192,118554,1,0,0:0:0:0:
182,192,118735,1,0,0:0:0:0:
182,192,118916,1,0,0:0:0:0:
329,192,118916,1,0,0:0:0:0:
182,192,119096,1,0,0:0:0:0:
182,192,119277,1,0,0:0:0:0:
402,192,119277,1,0,0:0:0:0:
475,192,119277,1,0,0:0:0:0:
182,192,119458,1,0,0:0:0:0:
182,192,119639,1,0,0:0:0:0:
182,192,119819,1,0,0:0:0:0:
36,192,120000,1,0,0:0:0:0:
329,192,120000,1,0,0:0:0:0:
329,192,120181,1,0,0:0:0:0:
329,192,120361,1,0,0:0:0:0:
36,192,120542,1,0,0:0:0:0:
329,192,120542,1,0,0:0:0:0:
109,192,120723,1,0,0:0:0:0:
182,192,120723,1,0,0:0:0:0:
329,192,120723,1,0,0:0:0:0:
329,192,120904,1,0,0:0:0:0:
475,192,120904,1,0,0:0:0:0:
36,192,121084,1,0,0:0:0:0:
329,192,121084,1,0,0:0:0:0:
36,192,121265,1,0,0:0:0:0:
329,192,121265,1,0,0:0:0:0:
182,192,121446,1,0,0:0:0:0:
402,192,121446,1,0,0:0:0:0:
182,192,121627,1,0,0:0:0:0:
182,192,121807,1,0,0:0:0:0:
36,192,121988,1,0,0:0:0:0:
182,192,121988,1,0,0:0:0:0:
182,192,122169,1,0,0:0:0:0:
329,192,122169,1,0,0:0:0:0:
402,192,122169,1,0,0:0:0:0:
182,192,122349,1,0,0:0:0:0:
402,192,122349,1,0,0:0:0:0:
182,192,122530,1,0,0:0:0:0:
402,192,122530,1,0,0:0:0:0:
182,192,122711,1,0,0:0:0:0:
36,192,122892,1,0,0:0:0:0:
329,192,122892,1,0,0:0:0:0:
329,192,123072,1,0,0:0:0:0:
329,192,123253,1,0,0:0:0:0:
36,192,123434,1,0,0:0:0:0:
329,192,123434,1,0,0:0:0:0:
109,192,123614,1,0,0:0:0:0:
182,192,123614,1,0,0:0:0:0:
329,192,123614,1,0,0:0:0:0:
329,192,123795,1,0,0:0:0:0:
475,192,123795,1,0,0:0:0:0:
36,192,123976,1,0,0:0:0:0:
329,192,123976,1,0,0:0:0:0:
329,192,124157,1,0,0:0:0:0:
182,192,124337,1,0,0:0:0:0:
182,192,124518,1,0,0:0:0:0:
182,192,124699,1,0,0:0:0:0:
329,192,124699,1,0,0:0:0:0:
182,192,124880,1,0,0:0:0:0:
182,192,125060,1,0,0:0:0:0:
402,192,125060,1,0,0:0:0:0:
475,192,125060,1,0,0:0:0:0:
182,192,125241,1,0,0:0:0:0:
182,192,125422,1,0,0:0:0:0:
182,192,125602,1,0,0:0:0:0:
36,192,125783,1,0,0:0:0:0:
329,192,125783,1,0,0:0:0:0:
329,192,125964,1,0,0:0:0:0:
329,192,126145,1,0,0:0:0:0:
36,192,126325,1,0,0:0:0:0:
329,192,126325,1,0,0:0:0:0:
109,192,126506,1,0,0:0:0:0:
182,192,126506,1,0,0:0:0:0:
329,192,126506,1,0,0:0:0:0:
329,192,126687,1,0,0:0:0:0:
475,192,126687,1,0,0:0:0:0:
109,192,126867,1,0,0:0:0:0:
329,192,126867,1,0,0:0:0:0:
109,192,127048,1,0,0:0:0:0:
329,192,127048,1,0,0:0:0:0:
182,192,127229,1,0,0:0:0:0:
402,192,127229,1,0,0:0:0:0:
182,192,127410,1,0,0:0:0:0:
329,192,127410,1,0,0:0:0:0:
182,192,127590,1,0,0:0:0:0:
402,192,127590,1,0,0:0:0:0:
36,192,127771,1,0,0:0:0:0:
182,192,127771,1,0,0:0:0:0:
402,192,127771,1,0,0:0:0:0:
182,192,127952,1,0,0:0:0:0:
256,192,127952,1,0,0:0:0:0:
329,192,127952,1,0,0:0:0:0:
402,192,127952,1,0,0:0:0:0:
182,192,128133,1,0,0:0:0:0:
402,192,128133,1,0,0:0:0:0:
475,192,128133,1,0,0:0:0:0:
36,192,128313,1,0,0:0:0:0:
109,192,128313,1,0,0:0:0:0:
256,192,128313,1,0,0:0:0:0:
402,192,128494,1,0,0:0:0:0:
475,192,128494,1,0,0:0:0:0:
36,192,128675,1,0,0:0:0:0:
329,192,128675,1,0,0:0:0:0:
329,192,128855,1,0,0:0:0:0:
329,192,129036,1,0,0:0:0:0:
36,192,129217,1,0,0:0:0:0:
329,192,129217,1,0,0:0:0:0:
109,192,129398,1,0,0:0:0:0:
182,192,129398,1,0,0:0:0:0:
329,192,129398,1,0,0:0:0:0:
329,192,129578,1,0,0:0:0:0:
475,192,129578,1,0,0:0:0:0:
109,192,129759,1,0,0:0:0:0:
329,192,129759,1,0,0:0:0:0:
36,192,129940,1,0,0:0:0:0:
329,192,129940,1,0,0:0:0:0:
182,192,130120,1,0,0:0:0:0:
256,192,130120,1,0,0:0:0:0:
182,192,130301,1,0,0:0:0:0:
475,192,130301,1,0,0:0:0:0:
36,192,130482,1,0,0:0:0:0:
182,192,130482,1,0,0:0:0:0:
256,192,130482,1,0,0:0:0:0:
182,192,130663,1,0,0:0:0:0:
182,192,130843,1,0,0:0:0:0:
329,192,130843,1,0,0:0:0:0:
402,192,130843,1,0,0:0:0:0:
182,192,131024,1,0,0:0:0:0:
182,192,131205,1,0,0:0:0:0:
182,192,131386,1,0,0:0:0:0:
36,192,131566,1,0,0:0:0:0:
329,192,131566,1,0,0:0:0:0:
329,192,131747,1,0,0:0:0:0:
329,192,131928,1,0,0:0:0:0:
36,192,132108,1,0,0:0:0:0:
329,192,132108,1,0,0:0:0:0:
109,192,132289,1,0,0:0:0:0:
182,192,132289,1,0,0:0:0:0:
329,192,132289,1,0,0:0:0:0:
329,192,132470,1,0,0:0:0:0:
475,192,132470,1,0,0:0:0:0:
109,192,132651,1,0,0:0:0:0:
329,192,132651,1,0,0:0:0:0:
36,192,132831,1,0,0:0:0:0:
329,192,132831,1,0,0:0:0:0:
109,0,133012,128,0,133554:0:0:0:0:
402,0,133012,128,0,133554:0:0:0:0:
256,192,133554,1,0,0:0:0:0:
109,192,133735,1,0,0:0:0:0:
402,192,133735,1,0,0:0:0:0:
36,192,134639,1,0,0:0:0:0:
329,192,134819,1,0,0:0:0:0:
402,192,134819,1,0,0:0:0:0:
182,192,135000,1,0,0:0:0:0:
329,192,135181,1,0,0:0:0:0:
402,192,135181,1,0,0:0:0:0:
402,192,135361,1,0,0:0:0:0:
36,192,135542,1,0,0:0:0:0:
109,192,135542,1,0,0:0:0:0:
402,192,135542,1,0,0:0:0:0:
475,192,135542,1,0,0:0:0:0:
402,192,135723,1,0,0:0:0:0:
402,192,135904,1,0,0:0:0:0:
475,192,135904,1,0,0:0:0:0:
402,192,136084,1,0,0:0:0:0:
36,192,136265,1,0,0:0:0:0:
109,192,136265,1,0,0:0:0:0:
402,192,136265,1,0,0:0:0:0:
329,192,136446,1,0,0:0:0:0:
402,192,136446,1,0,0:0:0:0:
329,192,136627,1,0,0:0:0:0:
402,192,136627,1,0,0:0:0:0:
256,192,136807,1,0,0:0:0:0:
402,192,136807,1,0,0:0:0:0:
402,192,136988,1,0,0:0:0:0:
475,192,136988,1,0,0:0:0:0:
402,192,137169,1,0,0:0:0:0:
36,192,137349,1,0,0:0:0:0:
109,192,137349,1,0,0:0:0:0:
402,192,137349,1,0,0:0:0:0:
475,192,137349,1,0,0:0:0:0:
402,192,137530,1,0,0:0:0:0:
256,192,137620,1,0,0:0:0:0:
402,192,137711,1,0,0:0:0:0:
475,192,137711,1,0,0:0:0:0:
256,192,137801,1,0,0:0:0:0:
36,192,137892,1,0,0:0:0:0:
402,192,137892,1,0,0:0:0:0:
475,192,137892,1,0,0:0:0:0:
109,192,138072,1,0,0:0:0:0:
182,192,138072,1,0,0:0:0:0:
402,192,138072,1,0,0:0:0:0:
402,192,138253,1,0,0:0:0:0:
475,192,138253,1,0,0:0:0:0:
36,192,138434,1,0,0:0:0:0:
109,192,138434,1,0,0:0:0:0:
402,192,138434,1,0,0:0:0:0:
475,192,138434,1,0,0:0:0:0:
402,192,138614,1,0,0:0:0:0:
109,192,138795,1,0,0:0:0:0:
182,192,138795,1,0,0:0:0:0:
402,192,138795,1,0,0:0:0:0:
475,192,138795,1,0,0:0:0:0:
109,192,138976,1,0,0:0:0:0:
182,192,138976,1,0,0:0:0:0:
402,192,138976,1,0,0:0:0:0:
36,192,139157,1,0,0:0:0:0:
402,192,139157,1,0,0:0:0:0:
182,192,139337,1,0,0:0:0:0:
402,192,139337,1,0,0:0:0:0:
109,192,139518,1,0,0:0:0:0:
182,192,139518,1,0,0:0:0:0:
402,192,139518,1,0,0:0:0:0:
329,192,139608,1,0,0:0:0:0:
182,192,139699,1,0,0:0:0:0:
402,192,139699,1,0,0:0:0:0:
109,192,139880,1,0,0:0:0:0:
402,192,139880,1,0,0:0:0:0:
402,192,140060,1,0,0:0:0:0:
109,192,140241,1,0,0:0:0:0:
402,192,140241,1,0,0:0:0:0:
402,192,140422,1,0,0:0:0:0:
256,192,140512,1,0,0:0:0:0:
329,192,140602,1,0,0:0:0:0:
402,192,140602,1,0,0:0:0:0:
36,192,140783,1,0,0:0:0:0:
182,192,140783,1,0,0:0:0:0:
402,192,140783,1,0,0:0:0:0:
109,192,140964,1,0,0:0:0:0:
402,192,140964,1,0,0:0:0:0:
329,192,141145,1,0,0:0:0:0:
402,192,141145,1,0,0:0:0:0:
36,192,141325,1,0,0:0:0:0:
109,192,141325,1,0,0:0:0:0:
182,192,141325,1,0,0:0:0:0:
402,192,141325,1,0,0:0:0:0:
402,192,141506,1,0,0:0:0:0:
109,192,141687,1,0,0:0:0:0:
329,192,141687,1,0,0:0:0:0:
402,192,141687,1,0,0:0:0:0:
182,192,141867,1,0,0:0:0:0:
402,192,141867,1,0,0:0:0:0:
36,192,142048,1,0,0:0:0:0:
109,192,142048,1,0,0:0:0:0:
256,192,142048,1,0,0:0:0:0:
402,192,142048,1,0,0:0:0:0:
256,192,142229,1,0,0:0:0:0:
329,192,142229,1,0,0:0:0:0:
402,192,142229,1,0,0:0:0:0:
182,192,142410,1,0,0:0:0:0:
256,192,142410,1,0,0:0:0:0:
402,192,142410,1,0,0:0:0:0:
256,192,142590,1,0,0:0:0:0:
402,192,142590,1,0,0:0:0:0:
256,192,142771,1,0,0:0:0:0:
329,192,142771,1,0,0:0:0:0:
402,192,142771,1,0,0:0:0:0:
182,192,142952,1,0,0:0:0:0:
402,192,142952,1,0,0:0:0:0:
36,192,143133,1,0,0:0:0:0:
109,192,143133,1,0,0:0:0:0:
256,192,143133,1,0,0:0:0:0:
402,192,143133,1,0,0:0:0:0:
329,192,143313,1,0,0:0:0:0:
402,192,143313,1,0,0:0:0:0:
182,192,143494,1,0,0:0:0:0:
256,192,143494,1,0,0:0:0:0:
402,192,143494,1,0,0:0:0:0:
475,0,143494,128,0,143855:0:0:0:0:
36,192,143675,1,0,0:0:0:0:
109,192,143675,1,0,0:0:0:0:
256,192,143675,1,0,0:0:0:0:
402,192,143675,1,0,0:0:0:0:
329,192,143855,1,0,0:0:0:0:
402,192,143855,1,0,0:0:0:0:
182,192,144036,1,0,0:0:0:0:
256,192,144036,1,0,0:0:0:0:
402,192,144036,1,0,0:0:0:0:
36,192,144217,1,0,0:0:0:0:
109,192,144217,1,0,0:0:0:0:
256,192,144217,1,0,0:0:0:0:
402,192,144217,1,0,0:0:0:0:
329,192,144398,1,0,0:0:0:0:
402,192,144398,1,0,0:0:0:0:
109,192,144578,1,0,0:0:0:0:
182,192,144578,1,0,0:0:0:0:
256,192,144578,1,0,0:0:0:0:
402,192,144578,1,0,0:0:0:0:
109,192,144759,1,0,0:0:0:0:
402,192,144759,1,0,0:0:0:0:
36,192,144940,1,0,0:0:0:0:
109,192,144940,1,0,0:0:0:0:
256,192,144940,1,0,0:0:0:0:
329,192,144940,1,0,0:0:0:0:
402,192,144940,1,0,0:0:0:0:
36,192,145120,1,0,0:0:0:0:
182,192,145120,1,0,0:0:0:0:
256,192,145120,1,0,0:0:0:0:
402,192,145120,1,0,0:0:0:0:
109,192,145301,1,0,0:0:0:0:
256,192,145301,1,0,0:0:0:0:
402,192,145301,1,0,0:0:0:0:
109,192,145482,1,0,0:0:0:0:
256,192,145482,1,0,0:0:0:0:
329,192,145482,1,0,0:0:0:0:
402,192,145482,1,0,0:0:0:0:
182,192,145663,1,0,0:0:0:0:
402,192,145663,1,0,0:0:0:0:
402,192,145843,1,0,0:0:0:0:
109,192,146024,1,0,0:0:0:0:
182,192,146024,1,0,0:0:0:0:
402,192,146205,1,0,0:0:0:0:
329,192,146386,1,0,0:0:0:0:
109,192,146566,1,0,0:0:0:0:
182,0,146566,128,0,146928:0:0:0:0:
329,192,146747,1,0,0:0:0:0:
402,192,146747,1,0,0:0:0:0:
475,192,146928,1,0,0:0:0:0:
256,192,147108,1,0,0:0:0:0:
402,192,147108,1,0,0:0:0:0:
402,192,147289,1,0,0:0:0:0:
256,192,147470,1,0,0:0:0:0:
402,192,147470,1,0,0:0:0:0:
109,192,147651,1,0,0:0:0:0:
182,192,147831,1,0,0:0:0:0:
36,192,148012,1,0,0:0:0:0:
256,192,148012,1,0,0:0:0:0:
36,192,148193,1,0,0:0:0:0:
256,192,148193,1,0,0:0:0:0:
329,192,148193,1,0,0:0:0:0:
36,192,148373,1,0,0:0:0:0:
256,192,148373,1,0,0:0:0:0:
109,192,148554,1,0,0:0:0:0:
402,192,148554,1,0,0:0:0:0:
182,192,148735,1,0,0:0:0:0:
109,192,148916,1,0,0:0:0:0:
402,192,148916,1,0,0:0:0:0:
475,192,149096,1,0,0:0:0:0:
329,192,149277,1,0,0:0:0:0:
402,192,149277,1,0,0:0:0:0:
109,192,149458,1,0,0:0:0:0:
182,0,149458,128,0,149639:0:0:0:0:
329,192,149639,1,0,0:0:0:0:
402,192,149639,1,0,0:0:0:0:
109,192,149819,1,0,0:0:0:0:
182,192,149819,1,0,0:0:0:0:
402,192,150000,1,0,0:0:0:0:
475,192,150000,1,0,0:0:0:0:
475,192,150181,1,0,0:0:0:0:
329,192,150361,1,0,0:0:0:0:
402,192,150361,1,0,0:0:0:0:
402,192,150542,1,0,0:0:0:0:
475,192,150542,1,0,0:0:0:0:
182,192,150723,1,0,0:0:0:0:
329,192,150904,1,0,0:0:0:0:
402,192,150904,1,0,0:0:0:0:
475,192,150904,1,0,0:0:0:0:
36,192,151084,1,0,0:0:0:0:
109,192,151084,1,0,0:0:0:0:
182,192,151084,1,0,0:0:0:0:
329,192,151175,1,0,0:0:0:0:
402,192,151265,1,0,0:0:0:0:
109,192,151446,1,0,0:0:0:0:
182,192,151446,1,0,0:0:0:0:
329,192,151627,1,0,0:0:0:0:
402,192,151627,1,0,0:0:0:0:
36,192,151807,1,0,0:0:0:0:
109,192,151807,1,0,0:0:0:0:
182,192,151807,1,0,0:0:0:0:
329,192,151988,1,0,0:0:0:0:
475,192,152169,1,0,0:0:0:0:
182,192,152349,1,0,0:0:0:0:
329,192,152530,1,0,0:0:0:0:
402,192,152530,1,0,0:0:0:0:
475,192,152711,1,0,0:0:0:0:
256,192,152892,1,0,0:0:0:0:
256,192,153253,1,0,0:0:0:0:
475,192,153253,1,0,0:0:0:0:
182,192,153434,1,0,0:0:0:0:
256,192,153614,1,0,0:0:0:0:
256,192,153795,1,0,0:0:0:0:
475,192,153795,1,0,0:0:0:0:
182,192,153976,1,0,0:0:0:0:
256,192,153976,1,0,0:0:0:0:
256,192,154157,1,0,0:0:0:0:
256,192,154337,1,0,0:0:0:0:
475,192,154337,1,0,0:0:0:0:
182,192,154518,1,0,0:0:0:0:
256,192,154699,1,0,0:0:0:0:
109,0,154699,128,0,155422:0:0:0:0:
475,192,154880,1,0,0:0:0:0:
182,192,155060,1,0,0:0:0:0:
256,192,155422,1,0,0:0:0:0:
329,192,155422,1,0,0:0:0:0:
402,192,155602,1,0,0:0:0:0:
109,192,155783,1,0,0:0:0:0:
402,192,155964,1,0,0:0:0:0:
109,192,156145,1,0,0:0:0:0:
182,192,156145,1,0,0:0:0:0:
329,192,156325,1,0,0:0:0:0:
402,192,156325,1,0,0:0:0:0:
109,192,156506,1,0,0:0:0:0:
182,192,156506,1,0,0:0:0:0:
329,192,156687,1,0,0:0:0:0:
36,192,156867,1,0,0:0:0:0:
109,192,156867,1,0,0:0:0:0:
182,192,156867,1,0,0:0:0:0:
329,192,157048,1,0,0:0:0:0:
402,192,157048,1,0,0:0:0:0:
475,192,157229,1,0,0:0:0:0:
329,192,157410,1,0,0:0:0:0:
36,192,157590,1,0,0:0:0:0:
109,192,157590,1,0,0:0:0:0:
475,192,157952,1,0,0:0:0:0:
182,192,158133,1,0,0:0:0:0:
