osu file format v14

[General]
AudioFilename: audio.mp3
AudioLeadIn: 0
PreviewTime: 245059
Countdown: 0
SampleSet: None
StackLeniency: 0.5
Mode: 0
LetterboxInBreaks: 0
WidescreenStoryboard: 1

[Editor]
Bookmarks: 35650,70559,105468,140377,175286,210195,245104,280013,314922
DistanceSpacing: 1.5
BeatDivisor: 4
GridSize: 4
TimelineZoom: 1.4

[Metadata]
Title:Dorma
TitleUnicode:Dorma
Artist:Corpo-Mente
ArtistUnicode:Corpo-Mente
Creator:Signum
Version:Eternal Sleep
Source:
Tags:gautier serre laure le prunenec benjamin violet improve tone studios blood music trip-hop baroque electronic igorrr ricinn rïcïnn avantgarde avant garde experimental opera dark marathon
BeatmapID:1058297
BeatmapSetID:497156

[Difficulty]
HPDrainRate:5
CircleSize:4.3
OverallDifficulty:5
ApproachRate:7
SliderMultiplier:1.1
SliderTickRate:2

[Events]
//Background and Video events
0,0,"background.jpg",0,0
//Break Periods
2,70758,78113
//Storyboard Layer 0 (Background)
//Storyboard Layer 1 (Fail)
//Storyboard Layer 2 (Pass)
//Storyboard Layer 3 (Foreground)
//Storyboard Sound Samples

[TimingPoints]
741,545.454545454546,4,2,1,10,1,0
741,-133.333333333333,4,2,1,10,0,0
18195,-133.333333333333,4,2,1,20,0,0
35650,-133.333333333333,4,2,1,30,0,0
53104,-133.333333333333,4,2,1,40,0,0
88013,-100,4,3,1,70,0,0
122922,-100,4,2,1,40,0,0
155650,-133.333333333333,4,2,1,10,0,0
157150,-133.333333333333,4,2,1,5,0,0
157831,-100,4,3,1,70,0,0
164377,-100,4,2,1,40,0,0
165195,-100,4,3,1,70,0,0
215513,-100,4,3,3,70,0,0
215786,-100,4,3,1,70,0,0
227650,-133.333333333333,4,2,1,25,0,0
245104,-100,4,3,1,70,0,0
251650,-100,4,2,1,40,0,0
253559,-100,4,3,1,70,0,0
253831,-100,4,3,1,70,0,0
270604,-100,4,2,1,5,0,0
270741,-100,4,3,1,70,0,0
271150,-100,4,2,1,5,0,0
271286,-100,4,3,1,70,0,0
273877,-100,4,2,1,5,0,0
274013,-100,4,3,1,70,0,0
275650,-100,4,3,2,70,0,1
277831,-100,4,3,2,80,0,1
280013,-100,4,3,1,70,0,0
302786,-100,4,2,1,5,0,0
302922,-100,4,3,1,70,0,0
303331,-100,4,2,1,5,0,0
303468,-100,4,3,1,70,0,0
303877,-100,4,2,1,5,0,0
304013,-100,4,3,1,70,0,0
307695,-100,4,2,1,5,0,0
307831,-100,4,3,1,70,0,0
309877,-100,4,2,1,5,0,0
310013,-100,4,3,1,70,0,0
312059,-100,4,2,1,5,0,0
312195,-100,4,3,1,70,0,0
312604,-100,4,2,1,5,0,0
312741,-100,4,3,1,70,0,0
314922,-100,4,2,1,30,0,0

[Colours]
Combo1 : 138,138,138
Combo2 : 196,179,179
Combo3 : 213,208,181
SliderBorder : 160,160,160
SliderTrackOverride : 80,80,80

[HitObjects]
286,136,741,5,2,0:0:0:0:
212,145,1013,1,0,0:0:0:0:
198,218,1286,1,0,0:0:0:0:
263,254,1559,1,0,0:0:0:0:
324,212,1831,2,0,P|344:216|364:218,1,41.2500015735627
401,139,2377,2,0,P|381:135|361:133,1,41.2500015735627
284,84,2922,6,0,L|228:91,1,41.2500015735627,2|0,0:0|0:0,0:0:0:0:
168,89,3468,2,0,L|127:83,1,41.2500015735627
68,129,4013,1,0,0:0:0:0:
100,196,4286,1,0,0:0:0:0:
64,261,4559,2,0,P|74:291|74:309,1,41.2500015735627
168,258,5104,6,0,L|270:254,1,82.5000031471254,2|0,0:0|0:0,0:0:0:0:
303,202,5922,1,0,0:0:0:0:
379,221,6195,2,0,P|380:188|375:168,1,41.2500015735627
450,117,6741,2,0,P|449:150|454:170,1,41.2500015735627
487,236,7286,6,0,P|492:275|480:320,1,82.5000031471254,2|0,0:0|0:0,0:0:0:0:
409,346,8104,1,0,0:0:0:0:
346,299,8377,2,0,L|296:292,1,41.2500015735627
252,240,8922,2,0,L|202:233,1,41.2500015735627
135,180,9468,6,0,P|110:188|46:180,2,82.5000031471254,2|0|0,0:0|0:0|0:0,0:0:0:0:
190,130,10831,1,0,0:0:0:0:
259,157,11104,2,0,L|311:164,1,41.2500015735627
361,98,11650,6,0,P|384:135|383:189,2,82.5000031471254,2|0|0,0:0|0:0|0:0,0:0:0:0:
287,84,13013,1,0,0:0:0:0:
212,104,13286,2,0,B|188:108|188:108|161:103,1,41.2500015735627
94,164,13831,6,0,L|81:215,1,41.2500015735627,2|0,0:0|0:0,0:0:0:0:
122,267,14377,2,0,P|163:259|211:271,1,82.5000031471254
270,237,15195,1,0,0:0:0:0:
312,297,15468,2,0,P|348:308|363:308,1,41.2500015735627
202,339,16013,6,0,P|166:328|151:328,1,41.2500015735627,2|0,0:0|0:0,0:0:0:0:
88,329,16559,2,0,L|65:246,1,82.5000031471254
110,189,17377,1,0,0:0:0:0:
178,217,17650,2,0,L|223:228,1,41.2500015735627
323,159,18195,5,2,0:0:0:0:
375,211,18468,1,0,0:0:0:0:
375,211,18741,2,0,P|395:174|395:161,1,41.2500015735627
370,105,19286,1,0,0:0:0:0:
300,78,19559,1,0,0:0:0:0:
300,78,19831,2,0,L|250:83,1,41.2500015735627
288,162,20377,6,0,L|338:167,1,41.2500015735627,2|0,0:0|0:0,0:0:0:0:
389,209,20922,2,0,B|407:253|398:299,2,82.5000031471254
435,150,22286,1,0,0:0:0:0:
361,70,22559,6,0,L|189:83,1,165.000006294251,2|0,0:0|0:0,0:0:0:0:
134,123,23922,1,0,0:0:0:0:
93,185,24195,2,0,P|66:189|41:189,1,41.2500015735627
134,123,24741,6,0,P|166:167|109:258,1,165.000006294251,2|0,0:0|0:0,0:0:0:0:
157,321,26104,1,0,0:0:0:0:
225,292,26377,2,0,P|264:297|283:294,1,41.2500015735627
353,225,26922,6,0,P|395:217|438:226,2,82.5000031471254,2|0|0,0:0|0:0|0:0,0:0:0:0:
286,183,28286,1,0,0:0:0:0:
219,216,28559,2,0,L|166:224,1,41.2500015735627
255,115,29104,6,0,L|308:107,1,41.2500015735627,2|0,0:0|0:0,0:0:0:0:
335,45,29650,2,0,P|358:67|369:122,1,82.5000031471254
425,164,30468,1,0,0:0:0:0:
425,164,30741,2,0,P|459:171|474:171,1,41.2500015735627
394,251,31286,6,0,L|225:234,1,165.000006294251,2|0,0:0|0:0,0:0:0:0:
157,253,32650,1,0,0:0:0:0:
104,200,32922,1,0,0:0:0:0:
126,129,33195,1,0,0:0:0:0:
220,156,33468,6,0,P|270:167|316:158,1,82.5000031471254,2|0,0:0|0:0,0:0:0:0:
364,116,34286,1,0,0:0:0:0:
429,159,34559,2,0,L|443:204,1,41.2500015735627
362,277,35104,2,0,L|349:237,1,41.2500015735627
219,256,35650,6,0,L|136:260,1,82.5000031471254,2|0,0:0|0:0,0:0:0:0:
76,210,36468,1,0,0:0:0:0:
112,140,36741,2,0,P|115:118|111:91,1,41.2500015735627
191,142,37286,2,0,P|188:164|192:191,1,41.2500015735627
286,166,37831,6,0,B|327:159|327:159|373:166,2,82.5000031471254,2|0|0,0:0|0:0|0:0,0:0:0:0:
226,219,39195,1,0,0:0:0:0:
155,253,39468,2,0,P|126:263|104:264,1,41.2500015735627
159,178,40013,6,0,P|201:192|232:232,1,82.5000031471254,2|0,0:0|0:0,0:0:0:0:
285,168,40831,1,0,0:0:0:0:
343,220,41104,2,0,L|383:231,1,41.2500015735627
366,310,41650,2,0,L|326:321,1,41.2500015735627
220,316,42195,6,0,L|138:323,2,82.5000031471254,2|0|0,0:0|0:0|0:0,0:0:0:0:
278,269,43559,1,0,0:0:0:0:
348,246,43831,1,0,0:0:0:0:
421,254,44104,1,0,0:0:0:0:
473,150,44377,6,0,P|448:156|389:136,1,82.5000031471254,2|0,0:0|0:0,0:0:0:0:
342,88,45195,1,0,0:0:0:0:
272,114,45468,2,0,L|261:167,2,41.2500015735627
215,65,46286,1,0,0:0:0:0:
134,118,46559,6,0,P|142:155|132:211,1,82.5000031471254,2|0,0:0|0:0,0:0:0:0:
98,262,47377,1,0,0:0:0:0:
153,311,47650,2,0,P|181:306|198:308,1,41.2500015735627
270,277,48195,2,0,P|275:305|273:322,1,41.2500015735627
334,224,48741,6,0,P|308:202|253:196,2,82.5000031471254,2|0|0,0:0|0:0|0:0,0:0:0:0:
390,272,50104,1,0,0:0:0:0:
451,229,50377,2,0,P|449:206|453:182,1,41.2500015735627
403,97,50922,6,0,B|315:64|317:130|236:95,1,165.000006294251,2|0,0:0|0:0,0:0:0:0:
170,67,52286,1,0,0:0:0:0:
107,112,52559,1,0,0:0:0:0:
87,183,52831,1,0,0:0:0:0:
185,265,53104,6,0,P|230:261|271:270,1,82.5000031471254,6|0,0:0|0:0,0:0:0:0:
331,303,53922,1,0,0:0:0:0:
394,264,54195,2,8,L|426:229,1,41.2500015735627,0|0,0:0|0:0,0:0:0:0:
384,160,54741,2,0,L|352:195,1,41.2500015735627
256,193,55286,6,0,P|218:183|175:192,2,82.5000031471254,6|0|0,0:0|0:0|0:0,0:0:0:0:
324,232,56650,1,0,0:0:0:0:
284,298,56922,2,0,B|279:322|279:322|285:350,1,41.2500015735627
402,297,57468,6,0,L|426:130,1,165.000006294251,6|0,0:0|0:0,0:0:0:0:
368,86,58831,1,0,0:0:0:0:
296,106,59104,1,0,0:0:0:0:
222,92,59377,1,0,0:0:0:0:
152,152,59650,6,0,P|159:189|63:272,1,165.000006294251,6|0,0:0|0:0,0:0:0:0:
74,187,61013,1,0,0:0:0:0:
27,121,61286,2,0,P|24:90|25:69,1,41.2500015735627
152,37,61831,6,0,L|239:45,1,82.5000031471254,6|0,0:0|0:0,0:0:0:0:
298,82,62650,1,0,0:0:0:0:
347,137,62922,2,0,P|375:137|396:131,2,41.2500015735627
286,180,63741,1,0,0:0:0:0:
229,258,64013,6,0,L|210:345,1,82.5000031471254,6|0,0:0|0:0,0:0:0:0:
131,344,64831,1,0,0:0:0:0:
131,344,65104,2,0,L|145:288,1,41.2500015735627
95,212,65650,2,0,L|81:268,1,41.2500015735627
70,139,66195,6,0,P|110:137|156:162,1,82.5000031471254,6|0,0:0|0:0,0:0:0:0:
207,199,67013,1,0,0:0:0:0:
263,247,67286,2,0,P|300:264|341:263,1,82.5000031471254
417,247,68104,1,0,0:0:0:0:
454,148,68377,6,0,P|469:128|367:153,1,330.000012588501,6|2,0:0|0:0,0:0:0:0:
256,192,79013,12,2,83377,0:0:0:0:
256,192,83650,12,2,86922,0:0:0:0:
116,136,87741,5,2,0:0:0:0:
141,106,88013,6,0,B|182:115|182:115|252:109,1,110,4|0,0:0|0:0,0:0:0:0:
315,59,88831,1,2,0:0:0:0:
315,59,89104,1,8,0:0:0:0:
428,224,89650,1,0,0:0:0:0:
366,278,89922,1,2,0:0:0:0:
258,255,90195,6,0,P|216:251|145:259,1,110,4|0,0:0|0:0,0:0:0:0:
72,289,91013,1,0,0:0:0:0:
23,221,91286,2,0,L|10:166,1,55,8|0,0:0|0:0,0:0:0:0:
73,114,91831,2,0,L|86:169,1,55,0|2,0:0|0:0,0:0:0:0:
169,224,92377,6,0,B|194:240|194:240|281:254,2,110,4|0|8,0:0|0:0|0:0,0:0:0:0:
208,151,93741,1,0,0:0:0:0:
288,135,94013,1,0,0:0:0:0:
356,240,94286,5,2,0:0:0:0:
356,240,94831,1,2,0:0:0:0:
316,312,95104,2,0,P|273:316|248:315,1,55,0|2,0:0|0:0,0:0:0:0:
180,296,95650,1,8,0:0:0:0:
120,240,95922,1,2,0:0:0:0:
101,163,96195,2,0,P|102:129|94:102,1,55,0|2,0:0|0:0,0:0:0:0:
187,68,96741,6,0,P|225:80|299:77,1,110,4|0,0:0|0:0,0:0:0:0:
369,111,97559,1,2,0:0:0:0:
426,169,97831,2,0,P|419:202|439:285,1,110,8|0,0:0|0:0,0:0:0:0:
381,339,98650,1,2,0:0:0:0:
280,288,98922,6,0,B|240:299|184:280|184:280|187:298|187:298|133:272|73:282,1,220,4|8,0:0|0:0,0:0:0:0:
33,215,100286,1,2,0:0:0:0:
66,139,100559,2,0,L|126:155,1,55,0|2,0:0|0:0,0:0:0:0:
243,146,101104,6,0,P|312:77|388:159,1,220,4|8,0:0|0:0,0:0:0:0:
388,144,102741,2,0,B|412:152|412:152|447:155,1,55,0|2,0:0|0:0,0:0:0:0:
351,244,103286,6,0,P|339:271|337:298,1,55,0|2,0:0|0:0,0:0:0:0:
264,335,103831,2,0,P|237:323|210:321,1,55,0|2,0:0|0:0,0:0:0:0:
141,277,104377,2,0,P|138:249|126:224,1,55,8|2,0:0|0:0,0:0:0:0:
76,159,104922,1,0,0:0:0:0:
137,103,105195,1,2,0:0:0:0:
137,103,105468,6,0,P|180:106|193:105,1,55,4|0,0:0|0:0,0:0:0:0:
262,62,106013,2,0,P|305:59|318:60,1,55,0|2,0:0|0:0,0:0:0:0:
367,125,106559,1,8,0:0:0:0:
367,125,107104,1,0,0:0:0:0:
447,108,107377,1,2,0:0:0:0:
478,211,107650,6,0,P|474:265|493:319,2,110,4|0|8,0:0|0:0|0:0,0:0:0:0:
428,145,109013,1,2,0:0:0:0:
352,172,109286,2,0,P|314:161|295:153,1,55,0|2,0:0|0:0,0:0:0:0:
201,204,109831,6,0,P|193:290|314:320,1,220,4|8,0:0|0:0,0:0:0:0:
265,253,111195,1,0,0:0:0:0:
346,238,111468,1,0,0:0:0:0:
480,192,111741,5,2,0:0:0:0:
480,192,112286,1,2,0:0:0:0:
424,128,112559,2,0,P|420:90|410:67,1,55,0|2,0:0|0:0,0:0:0:0:
340,112,113104,1,8,0:0:0:0:
264,84,113377,1,2,0:0:0:0:
180,92,113650,2,0,P|153:99|129:112,1,55,0|2,0:0|0:0,0:0:0:0:
193,204,114195,6,0,P|229:219|254:301,1,110,4|0,0:0|0:0,0:0:0:0:
322,331,115013,1,2,0:0:0:0:
396,295,115286,2,0,P|399:255|405:233,1,55,8|0,0:0|0:0,0:0:0:0:
344,182,115831,2,0,P|317:176|289:175,1,55,0|2,0:0|0:0,0:0:0:0:
192,217,116377,6,0,L|72:214,2,110,4|0|8,0:0|0:0|0:0,0:0:0:0:
253,272,117741,1,2,0:0:0:0:
331,246,118013,2,0,L|395:249,1,55,0|2,0:0|0:0,0:0:0:0:
458,165,118559,6,0,P|449:116|452:96,1,55,4|0,0:0|0:0,0:0:0:0:
368,93,119104,2,0,P|319:102|299:99,1,55,0|2,0:0|0:0,0:0:0:0:
250,49,119650,2,0,P|236:84|257:162,1,110,8|0,0:0|0:0,0:0:0:0:
326,251,120468,5,2,0:0:0:0:
326,251,121013,1,2,0:0:0:0:
253,291,121286,2,0,L|199:287,1,55,0|2,0:0|0:0,0:0:0:0:
160,213,121831,2,0,L|214:217,1,55,8|0,0:0|0:0,0:0:0:0:
288,178,122377,1,0,0:0:0:0:
368,167,122650,1,2,0:0:0:0:
461,223,122922,6,0,P|457:281|465:334,1,110,6|0,0:0|0:0,0:0:0:0:
199,337,124559,2,0,P|165:333|143:334,1,55
58,260,125104,6,0,B|44:217|64:178|64:178|43:138|47:100|88:51|146:55|197:105|169:158,1,330,2|0,0:0|0:0,0:0:0:0:
366,328,127286,6,0,L|386:266,1,55,2|0,0:0|0:0,0:0:0:0:
307,243,127831,2,0,L|327:181,1,55
396,151,128377,2,0,P|430:161|464:158,1,55
495,68,128922,2,0,P|469:59|441:58,1,55
449,160,129468,6,0,B|462:197|447:221|447:221|484:258|459:318,1,165,2|0,0:0|0:0,0:0:0:0:
380,338,130559,2,0,P|345:342|321:340,1,55
340,213,131104,2,0,P|344:248|342:272,1,55
259,202,131650,6,8,P|302:138|419:191,1,220,2|0,0:0|0:0,0:0:0:0:
486,138,133013,1,0,0:0:0:0:
423,83,133286,2,0,P|390:64|363:61,1,55
244,116,133831,6,0,B|186:143|151:92|151:92|163:135|137:192|63:202|26:173|8:127|6:88|40:53,1,385,2|0,0:0|0:0,0:0:0:0:
86,105,136013,6,0,P|96:141|84:214,1,110,2|0,0:0|0:0,0:0:0:0:
130,280,136831,1,0,0:0:0:0:
201,244,137104,2,0,P|240:238|259:240,1,55
323,158,137650,2,0,P|284:164|265:162,1,55
352,78,138195,5,2,0:0:0:0:
402,143,138468,1,0,0:0:0:0:
379,222,138741,2,0,P|370:259|377:296,1,55
312,333,139286,2,0,P|275:342|238:335,1,55
196,286,139831,2,0,L|131:291,1,55
79,197,140377,6,0,P|121:161|39:37,1,220,2|0,0:0|0:0,0:0:0:0:
47,121,141741,1,0,0:0:0:0:
79,197,142013,2,0,P|84:231|78:256,1,55
208,304,142559,6,0,B|268:332|299:272|299:272|320:331|405:300,1,220,2|0,0:0|0:0,0:0:0:0:
456,246,143922,1,0,0:0:0:0:
404,181,144195,2,0,P|367:188|344:188,1,55
299,86,144741,6,0,P|240:100|236:235,1,220,2|0,0:0|0:0,0:0:0:0:
285,302,146104,1,0,0:0:0:0:
213,343,146377,1,0,0:0:0:0:
133,320,146650,1,0,0:0:0:0:
51,229,146922,6,0,B|43:199|43:199|51:112,2,110,2|0|0,0:0|0:0|0:0,0:0:0:0:
126,194,148286,1,0,0:0:0:0:
126,194,148559,2,0,L|193:203,1,55
262,136,149104,6,0,B|365:194|365:91|477:159,1,220,2|0,0:0|0:0,0:0:0:0:
406,232,150468,1,0,0:0:0:0:
331,267,150741,2,0,P|290:272|274:268,1,55
406,232,151286,6,0,P|412:269|363:344,2,110,2|0|0,0:0|0:0|0:0,0:0:0:0:
406,232,152922,2,0,P|365:234|347:231,1,55
314,306,153468,6,0,B|255:272|253:211|281:161|340:151|340:151|341:82|420:66,1,330,2|0,0:0|0:0,0:0:0:0:
416,142,155650,6,0,P|459:214|341:229,1,247.500009441376,2|2,0:0|0:0,0:0:0:0:
341,229,157831,6,0,L|213:237,1,110,4|0,0:0|0:0,0:0:0:0:
164,186,158650,1,2,0:0:0:0:
85,209,158922,2,0,P|50:218|28:219,1,55,8|0,0:0|0:0,0:0:0:0:
46,138,159468,2,0,P|81:129|103:128,1,55,0|2,0:0|0:0,0:0:0:0:
201,145,160013,6,0,P|234:161|316:141,1,110,4|0,0:0|0:0,0:0:0:0:
376,109,160831,1,2,0:0:0:0:
444,154,161104,2,0,P|439:213|454:280,1,110,8|0,0:0|0:0,0:0:0:0:
402,331,161922,1,2,0:0:0:0:
307,290,162195,6,0,B|275:285|275:285|192:296,2,110,4|0|8,0:0|0:0|0:0,0:0:0:0:
381,251,163559,1,0,0:0:0:0:
316,200,163831,2,0,P|312:168|325:131,1,55,0|2,0:0|0:0,0:0:0:0:
245,76,164377,6,0,L|123:86,1,110,6|0,0:0|0:0,0:0:0:0:
84,150,165195,1,2,0:0:0:0:
133,215,165468,2,0,P|138:246|134:280,1,55,8|0,0:0|0:0,0:0:0:0:
215,225,166013,2,0,P|210:194|214:160,1,55,0|2,0:0|0:0,0:0:0:0:
306,190,166559,6,0,B|362:213|370:166|426:193,2,110,4|0|8,0:0|0:0|0:0,0:0:0:0:
235,131,167922,1,0,0:0:0:0:
158,163,168195,2,0,L|93:168,1,55,0|2,0:0|0:0,0:0:0:0:
235,131,168741,6,0,P|240:171|194:237,1,110,4|0,0:0|0:0,0:0:0:0:
155,294,169559,1,2,0:0:0:0:
223,340,169831,1,8,0:0:0:0:
292,295,170104,1,2,0:0:0:0:
292,295,170650,1,2,0:0:0:0:
223,205,170922,6,0,L|223:91,1,110,4|0,0:0|0:0,0:0:0:0:
280,35,171741,1,2,0:0:0:0:
359,57,172013,2,0,P|394:65|419:64,1,55,8|0,0:0|0:0,0:0:0:0:
470,124,172559,2,0,P|462:159|463:184,1,55,0|2,0:0|0:0,0:0:0:0:
355,258,173104,6,0,P|315:247|233:262,1,110,4|0,0:0|0:0,0:0:0:0:
190,195,173922,1,2,0:0:0:0:
252,140,174195,2,0,P|290:151|312:148,1,55,8|0,0:0|0:0,0:0:0:0:
378,112,174741,2,0,P|389:150|386:172,1,55,0|2,0:0|0:0,0:0:0:0:
423,297,175286,6,0,L|370:280,1,55,4|0,0:0|0:0,0:0:0:0:
290,326,175831,1,0,0:0:0:0:
263,247,176104,1,2,0:0:0:0:
310,179,176377,2,0,B|316:151|316:151|310:118,1,55,8|0,0:0|0:0,0:0:0:0:
386,84,176922,2,0,B|380:112|380:112|386:145,1,55,0|2,0:0|0:0,0:0:0:0:
452,207,177468,6,4,P|461:246|447:329,1,110,4|0,0:0|0:0,0:0:0:0:
380,354,178286,1,2,0:0:0:0:
304,321,178559,2,0,P|271:320|244:323,1,55,8|0,0:0|0:0,0:0:0:0:
331,235,179104,2,0,P|364:234|391:237,1,55,0|2,0:0|0:0,0:0:0:0:
294,160,179650,6,0,P|266:183|254:263,1,110,4|0,0:0|0:0,0:0:0:0:
192,310,180468,1,2,0:0:0:0:
133,251,180741,2,0,P|127:197|89:158,1,110,8|0,0:0|0:0,0:0:0:0:
49,86,181559,1,2,0:0:0:0:
156,42,181831,6,0,P|194:56|324:38,1,165,4|2,0:0|0:0,0:0:0:0:
394,67,182922,2,0,P|387:102|390:124,1,55,8|0,0:0|0:0,0:0:0:0:
482,167,183468,2,0,P|489:132|486:110,1,55,0|2,0:0|0:0,0:0:0:0:
394,67,184013,6,0,B|355:72|322:56|322:56|325:76|314:96,1,110,4|0,0:0|0:0,0:0:0:0:
259,150,184831,1,2,0:0:0:0:
195,98,185104,2,0,P|191:69|176:37,1,55,8|0,0:0|0:0,0:0:0:0:
111,94,185650,2,0,P|93:70|64:50,1,55,0|2,0:0|0:0,0:0:0:0:
73,166,186195,6,0,P|127:174|178:136,1,110,4|0,0:0|0:0,0:0:0:0:
225,82,187013,1,2,0:0:0:0:
265,154,187286,2,0,L|325:165,1,55,8|0,0:0|0:0,0:0:0:0:
392,115,187831,1,0,0:0:0:0:
450,173,188104,1,2,0:0:0:0:
389,262,188377,6,0,L|282:241,1,110,4|0,0:0|0:0,0:0:0:0:
201,264,189195,1,2,0:0:0:0:
120,244,189468,2,0,P|114:208|101:187,1,55,8|0,0:0|0:0,0:0:0:0:
169,133,190013,2,0,P|175:169|188:190,1,55,0|2,0:0|0:0,0:0:0:0:
261,132,190559,6,0,P|294:144|407:69,1,165,4|2,0:0|0:0,0:0:0:0:
476,50,191650,2,0,L|488:223,1,165,0|2,0:0|0:0,0:0:0:0:
389,285,192741,6,0,B|306:322|306:247|218:277,1,165,4|2,0:0|0:0,0:0:0:0:
165,323,193831,2,0,P|145:279|145:266,1,55,8|0,0:0|0:0,0:0:0:0:
236,176,194377,2,0,P|192:196|179:196,1,55,0|2,0:0|0:0,0:0:0:0:
184,96,194922,6,0,P|236:79|320:144,1,165,4|2,0:0|0:0,0:0:0:0:
356,216,196013,1,8,0:0:0:0:
390,290,196286,1,0,0:0:0:0:
472,290,196559,1,0,0:0:0:0:
504,214,196831,1,2,0:0:0:0:
414,147,197104,6,0,P|345:164|254:124,1,165,4|2,0:0|0:0,0:0:0:0:
201,71,198195,2,0,P|132:54|41:94,1,165,8|2,0:0|0:0,0:0:0:0:
93,178,199286,6,0,P|103:224|90:293,1,110,4|0,0:0|0:0,0:0:0:0:
154,340,200104,1,2,0:0:0:0:
221,292,200377,2,0,L|242:235,1,55,8|0,0:0|0:0,0:0:0:0:
322,240,200922,2,0,L|369:201,1,55,0|2,0:0|0:0,0:0:0:0:
433,141,201468,6,0,B|471:183|451:244|451:244|470:306,1,165,4|2,0:0|0:0,0:0:0:0:
396,340,202559,2,0,P|355:348|283:327,1,110,8|0,0:0|0:0,0:0:0:0:
227,277,203377,1,2,0:0:0:0:
127,213,203650,6,0,P|74:196|20:204,2,110,4|0|8,0:0|0:0|0:0,0:0:0:0:
203,181,205013,1,0,0:0:0:0:
278,214,205286,2,0,P|315:203|341:203,1,55,0|2,0:0|0:0,0:0:0:0:
445,241,205831,6,0,P|451:285|313:331,1,220,4|8,0:0|0:0,0:0:0:0:
236,355,207195,1,0,0:0:0:0:
168,308,207468,2,0,P|158:271|142:250,1,55,0|2,0:0|0:0,0:0:0:0:
118,139,208013,6,0,P|176:133|234:44,1,165,4|2,0:0|0:0,0:0:0:0:
316,50,209104,2,0,P|345:63|374:64,1,55,8|2,0:0|0:0,0:0:0:0:
426,123,209650,2,0,P|413:152|412:181,1,55,8|2,0:0|0:0,0:0:0:0:
496,220,210195,6,0,P|452:262|318:198,1,220,4|8,0:0|0:0,0:0:0:0:
263,150,211559,1,0,0:0:0:0:
184,125,211831,2,0,P|156:120|129:123,1,55,0|2,0:0|0:0,0:0:0:0:
153,235,212377,6,0,B|237:251|263:173|263:173|299:195|349:174,1,220,4|8,0:0|0:0,0:0:0:0:
409,133,213741,1,0,0:0:0:0:
409,133,214013,2,0,P|422:172|423:188,1,55,0|2,0:0|0:0,0:0:0:0:
320,260,214559,6,0,B|298:241|298:241|243:242|161:172|196:100|316:100|348:172|275:241|211:241|211:241|188:260,1,385,4|2,0:0|0:0,0:0:0:0:
180,101,216741,6,0,P|256:68|338:108,1,165,4|2,0:0|0:0,0:0:0:0:
382,165,217831,1,8,0:0:0:0:
382,165,218377,2,0,P|419:174|442:173,1,55,0|2,0:0|0:0,0:0:0:0:
333,109,218922,6,0,P|308:151|332:220,2,110,4|0|8,0:0|0:0|0:0,0:0:0:0:
275,48,220286,1,0,0:0:0:0:
197,75,220559,2,0,B|168:80|168:80|138:79,1,55,0|2,0:0|0:0,0:0:0:0:
248,133,221104,6,0,B|277:128|277:128|307:129,1,55,4|0,0:0|0:0,0:0:0:0:
372,173,221650,2,0,B|400:220|403:286,2,110,0|8|0,0:0|0:0|0:0,0:0:0:0:
407,98,223013,1,2,0:0:0:0:
310,57,223286,6,0,P|268:71|202:58,1,110,4|0,0:0|0:0,0:0:0:0:
125,81,224104,1,2,0:0:0:0:
75,147,224377,2,0,P|89:189|76:255,1,110,8|0,0:0|0:0,0:0:0:0:
127,318,225195,1,2,0:0:0:0:
237,301,225468,6,0,P|310:322|397:294,1,165,4|2,0:0|0:0,0:0:0:0:
451,238,226559,2,0,P|435:182|446:124,1,110,2|8,0:0|0:0,0:0:0:0:
432,49,227377,1,2,0:0:0:0:
306,85,227650,6,0,B|240:124|201:78|201:78|173:43|113:25|70:54|47:114|73:146,1,330.000012588501,2|2,0:0|0:0,0:0:0:0:
119,205,230104,1,0,0:0:0:0:
97,280,230377,2,0,P|93:307|100:336,1,41.2500015735627
183,287,230922,2,0,P|187:260|180:231,1,41.2500015735627
171,168,231468,1,0,0:0:0:0:
248,151,231741,1,0,0:0:0:0:
248,151,232013,6,0,B|247:239|314:253|350:261|350:261|410:274|409:334|348:389|293:332|294:276|350:261|350:261|395:250|463:235|464:139,1,577.500022029878,2|0,0:0|0:0,0:0:0:0:
248,151,236377,6,0,B|216:229|144:233|144:233|40:229|12:177|28:121|88:97|144:117|156:169|144:233|144:233|104:279|120:339,1,577.500022029878,2|0,0:0|0:0,0:0:0:0:
256,192,240741,12,0,244559,0:0:0:0:
312,192,245104,6,0,L|384:200,1,55,4|0,0:0|0:0,0:0:0:0:
279,260,245650,2,0,P|247:236|243:162,1,110,0|8,0:0|0:0,0:0:0:0:
188,109,246468,1,0,0:0:0:0:
118,153,246741,2,0,P|85:159|62:159,1,55,0|2,0:0|0:0,0:0:0:0:
188,109,247286,6,0,P|200:148|164:224,1,110,4|0,0:0|0:0,0:0:0:0:
238,270,248104,1,2,0:0:0:0:
313,235,248377,2,0,L|375:247,1,55,8|0,0:0|0:0,0:0:0:0:
352,164,248922,2,0,L|290:152,1,55,0|2,0:0|0:0,0:0:0:0:
400,98,249468,6,0,P|426:129|419:209,2,110,4|0|8,0:0|0:0|0:0,0:0:0:0:
326,59,250831,1,0,0:0:0:0:
248,85,251104,2,0,P|220:86|193:82,1,55
123,126,251650,5,0,0:0:0:0:
64,184,251922,1,0,0:0:0:0:
122,242,252195,1,0,0:0:0:0:
180,183,252468,1,0,0:0:0:0:
238,241,252741,5,0,0:0:0:0:
296,299,253014,1,0,0:0:0:0:
378,299,253286,1,0,0:0:0:0:
436,240,253559,1,2,0:0:0:0:
436,240,253831,6,0,P|451:193|431:128,1,110,4|0,0:0|0:0,0:0:0:0:
367,88,254650,1,2,0:0:0:0:
287,107,254922,2,0,P|255:104|167:111,1,110,8|0,0:0|0:0,0:0:0:0:
101,141,255741,1,2,0:0:0:0:
144,241,256013,6,0,B|120:297|164:298|138:353,2,110,4|0|8,0:0|0:0|0:0,0:0:0:0:
219,206,257377,1,0,0:0:0:0:
290,247,257650,2,0,L|349:257,1,55,0|2,0:0|0:0,0:0:0:0:
440,229,258195,6,0,P|448:260|412:336,2,110,4|0|8,0:0|0:0|0:0,0:0:0:0:
414,150,259559,1,0,0:0:0:0:
355,92,259831,1,0,0:0:0:0:
250,132,260104,1,2,0:0:0:0:
205,201,260377,6,0,P|153:213|99:116,1,165,0|2,0:2|0:0,0:0:0:0:
109,94,261331,1,0,0:0:0:0:
109,94,261468,2,0,P|152:100|218:78,1,110,8|0,0:0|0:0,0:0:0:0:
317,132,262286,1,2,0:0:0:0:
317,132,262559,6,0,L|299:244,1,110,4|0,0:0|0:0,0:0:0:0:
235,292,263377,1,2,0:0:0:0:
199,313,263513,1,0,0:0:0:0:
162,332,263650,2,0,L|51:320,1,110,8|0,0:0|0:0,0:0:0:0:
22,195,264468,1,2,0:0:0:0:
22,195,264741,6,0,P|62:213|142:202,1,110,4|0,0:0|0:0,0:0:0:0:
225,150,265559,1,2,0:0:0:0:
262,168,265695,1,0,0:0:0:0:
298,187,265831,2,0,P|329:195|354:192,1,55,8|0,0:0|0:0,0:0:0:0:
422,236,266377,2,0,P|414:267|417:292,1,55,0|2,0:0|0:0,0:0:0:0:
291,340,266922,6,0,L|224:324,1,55,4|0,0:0|0:0,0:0:0:0:
197,314,267331,1,0,0:0:0:0:
156,322,267468,2,0,P|133:330|92:324,1,55,0|2,0:0|0:0,0:0:0:0:
35,244,268013,1,8,0:0:0:0:
35,244,268150,1,0,0:0:0:0:
35,244,268286,2,0,P|41:199|29:111,1,110,0|2,0:0|0:0,0:0:0:0:
122,70,269104,6,0,B|161:90|201:68|201:68|214:107|274:115,1,165,4|2,0:0|0:0,0:0:0:0:
327,59,270195,2,0,P|348:103|339:156,1,82.5,8|0,0:0|0:0,0:0:0:0:
363,173,270741,2,0,L|450:196,1,82.5
464,228,271286,6,0,P|456:287|474:341,2,110,4|0|8,0:0|0:0|0:0,0:0:0:0:
408,166,272650,1,0,0:0:0:0:
332,133,272922,2,0,L|273:142,1,55,0|2,0:0|0:0,0:0:0:0:
368,59,273468,6,0,P|397:88|410:130,1,82.5,4|0,0:0|0:0,0:0:0:0:
408,166,274013,2,0,P|437:178|480:171,2,55,0|0|8,0:0|0:0|0:0,0:0:0:0:
342,216,274831,1,0,0:0:0:0:
283,157,275104,1,0,0:0:0:0:
341,98,275377,1,2,0:0:0:0:
240,87,275650,6,2,B|169:98|123:41|123:41|115:73|88:89,1,192.5,4|0,0:3|0:0,0:0:0:0:
67,123,276741,2,2,P|89:176|60:280,1,165,8|0,0:0|0:0,0:0:0:0:
193,326,277831,6,2,P|241:317|394:329,1,192.5,4|0,0:0|0:0,0:0:0:0:
414,298,278922,2,2,B|403:224|403:224|420:125,1,165,8|2,0:0|0:0,0:0:0:0:
336,62,280013,5,4,0:0:0:0:
257,35,280286,1,0,0:0:0:0:
194,88,280559,1,0,0:0:0:0:
273,115,280832,1,2,0:0:0:0:
326,177,281104,2,0,P|319:218|344:299,1,110,8|0,0:0|0:0,0:0:0:0:
273,338,281922,1,2,0:0:0:0:
180,288,282195,6,0,L|124:273,1,55,4|0,0:0|0:0,0:0:0:0:
121,191,282741,2,0,L|177:206,1,55,0|2,0:0|0:0,0:0:0:0:
250,174,283286,2,0,P|263:120|239:63,1,110,8|0,0:0|0:0,0:0:0:0:
310,20,284104,1,2,0:0:0:0:
396,58,284377,6,0,P|431:71|456:70,1,55,4|0,0:0|0:0,0:0:0:0:
396,135,284922,2,0,P|383:170|384:195,1,55,0|2,0:0|0:0,0:0:0:0:
465,182,285468,2,0,P|455:228|408:267,1,110,8|0,0:0|0:0,0:0:0:0:
327,248,286286,1,2,0:0:0:0:
236,207,286559,6,0,B|200:200|200:200|123:211,2,110,4|0|8,0:0|0:0|0:0,0:0:0:0:
303,159,287922,1,0,0:0:0:0:
377,194,288195,1,0,0:0:0:0:
400,273,288468,1,2,0:0:0:0:
291,306,288741,6,0,P|249:297|228:297,1,55,4|0,0:0|0:0,0:0:0:0:
154,296,289286,2,0,P|112:305|91:305,1,55,0|2,0:0|0:0,0:0:0:0:
118,224,289831,2,0,P|149:201|229:211,1,110,8|0,0:0|0:0,0:0:0:0:
295,233,290650,1,2,0:0:0:0:
349,141,290922,6,0,L|366:83,1,55,4|0,0:0|0:0,0:0:0:0:
424,150,291468,2,0,L|407:208,1,55,0|2,0:0|0:0,0:0:0:0:
376,278,292013,2,0,B|342:269|342:269|268:281,1,110,8|0,0:0|0:0,0:0:0:0:
187,299,292831,1,2,0:0:0:0:
115,220,293104,5,4,0:0:0:0:
115,86,293377,1,0,0:0:0:0:
194,194,293650,1,0,0:0:0:0:
67,153,293922,1,2,0:0:0:0:
194,112,294195,2,0,P|246:129|274:186,1,110,8|0,0:0|0:0,0:0:0:0:
331,233,295013,1,2,0:0:0:0:
389,174,295286,6,0,P|416:127|467:111,2,110,4|0|2,0:0|0:0|0:0,0:0:0:0:
406,255,296650,1,0,0:0:0:0:
342,337,296922,1,8,0:0:0:0:
268,263,297195,1,2,0:0:0:0:
157,289,297468,6,0,L|93:286,1,55,4|0,0:0|0:0,0:0:0:0:
151,215,298013,2,0,L|215:218,1,55,0|2,0:0|0:0,0:0:0:0:
268,263,298559,2,0,P|279:210|259:155,1,110,8|0,0:0|0:0,0:0:0:0:
335,121,299377,1,2,0:0:0:0:
281,32,299650,6,0,L|221:37,1,55,4|0,0:0|0:0,0:0:0:0:
159,88,300195,2,0,P|164:122|159:148,1,55,0|2,0:0|0:0,0:0:0:0:
80,121,300741,2,0,P|46:126|20:121,1,55,8|0,0:0|0:0,0:0:0:0:
159,88,301286,2,0,P|193:83|219:88,1,55,0|2,0:0|0:0,0:0:0:0:
302,153,301831,6,0,L|316:215,1,55,4|0,0:0|0:0,0:0:0:0:
393,228,302377,2,0,P|374:264|340:285,1,82.5
298,285,302922,2,0,B|259:271|259:271|207:291,1,82.5,8|0,0:0|0:0,0:0:0:0:
179,285,303468,2,0,P|144:264|126:227,1,82.5
126,186,304013,6,0,P|132:152|102:72,2,110,4|0|8,0:0|0:0|0:0,0:0:0:0:
200,221,305377,1,0,0:0:0:0:
200,221,305650,2,0,P|242:233|266:231,1,55,0|2,0:0|0:0,0:0:0:0:
354,184,306195,6,0,L|365:124,2,55,4|0|0,0:0|0:0|0:0,0:0:0:0:
390,257,307013,1,2,0:0:0:0:
328,312,307286,2,0,P|289:324|241:323,1,82.5,8|0,0:0|0:0,0:0:0:0:
209,309,307831,2,0,L|188:238,1,55,0|2,0:0|0:0,0:0:0:0:
119,175,308377,6,0,P|86:179|59:177,2,55,4|0|0,0:0|0:0|0:0,0:0:0:0:
182,121,309195,1,2,0:0:0:0:
260,146,309468,2,0,L|348:149,1,82.5,8|0,0:0|0:0,0:0:0:0:
378,168,310013,2,0,P|374:200|385:233,1,55,0|2,0:0|0:0,0:0:0:0:
296,291,310559,5,4,0:0:0:0:
211,342,310831,1,0,0:0:0:0:
125,291,311104,1,0,0:0:0:0:
125,191,311377,1,2,0:0:0:0:
208,136,311650,2,0,P|249:147|299:137,1,82.5,8|0,0:0|0:0,0:0:0:0:
326,126,312195,2,0,P|367:115|417:125,1,82.5,0|0,0:0|0:0,0:0:0:0:
441,141,312741,6,0,L|432:258,2,110,4|0|8,0:0|0:0|0:0,0:0:0:0:
392,74,314104,1,0,0:0:0:0:
313,99,314377,2,0,P|285:100|254:95,1,55,0|2,0:0|0:0,0:0:0:0:
256,192,314922,12,2,317104,0:0:0:0:
