osu file format v14

[General]
AudioFilename: audio.mp3
AudioLeadIn: 0
PreviewTime: 259677
Countdown: 0
SampleSet: Normal
StackLeniency: 0.7
Mode: 1
LetterboxInBreaks: 0
WidescreenStoryboard: 0

[Editor]
DistanceSpacing: 0.5
BeatDivisor: 4
GridSize: 32
TimelineZoom: 1.7

[Metadata]
Title:Arsalein / Pavor Nocturnus [2015] / Equus
TitleUnicode:Arsalein / Pavor Nocturnus [2015] / Equus
Artist:Corpo-Mente & Igorrr
ArtistUnicode:Corpo-Mente & Igorrr
Creator:3san
Version:Nightmare
Source:
Tags:electronic breakcore french instrumental baroquecore nostril red snakes
BeatmapID:2291346
BeatmapSetID:1096486

[Difficulty]
HPDrainRate:5
CircleSize:5
OverallDifficulty:7
ApproachRate:5
SliderMultiplier:1.4
SliderTickRate:1

[Events]
//Background and Video events
0,0,"Untitled.jpg",0,100
//Break Periods
2,87140,92940
2,210202,217077
//Storyboard Layer 0 (Background)
//Storyboard Layer 1 (Fail)
//Storyboard Layer 2 (Pass)
//Storyboard Layer 3 (Foreground)
//Storyboard Layer 4 (Overlay)
//Storyboard Sound Samples

[TimingPoints]
540,600,3,1,0,25,1,0
540,-100,3,1,0,25,0,0
21240,-100,3,1,0,25,0,0
21540,-92.4050445761935,3,1,0,60,0,0
21640,-90.1234601280294,3,1,0,60,0,0
21740,-87.9518305414491,3,1,0,60,0,0
21840,-85.8823206090087,3,1,0,60,0,0
21940,-83.9080334390295,3,1,0,60,0,0
22040,-82.0224774397176,3,1,0,60,0,0
22140,-80.2198022581874,3,1,0,60,0,0
42540,-80,3,1,0,60,0,0
42740,-77.4451165820063,3,1,0,60,0,0
42840,-76.2278786696101,3,1,0,60,0,0
43140,-72.7955152138987,3,1,0,60,0,0
43240,-71.7190335143044,3,1,0,60,0,0
43340,-70.6739752980321,3,1,0,60,0,0
43440,-69.6588873943188,3,1,0,60,0,0
43540,-68.6725459522341,3,1,0,60,0,0
43640,-67.7137927578744,3,1,0,60,0,0
43740,-66.7813971068963,3,1,0,70,0,0
62940,-66.6666666666667,3,1,0,70,0,0
63140,-65.758108796791,3,1,0,70,0,0
63240,-65.3130323012133,3,1,0,70,0,0
63440,-64.4407541372575,3,1,0,70,0,0
63540,-64.0132737924536,3,1,0,70,0,0
63740,-63.1751049654369,3,1,0,70,0,0
63840,-62.7642374396208,3,1,0,70,0,0
63940,-62.3586407562357,3,1,0,70,0,0
64040,-61.9582525294457,3,1,0,70,0,0
64140,-61.5630109729911,3,1,0,70,0,0
64340,-60.7873912361602,3,1,0,70,0,0
64440,-60.406900884357,3,1,0,70,0,0
64540,-60.0311081202279,3,1,0,70,0,0
64640,-59.6599620801281,3,1,0,70,0,0
64740,-59.2934122647237,3,1,0,70,0,0
64940,-58.5735924472867,3,1,0,70,0,0
65040,-58.2201969356382,3,1,0,70,0,0
65140,-57.8710736646684,3,1,0,70,0,0
65240,-57.5260794481178,3,1,0,70,0,0
65340,-57.1851741717442,3,1,0,70,0,0
65540,-57.4841487459833,3,1,0,80,0,0
65640,-57.6562946836284,3,1,0,80,0,0
65840,-58.003765604463,3,1,0,80,0,0
65940,-58.1790763606195,3,1,0,80,0,0
66140,-58.5328621047715,3,1,0,80,0,0
66240,-58.7113906556125,3,1,0,80,0,0
66340,-58.8910115826842,3,1,0,80,0,0
66440,-59.0717349427624,3,1,0,80,0,0
66540,-59.2535709164513,3,1,0,80,0,0
66740,-59.6205865115577,3,1,0,80,0,0
66840,-59.805822455651,3,1,0,80,0,0
67040,-60.1797690059746,3,1,0,80,0,0
67140,-60.3684649627466,3,1,0,80,0,0
67340,-60.7495030690649,3,1,0,80,0,0
67440,-60.9418316311264,3,1,0,80,0,0
67540,-61.1353818577086,3,1,0,80,0,0
67640,-61.3301654258552,3,1,0,80,0,0
67740,-61.5261563072001,3,1,0,80,0,0
67940,-61.9219968605548,3,1,0,80,0,0
68040,-62.1218333395455,3,1,0,80,0,0
68240,-62.5253618499004,3,1,0,80,0,0
68340,-62.7291181038744,3,1,0,80,0,0
68540,-63.1406407259658,3,1,0,80,0,0
68640,-63.3484334882625,3,1,0,80,0,0
68740,-63.5575580423509,3,1,0,80,0,0
68840,-63.7681085486251,3,1,0,80,0,0
68940,-63.9800586953059,3,1,0,80,0,0
69140,-64.4082141083617,3,1,0,80,0,0
69240,-64.6244061824877,3,1,0,80,0,0
69440,-65.0612584278728,3,1,0,80,0,0
69540,-65.2819068583866,3,1,0,80,0,0
69740,-65.7276810156767,3,1,0,80,0,0
69840,-65.952880623967,3,1,0,80,0,0
69940,-66.179628719047,3,1,0,80,0,0
70040,-66.4079413272557,3,1,0,80,0,0
70140,-66.6378346968545,3,1,0,80,0,0
72540,-66.6666666666667,3,1,0,80,0,0
72740,-66.0571354587437,3,1,0,80,0,0
72840,-65.7565521472473,3,1,0,80,0,0
73040,-65.163475611266,3,1,0,80,0,0
73140,-64.8709522147592,3,1,0,80,0,0
73340,-64.2936729239412,3,1,0,80,0,0
73440,-64.0088485832281,3,1,0,80,0,0
73540,-63.7265772965147,3,1,0,80,0,0
73640,-63.4467443889285,3,1,0,80,0,0
73740,-63.1693982167279,3,1,0,80,0,0
73940,-62.6218778297261,3,1,0,80,0,0
74040,-62.3516809389664,3,1,0,80,0,0
74240,-61.8181840661158,3,1,0,80,0,0
74340,-61.5548635421008,3,1,0,80,0,0
74540,-61.0348582282313,3,1,0,80,0,0
74640,-60.7781179326445,3,1,0,80,0,0
74740,-60.52356515271,3,1,0,80,0,0
74840,-60.2710994051242,3,1,0,80,0,0
74940,-60.0207671854462,3,1,0,80,0,0
75140,-59.5262543521133,3,1,0,80,0,0
75240,-59.2820586999089,3,1,0,80,0,0
75440,-58.7995945179962,3,1,0,80,0,0
75540,-58.5613125229853,3,1,0,80,0,0
75740,-58.0904619527806,3,1,0,80,0,0
75840,-57.8578478963465,3,1,0,80,0,0
75940,-57.6271225509914,3,1,0,80,0,0
76140,-57.1428571428571,3,1,0,80,0,0
76340,-57.4156965327809,3,1,0,80,0,0
76440,-57.5530956083535,3,1,0,80,0,0
76540,-57.6911538692303,3,1,0,80,0,0
76640,-57.8298760705756,3,1,0,80,0,0
76740,-57.9692670134002,3,1,0,80,0,0
76940,-58.2500745600954,3,1,0,80,0,0
77040,-58.3915010002464,3,1,0,80,0,0
77140,-58.5336158555859,3,1,0,80,0,0
77240,-58.6764241648291,3,1,0,80,0,0
77340,-58.8199310159849,3,1,0,80,0,0
77540,-59.1090609461706,3,1,0,80,0,0
77640,-59.2546944531681,3,1,0,80,0,0
77840,-59.5481250081879,3,1,0,80,0,0
77940,-59.6959327967067,3,1,0,80,0,0
78140,-59.9937606488925,3,1,0,80,0,0
78240,-60.1437917773814,3,1,0,80,0,0
78340,-60.2945751764822,3,1,0,80,0,0
78440,-60.446116518352,3,1,0,80,0,0
78540,-60.5984215323159,3,1,0,80,0,0
78740,-60.9053457840102,3,1,0,80,0,0
78840,-61.0599767727848,3,1,0,80,0,0
79040,-61.3716063036004,3,1,0,80,0,0
79140,-61.528616959748,3,1,0,80,0,0
79340,-61.8450608060638,3,1,0,80,0,0
79440,-62.0045064875315,3,1,0,80,0,0
79540,-62.164776443031,3,1,0,80,0,0
79640,-62.3258770809052,3,1,0,80,0,0
79740,-62.4878148760992,3,1,0,80,0,0
79940,-62.8142281764527,3,1,0,80,0,0
80040,-62.9787169723864,3,1,0,80,0,0
80240,-63.3102926075104,3,1,0,80,0,0
80340,-63.4773931611996,3,1,0,80,0,0
80540,-63.8142545729295,3,1,0,80,0,0
80640,-63.9840295862153,3,1,0,80,0,0
80740,-64.1547103671446,3,1,0,80,0,0
80840,-64.3263041836542,3,1,0,80,0,0
80940,-64.4988183816473,3,1,0,80,0,0
81140,-64.8466377018352,3,1,0,80,0,0
81240,-65.021957915188,3,1,0,80,0,0
81440,-65.3754577916432,3,1,0,80,0,0
81540,-65.5536530428695,3,1,0,80,0,0
81740,-65.9129737824556,3,1,0,80,0,0
81840,-66.0941153765316,3,1,0,80,0,0
81940,-66.2762553385524,3,1,0,80,0,0
82040,-66.4594019451338,3,1,0,80,0,0
82140,-66.6435635646309,3,1,0,80,0,0
85740,-66.6666666666667,3,1,0,80,0,0
85840,-67.5958390705302,3,1,0,80,0,0
85940,-68.5512314200456,3,1,0,80,0,0
86040,-69.5340661296783,3,1,0,80,0,0
86240,-71.5867269617806,3,1,0,80,0,0
86340,-72.6591580692718,3,1,0,80,0,0
86440,-73.7642641645828,3,1,0,80,0,0
86540,-74.9034494536542,3,1,0,80,0,0
86640,-76.0784307758555,3,1,0,80,0,0
86840,-78.5425024897973,3,1,0,80,0,0
86940,-79.8354113160309,3,1,0,80,0,0
94140,344.827586206897,3,1,0,80,1,0
102071,-100,3,1,0,80,0,0
102157,-99.0712074303406,3,1,0,80,0,0
102243,-98.159509202454,3,1,0,80,0,0
102329,-97.2644376899696,3,1,0,80,0,0
102415,-96.3855421686747,3,1,0,80,0,0
102502,-95.5223880597015,3,1,0,80,0,0
102588,-94.6745562130178,3,1,0,80,0,0
102674,-93.841642228739,3,1,0,80,0,0
102760,-93.0232558139535,3,1,0,80,0,0
102818,-92.485549132948,3,1,0,80,0,0
102875,-91.9540229885058,3,1,0,80,0,0
102933,-91.4285714285714,3,1,0,80,0,0
102990,-90.9090909090909,3,1,0,80,0,0
103048,-90.3954802259887,3,1,0,80,0,0
103105,-89.8876404494382,3,1,0,80,0,0
103162,-89.3854748603352,3,1,0,80,0,0
103220,-88.8888888888889,3,1,0,80,0,0
103277,-88.3977900552486,3,1,0,80,0,0
103335,-87.9120879120879,3,1,0,80,0,0
103392,-87.431693989071,3,1,0,80,0,0
103450,-86.9565217391304,3,1,0,80,0,0
103536,-88.1057268722467,3,1,0,80,0,0
103622,-89.2857142857143,3,1,0,80,0,0
103708,-90.4977375565611,3,1,0,80,0,0
103795,-91.743119266055,3,1,0,80,0,0
103881,-93.0232558139535,3,1,0,80,0,0
103967,-94.3396226415094,3,1,0,80,0,0
104053,-95.6937799043062,3,1,0,80,0,0
104140,-97.0873786407767,3,1,0,80,0,0
104312,-100,3,1,0,80,0,0
104484,-100,3,1,0,80,0,0
104657,-98.1688563230069,3,1,0,80,0,0
104829,-96.4035684744906,3,1,0,80,0,0
104915,-95.5445658072751,3,1,0,80,0,0
105002,-94.7006465213138,3,1,0,80,0,0
105174,-93.0569294377221,3,1,0,80,0,0
105260,-92.2561991553022,3,1,0,80,0,0
105346,-91.4692151209589,3,1,0,80,0,0
105433,-90.6954618711743,3,1,0,80,0,0
105519,-89.9347703110934,3,1,0,80,0,0
105576,-89.434638930004,3,1,0,80,0,0
105634,-88.9401183970856,3,1,0,80,0,0
105691,-88.4509583661339,3,1,0,80,0,0
105749,-87.9671495476729,3,1,0,80,0,0
105806,-87.488681151876,3,1,0,80,0,0
105864,-87.0153138250801,3,1,0,80,0,0
105950,-88.3977900552486,3,1,0,80,0,0
106036,-89.8876404494382,3,1,0,80,0,0
106122,-91.4285714285714,3,1,0,80,0,0
106208,-93.0232558139535,3,1,0,80,0,0
106295,-94.6745562130178,3,1,0,80,0,0
106381,-96.3855421686747,3,1,0,80,0,0
106467,-98.159509202454,3,1,0,80,0,0
106553,-100,3,1,0,80,0,0
106726,-98.7696267594574,3,1,0,80,0,0
106898,-97.5692570979195,3,1,0,80,0,0
107071,-96.397620906716,3,1,0,80,0,0
107243,-95.2537894338782,3,1,0,80,0,0
107329,-94.6920378199999,3,1,0,80,0,0
107415,-94.1367845133693,3,1,0,80,0,0
107502,-93.5880925998024,3,1,0,80,0,0
107588,-93.0457599047211,3,1,0,80,0,0
107760,-91.9796504221406,3,1,0,80,0,0
107933,-90.9376949476836,3,1,0,80,0,0
108019,-90.4255607741151,3,1,0,80,0,0
108105,-89.9190818182717,3,1,0,80,0,0
108191,-89.4183248549858,3,1,0,80,0,0
108277,-88.9231144075898,3,1,0,80,0,0
108335,-88.5959316748175,3,1,0,80,0,0
108392,-88.2712256989316,3,1,0,80,0,0
108450,-87.9488911403805,3,1,0,80,0,0
108536,-87.4697026817336,3,1,0,80,0,0
108622,-86.9565217391304,3,1,0,90,0,0
108795,-89.2857142857143,3,1,0,90,0,0
108967,-91.743119266055,3,1,0,90,0,0
109053,-93.0232558139535,3,1,0,90,0,0
109140,-94.3396226415094,3,1,0,90,0,0
109226,-95.6937799043062,3,1,0,90,0,0
109312,-97.0873786407767,3,1,0,90,0,0
109398,-98.5221674876847,3,1,0,90,0,0
109484,-100,3,1,0,90,0,0
109657,-96.5714247085716,3,1,0,90,0,0
109743,-94.9438596957619,3,1,0,90,0,0
109829,-93.3701585238552,3,1,0,90,0,0
109915,-91.8478595315575,3,1,0,90,0,0
110002,-90.3743214018142,3,1,0,90,0,0
110088,-88.9473965097042,3,1,0,90,0,0
110174,-87.5647541356833,3,1,0,90,0,0
110260,-86.2245131117306,3,1,0,90,0,0
110346,-84.924608179089,3,1,0,90,0,0
110433,-83.6633853886917,3,1,0,90,0,0
110519,-82.4390075003009,3,1,0,90,0,0
110605,-81.2500152343779,3,1,0,90,0,0
110691,-80.094768129651,3,1,0,100,0,0
111036,-80,3,1,0,100,0,0
111208,-81.0099674663971,3,1,0,100,0,0
111381,-82.0458291592518,3,1,0,100,0,0
111467,-82.5737238850276,3,1,0,100,0,0
111553,-83.1084557036087,3,1,0,100,0,0
111726,-84.1990397941502,3,1,0,100,0,0
111898,-85.3185538846391,3,1,0,100,0,0
111984,-85.8895494749572,3,1,0,100,0,0
112071,-86.468239351004,3,1,0,100,0,0
112157,-87.0548558763334,3,1,0,100,0,0
112243,-87.6494093744549,3,1,0,100,0,0
112415,-88.8632172927821,3,1,0,100,0,0
112588,-90.1111972173662,3,1,0,100,0,0
112760,-91.3946457360742,3,1,0,100,0,0
112933,-92.7152686285836,3,1,0,100,0,0
113105,-94.0745277223522,3,1,0,100,0,0
113191,-94.769213273376,3,1,0,100,0,0
113277,-95.4742348456134,3,1,0,100,0,0
113450,-96.9163166372364,3,1,0,100,0,0
113622,-98.4025332748166,3,1,0,100,0,0
113708,-99.1628670761432,3,1,0,100,0,0
113795,-99.9351420927818,3,1,0,100,0,0
114829,-100,3,1,0,100,0,0
115002,-98.7696267594574,3,1,0,100,0,0
115088,-98.1657725400884,3,1,0,100,0,0
115174,-97.5692570979195,3,1,0,100,0,0
115346,-96.397620906716,3,1,0,100,0,0
115519,-95.2537894338782,3,1,0,100,0,0
115605,-94.6920378199999,3,1,0,100,0,0
115691,-94.1367845133693,3,1,0,100,0,0
115777,-93.5880925998024,3,1,0,100,0,0
115864,-93.0457599047211,3,1,0,100,0,0
116036,-91.9796504221406,3,1,0,100,0,0
116208,-90.9376949476836,3,1,0,100,0,0
116381,-89.9190818182717,3,1,0,100,0,0
116553,-88.9231144075898,3,1,0,100,0,0
116726,-87.9488911403805,3,1,0,100,0,0
116812,-87.4697026817336,3,1,0,100,0,0
116898,-86.9565217391304,3,1,0,100,0,0
117071,-87.9087647675736,3,1,0,100,0,0
117243,-88.8820153463688,3,1,0,100,0,0
117415,-89.877137952419,3,1,0,100,0,0
117502,-90.3831431822639,3,1,0,100,0,0
117588,-90.8947956366862,3,1,0,100,0,0
117674,-91.41227392602,3,1,0,100,0,0
117760,-91.9357626439254,3,1,0,100,0,0
117933,-93.0007626062534,3,1,0,100,0,0
118105,-94.090814572409,3,1,0,100,0,0
118277,-95.2067223562521,3,1,0,100,0,0
118364,-95.774615512806,3,1,0,100,0,0
118450,-96.3494169415034,3,1,0,100,0,0
118536,-96.9310655341241,3,1,0,100,0,0
118622,-97.5197794492668,3,1,0,100,0,0
118795,-98.7190219709055,3,1,0,100,0,0
118967,-100,3,1,0,100,0,0
119140,-100,3,1,0,100,0,0
119226,-99.3228170334658,3,1,0,100,0,0
119312,-98.6547439120158,3,1,0,100,0,0
119484,-97.3451068995291,3,1,0,100,0,0
119657,-96.0698773860155,3,1,0,100,0,0
119743,-95.4447103109875,3,1,0,100,0,0
119829,-94.8276270808737,3,1,0,100,0,0
119915,-94.2183831371707,3,1,0,100,0,0
120002,-93.6170053417863,3,1,0,100,0,0
120174,-92.4369903255446,3,1,0,100,0,0
120346,-91.2862691758219,3,1,0,100,0,0
120519,-90.1639270357437,3,1,0,100,0,0
120691,-89.0688475470885,3,1,0,100,0,0
120777,-88.531222748983,3,1,0,100,0,0
120864,-87.999971840009,3,1,0,100,0,0
121036,-86.9565217391304,3,1,0,100,0,0
121208,-87.9087647675736,3,1,0,100,0,0
121295,-88.3927111370396,3,1,0,100,0,0
121381,-88.8820153463688,3,1,0,100,0,0
121467,-89.376846749096,3,1,0,100,0,0
121553,-89.877137952419,3,1,0,100,0,0
121726,-90.8947956366862,3,1,0,100,0,0
121898,-91.9357626439254,3,1,0,100,0,0
121984,-92.4651961001879,3,1,0,100,0,0
122071,-93.0007626062534,3,1,0,100,0,0
122243,-94.090814572409,3,1,0,100,0,0
122415,-95.2067223562521,3,1,0,100,0,0
122502,-95.774615512806,3,1,0,100,0,0
122588,-96.3494169415034,3,1,0,100,0,0
122674,-96.9310655341241,3,1,0,100,0,0
122760,-97.5197794492668,3,1,0,100,0,0
122933,-98.7190219709055,3,1,0,100,0,0
122990,-99.3298216930371,3,1,0,100,0,0
123048,-99.6380150911738,3,1,0,100,0,0
123105,-99.9481269221274,3,1,0,100,0,0
125174,-100,3,1,0,100,0,0
125346,-97.966125273203,3,1,0,100,0,0
125433,-96.9798534052536,3,1,0,100,0,0
125519,-96.013334331872,3,1,0,100,0,0
125691,-94.1367845133693,3,1,0,100,0,0
125777,-93.2258377273778,3,1,0,100,0,0
125864,-92.3322668956507,3,1,0,100,0,0
126036,-90.5956300291899,3,1,0,100,0,0
126208,-88.9231144075898,3,1,0,100,0,0
126381,-87.3111568815598,3,1,0,100,0,0
126467,-86.5269717550006,3,1,0,100,0,0
126553,-85.7566740131551,3,1,0,100,0,0
126640,-84.9999702500104,3,1,0,100,0,0
126726,-84.2565747511693,3,1,0,100,0,0
126812,-83.5259999732717,3,1,0,100,0,0
126898,-82.8080542425879,3,1,0,100,0,0
127071,-81.4084309827463,3,1,0,100,0,0
127157,-80.7262781795256,3,1,0,100,0,0
127243,-80.0553983356483,3,1,0,100,0,0
127588,-80,3,1,0,100,0,0
127760,-81.0126582278481,3,1,0,100,0,0
127933,-82.0512820512821,3,1,0,100,0,0
128019,-82.5806110634896,3,1,0,100,0,0
128105,-83.1168831168831,3,1,0,100,0,0
128277,-84.2105263157895,3,1,0,100,0,0
128450,-85.3333333333333,3,1,0,100,0,0
128536,-85.906077167711,3,1,0,100,0,0
128622,-86.4864864864865,3,1,0,100,0,0
128708,-87.0747920218593,3,1,0,100,0,0
128795,-87.6712328767123,3,1,0,100,0,0
128967,-88.8888888888889,3,1,0,100,0,0
129140,-90.1408450704225,3,1,0,100,0,0
129197,-90.7801830491611,3,1,0,100,0,0
129254,-91.1032235964637,3,1,0,100,0,0
129312,-91.4285714285714,3,1,0,100,0,0
129484,-92.7536231884058,3,1,0,100,0,0
129657,-94.1176470588235,3,1,0,100,0,0
129743,-94.8147698655906,3,1,0,100,0,0
129829,-95.5223880597015,3,1,0,100,0,0
130002,-96.969696969697,3,1,0,100,0,0
130174,-98.4615384615385,3,1,0,100,0,0
130260,-99.2248554293856,3,1,0,100,0,0
130346,-100,3,1,0,100,0,0
131381,-100,3,1,0,100,0,0
131553,-98.7696267594574,3,1,0,100,0,0
131640,-98.1657725400884,3,1,0,100,0,0
131726,-97.5692570979195,3,1,0,100,0,0
131898,-96.397620906716,3,1,0,100,0,0
132071,-95.2537894338782,3,1,0,100,0,0
132157,-94.6920378199999,3,1,0,100,0,0
132243,-94.1367845133693,3,1,0,100,0,0
132329,-93.5880925998024,3,1,0,100,0,0
132415,-93.0457599047211,3,1,0,100,0,0
132588,-91.9796504221406,3,1,0,100,0,0
132760,-90.9376949476836,3,1,0,100,0,0
132933,-89.9190818182717,3,1,0,100,0,0
133105,-88.9231144075898,3,1,0,100,0,0
133277,-87.9488911403805,3,1,0,100,0,0
133364,-87.4697026817336,3,1,0,100,0,0
133450,-86.9565217391304,3,1,0,100,0,0
133622,-87.9087647675736,3,1,0,100,0,0
133795,-88.8820153463688,3,1,0,100,0,0
133967,-89.877137952419,3,1,0,100,0,0
134053,-90.3831431822639,3,1,0,100,0,0
134140,-90.8947956366862,3,1,0,100,0,0
134226,-91.41227392602,3,1,0,100,0,0
134312,-91.9357626439254,3,1,0,100,0,0
134484,-93.0007626062534,3,1,0,100,0,0
134657,-94.090814572409,3,1,0,100,0,0
134829,-95.2067223562521,3,1,0,100,0,0
134915,-95.774615512806,3,1,0,100,0,0
135002,-96.3494169415034,3,1,0,100,0,0
135088,-96.9310655341241,3,1,0,100,0,0
135174,-97.5197794492668,3,1,0,100,0,0
135346,-98.7190219709055,3,1,0,100,0,0
135519,-100,3,1,0,100,0,0
135691,-100,3,1,0,100,0,0
135777,-99.3253820054192,3,1,0,100,0,0
135864,-98.659707868605,3,1,0,100,0,0
136036,-97.3548682301859,3,1,0,100,0,0
136208,-96.0840927980168,3,1,0,100,0,0
136295,-95.4611105754682,3,1,0,100,0,0
136381,-94.8460648367699,3,1,0,100,0,0
136467,-94.2389825205535,3,1,0,100,0,0
136553,-93.639534611513,3,1,0,100,0,0
136726,-92.463400674428,3,1,0,100,0,0
136898,-91.3163618830895,3,1,0,100,0,0
137071,-90.1974331614471,3,1,0,100,0,0
137243,-89.1055936927497,3,1,0,100,0,0
137329,-88.569487634371,3,1,0,100,0,0
137415,-88.0398714970036,3,1,0,100,0,0
137588,-86.9993405449987,3,1,0,100,0,0
137760,-87.9087647675736,3,1,0,100,0,0
137846,-88.3927111370396,3,1,0,100,0,0
137933,-88.8820153463688,3,1,0,100,0,0
138019,-89.376846749096,3,1,0,100,0,0
138105,-89.877137952419,3,1,0,100,0,0
138277,-90.8947956366862,3,1,0,100,0,0
138450,-91.9357626439254,3,1,0,100,0,0
138507,-92.4651961001879,3,1,0,100,0,0
138565,-92.7322060806362,3,1,0,100,0,0
138622,-93.0007626062534,3,1,0,100,0,0
138795,-94.090814572409,3,1,0,100,0,0
138967,-95.2067223562521,3,1,0,100,0,0
139053,-95.774615512806,3,1,0,100,0,0
139140,-96.3494169415034,3,1,0,100,0,0
139226,-96.9310655341241,3,1,0,100,0,0
139312,-97.5197794492668,3,1,0,100,0,0
139484,-98.7190219709055,3,1,0,100,0,0
139571,-99.3298216930371,3,1,0,100,0,0
139657,-99.9481269221274,3,1,0,100,0,0
141726,-100,3,1,0,100,0,0
141898,-97.966125273203,3,1,0,100,0,0
141984,-96.9798534052536,3,1,0,100,0,0
142071,-96.013334331872,3,1,0,100,0,0
142243,-94.1367845133693,3,1,0,100,0,0
142329,-93.2258377273778,3,1,0,100,0,0
142415,-92.3322668956507,3,1,0,100,0,0
142588,-90.5956300291899,3,1,0,100,0,0
142760,-88.9231144075898,3,1,0,100,0,0
142933,-87.3111568815598,3,1,0,100,0,0
143019,-86.5269717550006,3,1,0,100,0,0
143105,-85.7566740131551,3,1,0,100,0,0
143191,-84.9999702500104,3,1,0,100,0,0
143277,-84.2565747511693,3,1,0,100,0,0
143364,-83.5259999732717,3,1,0,100,0,0
143450,-82.8080542425879,3,1,0,100,0,0
143622,-81.4084309827463,3,1,0,100,0,0
143708,-80.7262781795256,3,1,0,100,0,0
143795,-80,3,1,0,100,0,0
143967,-80.4020100502513,3,1,0,100,0,0
144053,-80.6045340050378,3,1,0,100,0,0
144140,-80.8080808080808,3,1,0,100,0,0
144312,-81.2182741116751,3,1,0,100,0,0
144484,-81.6326530612245,3,1,0,100,0,0
144571,-81.8414322250639,3,1,0,100,0,0
144657,-82.0512820512821,3,1,0,100,0,0
144743,-82.2622107969152,3,1,0,100,0,0
144829,-82.4742268041237,3,1,0,100,0,0
145002,-82.9015544041451,3,1,0,100,0,0
145174,-83.3333333333333,3,1,0,100,0,0
145260,-83.5509138381201,3,1,0,100,0,0
145346,-83.7696335078534,3,1,0,100,0,0
145519,-84.2105263157895,3,1,0,100,0,0
145691,-84.6560846560847,3,1,0,100,0,0
145777,-84.8806366047745,3,1,0,100,0,0
145864,-85.1063829787234,3,1,0,100,0,0
146036,-85.5614973262032,3,1,0,100,0,0
146208,-86.0215053763441,3,1,0,100,0,0
146295,-86.2533692722372,3,1,0,100,0,0
146381,-86.4864864864865,3,1,0,100,0,0
146467,-86.7208672086721,3,1,0,100,0,0
146553,-86.9565217391304,3,1,0,100,0,0
146726,-87.431693989071,3,1,0,100,0,0
146898,-87.9120879120879,3,1,0,100,0,0
146984,-88.1542699724518,3,1,0,100,0,0
147071,-88.3977900552486,3,1,0,100,0,0
147157,-88.6426592797784,3,1,0,100,0,0
147243,-88.8888888888889,3,1,0,100,0,0
147329,-89.1364902506964,3,1,0,100,0,0
147415,-89.3854748603352,3,1,0,100,0,0
147502,-89.6358543417367,3,1,0,100,0,0
147588,-89.8876404494382,3,1,0,100,0,0
147760,-90.3954802259887,3,1,0,100,0,0
147846,-90.6515580736544,3,1,0,100,0,0
147933,-90.9090909090909,3,1,0,100,0,0
148105,-91.4285714285714,3,1,0,100,0,0
148277,-91.9540229885058,3,1,0,100,0,0
148364,-92.2190201729107,3,1,0,100,0,0
148450,-92.485549132948,3,1,0,100,0,0
148536,-92.7536231884058,3,1,0,100,0,0
148622,-93.0232558139535,3,1,0,100,0,0
148795,-93.5672514619883,3,1,0,100,0,0
148967,-94.1176470588235,3,1,0,100,0,0
149053,-94.3952802359882,3,1,0,100,0,0
149140,-94.6745562130178,3,1,0,100,0,0
149226,-94.9554896142433,3,1,0,100,0,0
149312,-95.2380952380952,3,1,0,100,0,0
149484,-95.8083832335329,3,1,0,100,0,0
149657,-96.3855421686747,3,1,0,100,0,0
149829,-96.969696969697,3,1,0,100,0,0
149915,-97.2644376899696,3,1,0,100,0,0
150002,-97.5609756097561,3,1,0,100,0,0
150174,-98.159509202454,3,1,0,100,0,0
150346,-98.7654320987654,3,1,0,100,0,0
150433,-99.0712074303406,3,1,0,100,0,0
150519,-99.3788819875776,3,1,0,100,0,0
150605,-99.6884735202492,3,1,0,100,0,0
150691,-100,3,1,0,100,0,0
150864,-98.1688563230069,3,1,0,100,0,0
151036,-96.4035684744906,3,1,0,100,0,0
151122,-95.5445658072751,3,1,0,100,0,0
151208,-94.7006465213138,3,1,0,100,0,0
151295,-93.8715930478698,3,1,0,100,0,0
151381,-93.0569294377221,3,1,0,100,0,0
151467,-92.2561991553022,3,1,0,100,0,0
151553,-91.4692151209589,3,1,0,100,0,0
151640,-90.6954618711743,3,1,0,100,0,0
151726,-89.9347703110934,3,1,0,100,0,0
151898,-88.4509583661339,3,1,0,100,0,0
151984,-87.7273014380259,3,1,0,100,0,0
152071,-86.9565217391304,3,1,0,100,0,0
152243,-87.2771704741332,3,1,0,100,0,0
152416,-87.6002694584289,3,1,0,100,0,0
152502,-87.7626406725427,3,1,0,100,0,0
152588,-87.925692238975,3,1,0,100,0,0
152674,-88.0893507902936,3,1,0,100,0,0
152760,-88.2535418352677,3,1,0,100,0,0
152933,-88.5839239666464,3,1,0,100,0,0
153105,-88.9167099394655,3,1,0,100,0,0
153191,-89.0840820108059,3,1,0,100,0,0
153278,-89.2520057156984,3,1,0,100,0,0
153364,-89.420643649793,3,1,0,100,0,0
153450,-89.5899200589143,3,1,0,100,0,0
153622,-89.9303219865248,3,1,0,100,0,0
153795,-90.2734020253741,3,1,0,100,0,0
153967,-90.6190276397096,3,1,0,100,0,0
154053,-90.7928760277754,3,1,0,100,0,0
154140,-90.9673099874829,3,1,0,100,0,0
154312,-91.3183632096578,3,1,0,100,0,0
154484,-91.6720523997451,3,1,0,100,0,0
154571,-91.8499685873107,3,1,0,100,0,0
154657,-92.0284920211298,3,1,0,100,0,0
154743,-92.2077958003037,3,1,0,100,0,0
154829,-92.3877996367312,3,1,0,100,0,0
155002,-92.7498379196582,3,1,0,100,0,0
155174,-93.1147247901194,3,1,0,100,0,0
155260,-93.2982904954233,3,1,0,100,0,0
155347,-93.4825813906095,3,1,0,100,0,0
155433,-93.6675140454437,3,1,0,100,0,0
155519,-93.8532679238625,3,1,0,100,0,0
155605,-94.0397600105324,3,1,0,100,0,0
155691,-94.2269059276262,3,1,0,100,0,0
155777,-94.4148873394357,3,1,0,100,0,0
155864,-94.6036202913413,3,1,0,100,0,0
156036,-94.983268697219,3,1,0,100,0,0
156122,-95.1742831472993,3,1,0,100,0,0
156209,-95.3659764713063,3,1,0,100,0,0
156381,-95.7518724278653,3,1,0,100,0,0
156553,-96.1408116784167,3,1,0,100,0,0
156640,-96.3365150073023,3,1,0,100,0,0
156726,-96.5330167050385,3,1,0,100,0,0
156812,-96.7302280995509,3,1,0,100,0,0
156898,-96.9283408775892,3,1,0,100,0,0
157071,-97.3269162453222,3,1,0,100,0,0
157243,-97.7288785904368,3,1,0,100,0,0
157329,-97.9310115196249,3,1,0,100,0,0
157416,-98.1340786289492,3,1,0,100,0,0
157502,-98.3379896371426,3,1,0,100,0,0
157588,-98.5426527090853,3,1,0,100,0,0
157760,-98.9547410700768,3,1,0,100,0,0
157933,-99.3701917248479,3,1,0,100,0,0
158105,-99.7891455354835,3,1,0,100,0,0
158191,-100,3,1,0,100,0,0
158278,-100,3,1,0,100,0,0
158450,-97.959215660152,3,1,0,100,0,0
158536,-96.969696969697,3,1,0,100,0,0
158622,-95.9999692800098,3,1,0,100,0,0
158795,-94.1176470588235,3,1,0,100,0,0
158881,-93.2038545386083,3,1,0,100,0,0
158967,-92.3077207100679,3,1,0,100,0,0
159140,-90.5660103951667,3,1,0,100,0,0
159312,-88.8888888888889,3,1,0,100,0,0
159398,-88.0733686390111,3,1,0,100,0,0
159484,-87.2727526611644,3,1,0,100,0,0
159571,-86.4864864864865,3,1,0,100,0,0
159657,-85.7142612244968,3,1,0,100,0,0
159743,-84.9557762706623,3,1,0,100,0,0
159829,-84.2105263157895,3,1,0,100,0,0
159915,-83.4782376408382,3,1,0,100,0,0
160002,-82.7586435196258,3,1,0,100,0,0
160088,-82.0512820512821,3,1,0,100,0,0
160174,-81.3559101407701,3,1,0,100,0,0
160260,-80.6722906009521,3,1,0,100,0,0
160346,-80,3,1,0,100,0,0
160519,-80,3,1,0,100,0,0
160605,-80.8946953303537,3,1,0,100,0,0
160691,-81.8096289933325,3,1,0,100,0,0
160749,-82.4311246737788,3,1,0,100,0,0
160806,-83.0622044542938,3,1,0,100,0,0
160864,-83.7030216790826,3,1,0,100,0,0
160921,-84.35373231524,3,1,0,100,0,0
160979,-85.0147117958763,3,1,0,100,0,0
161036,-85.6860582785157,3,1,0,100,0,0
161094,-86.3681667665658,3,1,0,100,0,0
161151,-87.0611465256508,3,1,0,100,0,0
161208,-87.7654135813467,3,1,0,100,0,0
161266,-88.4811676682735,3,1,0,100,0,0
161323,-89.2086125562906,3,1,0,100,0,0
161381,-89.9481988322925,3,1,0,100,0,0
161467,-91.0808196545122,3,1,0,100,0,0
161553,-92.2423279749765,3,1,0,100,0,0
161640,-93.4338432329605,3,1,0,100,0,0
161726,-94.6564538663375,3,1,0,100,0,0
161812,-95.9115771987489,3,1,0,100,0,0
161898,-97.20043312513,3,1,0,100,0,0
161984,-98.5244000602969,3,1,0,100,0,0
162071,-99.8849325576935,3,1,0,100,0,0
162415,-100,3,1,0,100,0,0
162588,-97.5773495650002,3,1,0,100,0,0
162674,-96.4096097242589,3,1,0,100,0,0
162760,-95.2693980403085,3,1,0,100,0,0
162818,-94.5241230288176,3,1,0,100,0,0
162875,-93.7904178081742,3,1,0,100,0,0
162933,-93.0680150360685,3,1,0,100,0,0
163019,-92.0050381958916,3,1,0,100,0,0
163105,-90.9661514950287,3,1,0,100,0,0
163277,-88.9570497572362,3,1,0,100,0,0
163450,-87.0347773563361,3,1,0,100,0,0
163622,-86.9565217391304,3,1,0,100,0,0
163708,-88.1057268722467,3,1,0,100,0,0
163795,-89.2857142857143,3,1,0,100,0,0
163881,-90.4977375565611,3,1,0,100,0,0
163967,-91.743119266055,3,1,0,100,0,0
164140,-94.3396226415094,3,1,0,100,0,0
164226,-95.6937799043062,3,1,0,100,0,0
164312,-97.0873786407767,3,1,0,100,0,0
164398,-98.5221674876847,3,1,0,100,0,0
164484,-100,3,1,0,100,0,0
165864,-100,3,1,0,100,0,0
166036,-98.159509202454,3,1,0,100,0,0
166208,-96.3855421686747,3,1,0,100,0,0
166266,-95.8083832335329,3,1,0,100,0,0
166323,-95.2380952380952,3,1,0,100,0,0
166381,-94.6745562130178,3,1,0,100,0,0
166467,-93.841642228739,3,1,0,100,0,0
166553,-93.0232558139535,3,1,0,100,0,0
166640,-92.2190201729107,3,1,0,100,0,0
166726,-91.4285714285714,3,1,0,100,0,0
166812,-90.6515580736544,3,1,0,100,0,0
166898,-89.8876404494382,3,1,0,100,0,0
166984,-89.1364902506964,3,1,0,100,0,0
167071,-88.3977900552486,3,1,0,100,0,0
167243,-86.9565217391304,3,1,0,100,0,0
167415,-86.9565217391304,3,1,0,100,0,0
167502,-87.7694192034223,3,1,0,100,0,0
167588,-88.5976585410801,3,1,0,100,0,0
167674,-89.4416782120966,3,1,0,100,0,0
167760,-90.3019335450011,3,1,0,100,0,0
167846,-91.1788144201119,3,1,0,100,0,0
167933,-92.0729770416032,3,1,0,100,0,0
168019,-92.9848509080901,3,1,0,100,0,0
168105,-93.914967510117,3,1,0,100,0,0
168191,-94.8638798188479,3,1,0,100,0,0
168277,-95.8321633823387,3,1,0,100,0,0
168450,-97.82926640768,3,1,0,100,0,0
168536,-98.8593606962862,3,1,0,100,0,0
168622,-99.9112787844394,3,1,0,100,0,0
168795,-100,3,1,0,100,0,0
168967,-97.9142310501693,3,1,0,100,0,0
169025,-97.2382395211211,3,1,0,100,0,0
169082,-96.5714247085716,3,1,0,100,0,0
169140,-95.9136930224707,3,1,0,100,0,0
169312,-93.9933546698248,3,1,0,100,0,0
169484,-92.1483182471178,3,1,0,100,0,0
169657,-90.3743214018142,3,1,0,100,0,0
169743,-89.5126928998532,3,1,0,100,0,0
169829,-88.6673387650945,3,1,0,100,0,0
169915,-87.837802227918,3,1,0,100,0,0
170002,-87.023719184901,3,1,0,100,0,0
170174,-86.9565217391304,3,1,0,100,0,0
170346,-89.2857142857143,3,1,0,100,0,0
170433,-90.4977375565611,3,1,0,100,0,0
170519,-91.743119266055,3,1,0,100,0,0
170605,-93.0232558139535,3,1,0,100,0,0
170691,-94.3396226415094,3,1,0,100,0,0
170734,-95.0118764845606,3,1,0,100,0,0
170864,-97.0873786407767,3,1,0,100,0,0
170907,-97.799511002445,3,1,0,100,0,0
171036,-100,3,1,0,100,0,0
171381,-100,3,1,0,100,0,0
171467,-97.7443535530561,3,1,0,100,0,0
171553,-95.5882212370263,3,1,0,100,0,0
171640,-93.5251596708288,3,1,0,100,0,0
171726,-91.5492699861211,3,1,0,100,0,0
171769,-90.5923471208846,3,1,0,100,0,0
171898,-87.837802227918,3,1,0,100,0,0
171941,-86.9565217391304,3,1,0,100,0,0
172071,-86.9565217391304,3,1,0,100,0,0
172157,-88.3977900552486,3,1,0,100,0,0
172243,-89.8876404494382,3,1,0,100,0,0
172329,-91.4285714285714,3,1,0,100,0,0
172415,-93.0232558139535,3,1,0,100,0,0
172502,-94.6745562130178,3,1,0,100,0,0
172588,-96.3855421686747,3,1,0,100,0,0
172674,-98.159509202454,3,1,0,100,0,0
172760,-100,3,1,0,100,0,0
174140,-100,3,1,0,100,0,0
174312,-97.5609756097561,3,1,0,100,0,0
174484,-95.2380952380952,3,1,0,100,0,0
174542,-94.4882187364469,3,1,0,100,0,0
174599,-93.7499707031342,3,1,0,100,0,0
174657,-93.0232558139535,3,1,0,100,0,0
174714,-92.3077207100679,3,1,0,100,0,0
174772,-91.6030254647251,3,1,0,100,0,0
174829,-90.9090909090909,3,1,0,100,0,0
174915,-89.8876404494382,3,1,0,100,0,0
175002,-88.8888888888889,3,1,0,100,0,0
175088,-87.9120879120879,3,1,0,100,0,0
175174,-86.9565217391304,3,1,0,100,0,0
175260,-88.8888888888889,3,1,0,100,0,0
175346,-90.9090909090909,3,1,0,100,0,0
175433,-93.0232558139535,3,1,0,100,0,0
175519,-95.2380952380952,3,1,0,100,0,0
175605,-97.5609756097561,3,1,0,100,0,0
175691,-100,3,1,0,100,0,0
175864,-100,3,1,0,100,0,0
176036,-95.9999692800098,3,1,0,100,0,0
176122,-94.1176470588235,3,1,0,100,0,0
176208,-92.3077207100679,3,1,0,100,0,0
176381,-88.8888888888889,3,1,0,100,0,0
176467,-87.2727526611644,3,1,0,100,0,0
176553,-85.7142612244968,3,1,0,100,0,0
176640,-84.2105263157895,3,1,0,100,0,0
176726,-82.7586435196258,3,1,0,100,0,0
176812,-81.3559101407701,3,1,0,100,0,0
176898,-80,3,1,0,100,0,0
177071,-80.700480167857,3,1,0,100,0,0
177243,-81.4133355043556,3,1,0,100,0,0
177329,-81.7745067975059,3,1,0,100,0,0
177415,-82.138896874615,3,1,0,100,0,0
177588,-82.8775070445881,3,1,0,100,0,0
177674,-83.251815930235,3,1,0,100,0,0
177760,-83.629521220991,3,1,0,100,0,0
177846,-84.0106693550081,3,1,0,100,0,0
177933,-84.3952363952769,3,1,0,100,0,0
178105,-85.175175524743,3,1,0,100,0,0
178277,-85.9696647440984,3,1,0,100,0,0
178364,-86.3724934702395,3,1,0,100,0,0
178450,-86.7791150439406,3,1,0,100,0,0
178622,-87.603953040777,3,1,0,100,0,0
178665,-87.8126569651243,3,1,0,100,0,0
178795,-88.4446217267751,3,1,0,100,0,0
178838,-88.6572766789693,3,1,0,100,0,0
178967,-89.3015812630994,3,1,0,100,0,0
179140,-90.1753098198207,3,1,0,100,0,0
179312,-91.0663044656184,3,1,0,100,0,0
179398,-91.5184373043793,3,1,0,100,0,0
179484,-91.9750821107546,3,1,0,100,0,0
179657,-92.9021805070787,3,1,0,100,0,0
179829,-93.84807123444,3,1,0,100,0,0
179887,-94.1677221298855,3,1,0,100,0,0
179944,-94.4895579589499,3,1,0,100,0,0
180002,-94.8135113046149,3,1,0,100,0,0
180174,-95.7990213171982,3,1,0,100,0,0
180346,-96.8052336781536,3,1,0,100,0,0
180433,-97.3163081696068,3,1,0,100,0,0
180519,-97.8328076450469,3,1,0,100,0,0
180605,-98.3548189435316,3,1,0,100,0,0
180691,-98.8824307674661,3,1,0,100,0,0
180864,-99.9548204211696,3,1,0,100,0,0
181036,-100,3,1,0,100,0,0
181208,-97.9142310501693,3,1,0,100,0,0
181295,-96.9036380532834,3,1,0,100,0,0
181381,-95.9136930224707,3,1,0,100,0,0
181467,-94.9438596957619,3,1,0,100,0,0
181553,-93.9933546698248,3,1,0,100,0,0
181640,-93.0616924571637,3,1,0,100,0,0
181726,-92.1483182471178,3,1,0,100,0,0
181898,-90.3743214018142,3,1,0,100,0,0
182071,-88.6673387650945,3,1,0,100,0,0
182157,-87.837802227918,3,1,0,100,0,0
182243,-87.023719184901,3,1,0,100,0,0
182415,-86.9565217391304,3,1,0,100,0,0
182588,-88.5976585410801,3,1,0,100,0,0
182631,-89.0176281609047,3,1,0,100,0,0
182760,-90.3019335450011,3,1,0,100,0,0
182803,-90.7382555207423,3,1,0,100,0,0
182933,-92.0729770416032,3,1,0,100,0,0
182976,-92.526710148052,3,1,0,100,0,0
183105,-93.914967510117,3,1,0,100,0,0
183277,-95.8321633823387,3,1,0,100,0,0
183364,-96.8204174896402,3,1,0,100,0,0
183450,-97.82926640768,3,1,0,100,0,0
183536,-98.8593606962862,3,1,0,100,0,0
183622,-99.9112787844394,3,1,0,100,0,0
183795,-100,3,1,0,100,0,0
183967,-96.3855421686747,3,1,0,100,0,0
184053,-94.6745562130178,3,1,0,100,0,0
184140,-93.0232558139535,3,1,0,100,0,0
184197,-91.9540229885058,3,1,0,100,0,0
184254,-90.9090909090909,3,1,0,100,0,0
184312,-89.8876404494382,3,1,0,100,0,0
184369,-88.8888888888889,3,1,0,100,0,0
184427,-87.9120879120879,3,1,0,100,0,0
184484,-86.9565217391304,3,1,0,100,0,0
184657,-86.9565217391304,3,1,0,100,0,0
184743,-88.8888888888889,3,1,0,100,0,0
184829,-90.9090909090909,3,1,0,100,0,0
184915,-93.0232558139535,3,1,0,100,0,0
185002,-95.2380952380952,3,1,0,100,0,0
185088,-97.5609756097561,3,1,0,100,0,0
185174,-100,3,1,0,100,0,0
185346,-99.4822941412887,3,1,0,100,0,0
185519,-98.969921061591,3,1,0,100,0,0
185691,-98.4628957346858,3,1,0,100,0,0
185777,-98.2112779938971,3,1,0,100,0,0
185864,-97.960942972037,3,1,0,100,0,0
185921,-97.7947288641142,3,1,0,100,0,0
185979,-97.6291731590067,3,1,0,100,0,0
186036,-97.4640820491628,3,1,0,100,0,0
186208,-96.9722358791454,3,1,0,100,0,0
186381,-96.4853289233106,3,1,0,100,0,0
186467,-96.2437044586821,3,1,0,100,0,0
186553,-96.0032871525521,3,1,0,100,0,0
186726,-95.5261292621371,3,1,0,100,0,0
186783,-95.3680682911663,3,1,0,100,0,0
186841,-95.210529522881,3,1,0,100,0,0
186898,-95.0536007254491,3,1,0,100,0,0
186984,-94.8190851854661,3,1,0,100,0,0
187071,-94.5857239875071,3,1,0,100,0,0
187157,-94.3535086295719,3,1,0,100,0,0
187243,-94.1224306929482,3,1,0,100,0,0
187329,-93.892481841194,3,1,0,100,0,0
187415,-93.6636538191355,3,1,0,100,0,0
187502,-93.4359384518786,3,1,0,100,0,0
187588,-93.2094145237046,3,1,0,100,0,0
187674,-92.9838998377431,3,1,0,100,0,0
187760,-92.7594737569535,3,1,0,100,0,0
187846,-92.5361284179376,3,1,0,100,0,0
187933,-92.313856032849,3,1,0,100,0,0
188105,-91.8724993454084,3,1,0,100,0,0
188277,-91.4353428688205,3,1,0,100,0,0
188364,-91.2183210173397,3,1,0,100,0,0
188450,-91.0023269294996,3,1,0,100,0,0
188536,-90.7874357451923,3,1,0,100,0,0
188622,-90.5734750144012,3,1,0,100,0,0
188795,-90.1485648348478,3,1,0,100,0,0
188852,-90.0077856734607,3,1,0,100,0,0
188910,-89.8675262795114,3,1,0,100,0,0
188967,-89.7276228281429,3,1,0,100,0,0
189025,-89.5881542958864,3,1,0,100,0,0
189082,-89.4491986693537,3,1,0,100,0,0
189140,-89.3105936653782,3,1,0,100,0,0
189226,-89.1035293907992,3,1,0,100,0,0
189312,-88.8974230415009,3,1,0,100,0,0
189484,-88.4881359531721,3,1,0,100,0,0
189571,-88.2848634718729,3,1,0,100,0,0
189657,-88.0825227539177,3,1,0,100,0,0
189829,-87.6806110987871,3,1,0,100,0,0
190002,-87.2823505486132,3,1,0,100,0,0
190059,-87.1504504371031,3,1,0,100,0,0
190117,-87.018872653101,3,1,0,100,0,0
190174,-86.887691576499,3,1,0,100,0,0
190260,-86.6916974494436,3,1,0,100,0,0
190346,-86.4966603639433,3,1,0,100,0,0
190519,-86.1090588452086,3,1,0,100,0,0
190691,-85.7249156038206,3,1,0,100,0,0
190864,-85.3441845619198,3,1,0,100,0,0
190950,-85.1550844397817,3,1,0,100,0,0
191036,-84.9668204566117,3,1,0,100,0,0
191208,-84.5927788220286,3,1,0,100,0,0
191266,-84.4688765977288,3,1,0,100,0,0
191323,-84.345265658066,3,1,0,100,0,0
191381,-84.2220869054026,3,1,0,100,0,0
191467,-84.0379212715946,3,1,0,100,0,0
191553,-83.8545592981709,3,1,0,100,0,0
191640,-83.6719957360751,3,1,0,100,0,0
191726,-83.4902253818634,3,1,0,100,0,0
191812,-83.3092430772102,3,1,0,100,0,0
191898,-83.1290437084199,3,1,0,100,0,0
191984,-82.9496222059457,3,1,0,100,0,0
192071,-82.7709735439137,3,1,0,100,0,0
192157,-82.5930927396542,3,1,0,100,0,0
192243,-82.4160427772228,3,1,0,100,0,0
192329,-82.2396826206168,3,1,0,100,0,0
192415,-82.0640756302521,3,1,0,100,0,0
192502,-81.889216991685,3,1,0,100,0,0
192588,-81.7151019314181,3,1,0,100,0,0
192674,-81.5417257164664,3,1,0,100,0,0
192760,-81.3690836539275,3,1,0,100,0,0
192846,-81.1971710905592,3,1,0,100,0,0
192933,-81.0259834123607,3,1,0,100,0,0
193019,-80.85551604416,3,1,0,100,0,0
193105,-80.6857644492067,3,1,0,100,0,0
193191,-80.5167889582496,3,1,0,100,0,0
193277,-80.3484551804265,3,1,0,100,0,0
193364,-80.1808237938198,3,1,0,100,0,0
193450,-80.0138904113754,3,1,0,100,0,1
193622,-80,3,1,0,100,0,1
193708,-80.8946953303537,3,1,0,100,0,1
193795,-81.8096289933325,3,1,0,100,0,1
193852,-82.4311246737788,3,1,0,100,0,1
193910,-83.0622044542938,3,1,0,100,0,1
193967,-83.7030216790826,3,1,0,100,0,1
194025,-84.35373231524,3,1,0,100,0,1
194082,-85.0147117958763,3,1,0,100,0,1
194140,-85.6860582785157,3,1,0,100,0,1
194197,-86.3681667665658,3,1,0,100,0,1
194254,-87.0611465256508,3,1,0,100,0,1
194312,-87.7654135813467,3,1,0,100,0,1
194369,-88.4811676682735,3,1,0,100,0,1
194427,-89.2086125562906,3,1,0,100,0,1
194484,-89.9481988322925,3,1,0,100,0,1
194571,-91.0808196545122,3,1,0,100,0,1
194657,-92.2423279749765,3,1,0,100,0,1
194743,-93.4338432329605,3,1,0,100,0,1
194829,-94.6564538663375,3,1,0,100,0,1
194915,-95.9115771987489,3,1,0,100,0,1
195002,-97.20043312513,3,1,0,100,0,1
195088,-98.5244000602969,3,1,0,100,0,1
195174,-99.8849325576935,3,1,0,100,0,1
195519,-100,3,1,0,100,0,1
195605,-98.7654320987654,3,1,0,100,0,1
195691,-97.5609756097561,3,1,0,100,0,1
195864,-95.2380952380952,3,1,0,100,0,1
195921,-94.4882187364469,3,1,0,100,0,1
195979,-93.7499707031342,3,1,0,100,0,1
196036,-93.0232558139535,3,1,0,100,0,1
196122,-91.9540229885058,3,1,0,100,0,1
196208,-90.9090909090909,3,1,0,100,0,1
196295,-89.8876404494382,3,1,0,100,0,1
196381,-88.8888888888889,3,1,0,100,0,1
196467,-87.9120879120879,3,1,0,100,0,1
196553,-86.9565217391304,3,1,0,100,0,1
196640,-88.3827112810809,3,1,0,100,0,1
196726,-89.8563825437803,3,1,0,100,0,1
196812,-91.3801138596219,3,1,0,100,0,1
196898,-92.9564136671956,3,1,0,100,0,1
196984,-94.5880501240995,3,1,0,100,0,1
197071,-96.2778965205168,3,1,0,100,0,1
197243,-100,3,1,0,100,0,1
197329,-99.0712074303406,3,1,0,100,0,1
197415,-98.159509202454,3,1,0,100,0,1
197502,-97.2644376899696,3,1,0,100,0,1
197588,-96.3855421686747,3,1,0,100,0,1
197674,-95.5223880597015,3,1,0,100,0,1
197760,-94.6745562130178,3,1,0,100,0,1
197818,-94.1176470588235,3,1,0,100,0,1
197875,-93.5672514619883,3,1,0,100,0,1
197933,-93.0232558139535,3,1,0,100,0,1
197990,-92.485549132948,3,1,0,100,0,1
198048,-91.9540229885058,3,1,0,100,0,1
198105,-91.4285714285714,3,1,0,100,0,1
198191,-90.6515580736544,3,1,0,100,0,1
198277,-89.8876404494382,3,1,0,100,0,1
198364,-89.1364902506964,3,1,0,100,0,1
198450,-88.3977900552486,3,1,0,100,0,1
198507,-87.9120879120879,3,1,0,100,0,1
198565,-87.431693989071,3,1,0,100,0,1
198622,-86.9565217391304,3,1,0,100,0,1
198708,-87.588299954892,3,1,0,100,0,1
198795,-88.229325663264,3,1,0,100,0,1
198881,-88.8798033978749,3,1,0,100,0,1
198967,-89.5399437689153,3,1,0,100,0,1
199053,-90.2099636904896,3,1,0,100,0,1
199140,-90.8900866182525,3,1,0,100,0,1
199312,-92.2814843661323,3,1,0,100,0,1
199369,-92.7548276568925,3,1,0,100,0,1
199427,-93.2330518627498,3,1,0,100,0,1
199484,-93.7162328698441,3,1,0,100,0,1
199571,-94.4504682854218,3,1,0,100,0,1
199657,-95.1962995294447,3,1,0,100,0,1
199743,-95.9540034888876,3,1,0,100,0,1
199829,-96.7238659368529,3,1,0,100,0,1
199915,-97.5061818919319,3,1,0,100,0,1
200002,-98.3012559951478,3,1,0,100,0,1
200088,-99.1094029054913,3,1,0,100,0,1
200174,-99.9309477151289,3,1,0,100,0,1
200346,-100,3,1,0,100,0,1
200433,-98.7738217764669,3,1,0,100,0,1
200519,-97.5773495650002,3,1,0,100,0,1
200605,-96.4096097242589,3,1,0,100,0,1
200691,-95.2693980403085,3,1,0,100,0,1
200864,-93.0680150360685,3,1,0,100,0,1
200950,-92.0050381958916,3,1,0,100,0,1
201036,-90.9661514950287,3,1,0,100,0,1
201122,-89.9503833685339,3,1,0,100,0,1
201208,-88.9570497572362,3,1,0,100,0,1
201295,-87.9854155375205,3,1,0,100,0,1
201381,-87.0347773563361,3,1,0,100,0,1
201553,-86.9565217391304,3,1,0,100,0,1
201640,-88.1057268722467,3,1,0,100,0,1
201726,-89.2857142857143,3,1,0,100,0,1
201898,-91.743119266055,3,1,0,100,0,1
202071,-94.3396226415094,3,1,0,100,0,1
202157,-95.6937799043062,3,1,0,100,0,1
202243,-97.0873786407767,3,1,0,100,0,1
202415,-100,3,1,0,100,0,1
202588,-100,3,1,0,100,0,1
202674,-98.5221674876847,3,1,0,100,0,1
202760,-97.0873786407767,3,1,0,100,0,1
202846,-95.6937799043062,3,1,0,100,0,1
202933,-94.3396226415094,3,1,0,100,0,1
203105,-91.743119266055,3,1,0,100,0,1
203277,-89.2857142857143,3,1,0,100,0,1
203450,-86.9565217391304,3,1,0,100,0,1
203536,-88.3827112810809,3,1,0,100,0,1
203622,-89.8563825437803,3,1,0,100,0,1
203708,-91.3801138596219,3,1,0,100,0,1
203795,-92.9564136671956,3,1,0,100,0,1
203838,-93.7650903192232,3,1,0,100,0,1
203967,-96.2778965205168,3,1,0,100,0,1
204010,-97.1457604132969,3,1,0,100,0,1
204140,-99.8456386426584,3,1,0,100,0,1
204484,-100,3,1,0,100,0,1
204571,-97.7722590769321,3,1,0,100,0,1
204657,-95.6416117524412,3,1,0,100,0,1
204743,-93.6019334415372,3,1,0,100,0,1
204829,-91.6473519872354,3,1,0,100,0,1
204872,-90.7003152742959,3,1,0,100,0,1
205002,-87.9732631658586,3,1,0,100,0,1
205045,-87.1003509273139,3,1,0,100,0,1
205174,-86.9565217391304,3,1,0,100,0,1
205260,-88.3827112810809,3,1,0,100,0,1
205346,-89.8563825437803,3,1,0,100,0,1
205433,-91.3801138596219,3,1,0,100,0,1
205519,-92.9564136671956,3,1,0,100,0,1
205605,-94.5880501240995,3,1,0,100,0,1
205691,-96.2778965205168,3,1,0,100,0,1
205777,-98.0293166474366,3,1,0,100,0,1
205864,-99.8456386426584,3,1,0,100,0,1
206036,-100,3,1,0,100,0,1
206208,-97.8760888714887,3,1,0,100,0,1
206295,-96.8476102852162,3,1,0,100,0,1
206381,-95.8405213724363,3,1,0,100,0,1
206553,-93.8879859994235,3,1,0,100,0,1
206726,-92.0133345724462,3,1,0,100,0,1
206812,-91.1038045859833,3,1,0,100,0,1
206898,-90.2120795778796,3,1,0,100,0,1
206984,-89.3376417900047,3,1,0,100,0,1
207071,-88.4799933463045,3,1,0,100,0,1
207243,-86.8131667793791,3,1,0,100,0,1
207415,-85.2079798977334,3,1,0,100,0,1
207588,-83.6611455887988,3,1,0,100,0,1
207645,-83.157870227154,3,1,0,100,0,1
207703,-82.6606820332875,3,1,0,100,0,1
207760,-82.1694037295049,3,1,0,100,0,1
207818,-81.6839305653917,3,1,0,100,0,1
207875,-81.2040943104351,3,1,0,100,0,1
207933,-80.7299277144227,3,1,0,100,0,1
208105,-79.3400179943161,3,1,0,100,0,1
208191,-78.6628572866978,3,1,0,100,0,1
208277,-77.9971577835704,3,1,0,100,0,1
208450,-76.6990566783019,3,1,0,100,0,1
208536,-76.0660466269653,3,1,0,100,0,1
208622,-75.4433997210103,3,1,0,100,0,1
208795,-74.2281937979375,3,1,0,100,0,1
208967,-73.0515151980025,3,1,0,100,0,1
209053,-72.477055576131,3,1,0,100,0,1
209140,-71.911560286697,3,1,0,100,0,1
209226,-71.3548211241667,3,1,0,100,0,1
209312,-70.8066362811788,3,1,0,100,0,1
209398,-70.2668594789291,3,1,0,100,0,1
209484,-69.7352014928912,3,1,0,100,0,1
209571,-69.2115284258668,3,1,0,100,0,1
209657,-68.6956617315703,3,1,0,100,0,1
209743,-68.1874281474976,3,1,0,100,0,1
209829,-67.6866595009056,3,1,0,100,0,1
209915,-67.1931925232791,3,1,0,100,0,1
210002,-66.7068686728535,3,1,0,100,0,0
211036,-100,3,1,0,100,0,0
223795,-100,3,1,0,100,0,0
223967,-98.5221674876847,3,1,0,100,0,0
224053,-97.799511002445,3,1,0,100,0,0
224140,-97.0873786407767,3,1,0,100,0,0
224312,-95.6937799043062,3,1,0,100,0,0
224484,-94.3396226415094,3,1,0,100,0,0
224542,-93.8967136150235,3,1,0,100,0,0
224599,-93.4579439252336,3,1,0,100,0,0
224657,-93.0232558139535,3,1,0,100,0,0
224743,-92.378752886836,3,1,0,100,0,0
224829,-91.743119266055,3,1,0,100,0,0
224915,-91.1161731207289,3,1,0,100,0,0
225002,-90.4977375565611,3,1,0,100,0,0
225059,-90.0900900900901,3,1,0,100,0,0
225117,-89.6860986547085,3,1,0,100,0,0
225174,-89.2857142857143,3,1,0,100,0,0
225346,-88.1057268722467,3,1,0,100,0,0
225519,-86.9565217391304,3,1,0,100,0,0
225605,-87.9120879120879,3,1,0,100,0,0
225691,-88.8888888888889,3,1,0,100,0,0
225777,-89.8876404494382,3,1,0,100,0,0
225864,-90.9090909090909,3,1,0,100,0,0
225950,-91.9540229885058,3,1,0,100,0,0
226036,-93.0232558139535,3,1,0,100,0,0
226122,-94.1176470588235,3,1,0,100,0,0
226208,-95.2380952380952,3,1,0,100,0,0
226381,-97.5609756097561,3,1,0,100,0,0
226467,-98.7654320987654,3,1,0,100,0,0
226553,-100,3,1,0,100,0,0
232760,-100,3,1,0,100,0,0
232933,-97.5773495650002,3,1,0,100,0,0
233105,-95.2693980403085,3,1,0,100,0,0
233191,-94.1558410988363,3,1,0,100,0,0
233277,-93.0680150360685,3,1,0,100,0,0
233364,-92.0050381958916,3,1,0,100,0,0
233450,-90.9661514950287,3,1,0,100,0,0
233622,-88.9570497572362,3,1,0,100,0,0
233795,-86.9565217391304,3,1,0,100,0,0
233881,-87.9120879120879,3,1,0,100,0,0
233967,-88.8888888888889,3,1,0,100,0,0
234053,-89.8876404494382,3,1,0,100,0,0
234140,-90.9090909090909,3,1,0,100,0,0
234226,-91.9540229885058,3,1,0,100,0,0
234312,-93.0232558139535,3,1,0,100,0,0
234398,-94.1176470588235,3,1,0,100,0,0
234484,-95.2380952380952,3,1,0,100,0,0
234571,-96.3855421686747,3,1,0,100,0,0
234657,-97.5609756097561,3,1,0,100,0,0
234743,-98.7654320987654,3,1,0,100,0,0
234829,-100,3,1,0,100,0,0
238967,-100,3,1,0,100,0,0
239312,-102.040816326531,3,1,0,60,0,0
239484,-103.092783505155,3,1,0,60,0,0
239657,-104.166666666667,3,1,0,60,0,0
239829,-105.263157894737,3,1,0,60,0,0
240002,-106.382978723404,3,1,0,60,0,0
240346,-108.695652173913,3,1,0,60,0,0
240519,-109.89010989011,3,1,0,60,0,0
240691,-111.111111111111,3,1,0,60,0,0
240864,-112.359550561798,3,1,0,60,0,0
241036,-113.636363636364,3,1,0,60,0,0
241381,-116.279069767442,3,1,0,60,0,0
241553,-117.647058823529,3,1,0,60,0,0
241726,-117.647058823529,3,1,0,100,0,0
241898,-111.111111111111,3,1,0,100,0,0
241984,-108.108108108108,3,1,0,100,0,0
242071,-105.263157894737,3,1,0,100,0,0
242157,-102.564102564103,3,1,0,100,0,0
242243,-100,3,1,0,100,0,0
242329,-97.5609756097561,3,1,0,100,0,0
242415,-95.2380952380952,3,1,0,100,0,0
242502,-93.0232558139535,3,1,0,100,0,0
242588,-90.9090909090909,3,1,0,100,0,0
242674,-88.8888888888889,3,1,0,100,0,0
242760,-86.9565217391304,3,1,0,100,0,0
242846,-85.1063829787234,3,1,0,100,0,0
242933,-83.3333333333333,3,1,0,100,0,0
243019,-81.6326530612245,3,1,0,100,0,0
243105,-80,3,1,0,100,0,1
243277,-80.3344483754768,3,1,0,100,0,1
243364,-80.5027234071329,3,1,0,100,0,1
243450,-80.6717048835423,3,1,0,100,0,1
243622,-81.0117394111581,3,1,0,100,0,1
243795,-81.3547187770759,3,1,0,100,0,1
243838,-81.5272998239826,3,1,0,100,0,1
243967,-81.7006146337239,3,1,0,100,0,1
244010,-81.8746678958783,3,1,0,100,0,1
244140,-82.049464340072,3,1,0,100,0,1
244312,-82.4013058958958,3,1,0,100,0,1
244355,-82.5783606708996,3,1,0,100,0,1
244484,-82.7561779555748,3,1,0,100,0,1
244657,-83.1140507627376,3,1,0,100,0,1
244829,-83.4751018813619,3,1,0,100,0,1
244872,-83.656806317762,3,1,0,100,0,1
245002,-83.8393035301377,3,1,0,100,0,1
245088,-84.0225987181512,3,1,0,100,0,1
245174,-84.2066971270359,3,1,0,100,0,1
245260,-84.3916040480965,3,1,0,100,0,1
245346,-84.577324819216,3,1,0,100,0,1
245433,-84.7638648253695,3,1,0,100,0,1
245519,-84.9511573320919,3,1,0,100,0,1
245691,-85.3283820117531,3,1,0,100,0,1
245864,-85.7089717580367,3,1,0,100,0,1
245950,-85.9005426337278,3,1,0,100,0,1
246036,-86.0929718002471,3,1,0,100,0,1
246094,-86.2216880309639,3,1,0,100,0,1
246151,-86.3508642858006,3,1,0,100,0,1
246208,-86.480428181896,3,1,0,100,0,1
246381,-86.8713877791069,3,1,0,100,0,1
246553,-87.265822166217,3,1,0,100,0,1
246640,-87.4644238456008,3,1,0,100,0,1
246726,-87.6639315520023,3,1,0,100,0,1
246812,-87.8643514995809,3,1,0,100,0,1
246898,-88.0656899594546,3,1,0,100,0,1
247071,-88.471147789283,3,1,0,100,0,1
247243,-88.8803563746769,3,1,0,100,0,1
247415,-89.2932882699872,3,1,0,100,0,1
247502,-89.5012364595817,3,1,0,100,0,1
247588,-89.7101554587284,3,1,0,100,0,1
247674,-89.9200520816942,3,1,0,100,0,1
247760,-90.1309332066693,3,1,0,100,0,1
247846,-90.342805776519,3,1,0,100,0,1
247933,-90.5556767995451,3,1,0,100,0,1
248105,-90.9844425701649,3,1,0,100,0,1
248277,-91.4172043521903,3,1,0,100,0,1
248450,-91.8541869894055,3,1,0,100,0,1
248536,-92.0742486741308,3,1,0,100,0,1
248622,-92.2953673263324,3,1,0,100,0,1
248795,-92.7408061401833,3,1,0,100,0,1
248838,-92.8528384648454,3,1,0,100,0,1
248967,-93.1905653871602,3,1,0,100,0,1
249010,-93.3036876416467,3,1,0,100,0,1
249140,-93.6447082311826,3,1,0,100,0,1
249183,-93.7589363986255,3,1,0,100,0,1
249312,-94.1032105192333,3,1,0,100,0,1
249484,-94.5663141549696,3,1,0,100,0,1
249571,-94.7995794690655,3,1,0,100,0,1
249657,-95.0339984129322,3,1,0,100,0,1
249829,-95.5063315922529,3,1,0,100,0,1
250002,-95.9833833566733,3,1,0,100,0,1
250088,-96.2237008597588,3,1,0,100,0,1
250174,-96.4651317134908,3,1,0,100,0,1
250260,-96.7078706667621,3,1,0,100,0,1
250346,-96.9518343287055,3,1,0,100,0,1
250519,-97.4434730412888,3,1,0,100,0,1
250576,-97.6084942816064,3,1,0,100,0,1
250634,-97.7739798018513,3,1,0,100,0,1
250691,-97.9401233262033,3,1,0,100,0,1
250777,-98.1903518160306,3,1,0,100,0,1
250864,-98.441862205019,3,1,0,100,0,1
250921,-98.6101880101845,3,1,0,100,0,1
250979,-98.7791880153187,3,1,0,100,0,1
251036,-98.9487682857324,3,1,0,100,0,1
251094,-99.1188335695665,3,1,0,100,0,1
251151,-99.2895830333961,3,1,0,100,0,1
251208,-99.460822879172,3,1,0,100,0,1
251295,-99.7188924422054,3,1,0,100,0,1
251381,-99.9783047078784,3,1,0,100,0,0
257243,-100,3,1,0,100,0,0
257329,-99.1176546384089,3,1,0,100,0,0
257415,-98.2507437581303,3,1,0,100,0,0
257473,-97.6811472455382,3,1,0,100,0,0
257530,-97.1181169962532,3,1,0,100,0,0
257588,-96.5616333593406,3,1,0,100,0,0
257674,-95.7386717216685,3,1,0,100,0,0
257760,-94.9296191803397,3,1,0,100,0,0
257846,-94.1340374559335,3,1,0,100,0,0
257933,-93.3517671956289,3,1,0,100,0,0
258019,-92.582391384653,3,1,0,100,0,0
258105,-91.8255938131588,3,1,0,100,0,0
258191,-91.0810685266635,3,1,0,100,0,0
258277,-90.3485194136381,3,1,0,100,0,0
258364,-89.6276598128395,3,1,0,100,0,0
258450,-88.9182121392922,3,1,0,100,0,0
258536,-88.2199075278929,3,1,0,100,0,0
258622,-87.5324854936788,3,1,0,100,0,0
258708,-86.8556936078552,3,1,0,100,0,0
258795,-86.1892871887382,3,1,0,100,0,0
258881,-85.5330290068161,3,1,0,100,0,0
258967,-84.8866169457456,3,1,0,100,0,0
259053,-84.2499730400086,3,1,0,100,0,0
259140,-83.6228076190413,3,1,0,100,0,0
259226,-83.0049105705094,3,1,0,100,0,0
259312,-82.3960779466897,3,1,0,100,0,0
259398,-81.7961117400323,3,1,0,100,0,0
259484,-81.204819668457,3,1,0,100,0,0
259571,-80.6220149698957,3,1,0,100,0,0
259657,-80.0475162056197,3,1,0,100,0,1
259829,-80,3,1,0,100,0,1
259915,-80.8946953303537,3,1,0,100,0,1
260002,-81.8096289933325,3,1,0,100,0,1
260059,-82.4311246737788,3,1,0,100,0,1
260117,-83.0622044542938,3,1,0,100,0,1
260174,-83.7030216790826,3,1,0,100,0,1
260231,-84.35373231524,3,1,0,100,0,1
260289,-85.0147117958763,3,1,0,100,0,1
260346,-85.6860582785157,3,1,0,100,0,1
260404,-86.3681667665658,3,1,0,100,0,1
260461,-87.0611465256508,3,1,0,100,0,1
260519,-87.7654135813467,3,1,0,100,0,1
260576,-88.4811676682735,3,1,0,100,0,1
260634,-89.2086125562906,3,1,0,100,0,1
260691,-89.9481988322925,3,1,0,100,0,1
260777,-91.0808196545122,3,1,0,100,0,1
260864,-92.2423279749765,3,1,0,100,0,1
260950,-93.4338432329605,3,1,0,100,0,1
261036,-94.6564538663375,3,1,0,100,0,1
261122,-95.9115771987489,3,1,0,100,0,1
261208,-97.20043312513,3,1,0,100,0,1
261295,-98.5244000602969,3,1,0,100,0,1
261381,-99.8849325576935,3,1,0,100,0,1
261726,-100,3,1,0,100,0,1
261898,-97.5609756097561,3,1,0,100,0,1
261984,-96.3855421686747,3,1,0,100,0,1
262071,-95.2380952380952,3,1,0,100,0,1
262128,-94.4882187364469,3,1,0,100,0,1
262185,-93.7499707031342,3,1,0,100,0,1
262243,-93.0232558139535,3,1,0,100,0,1
262329,-91.9540229885058,3,1,0,100,0,1
262415,-90.9090909090909,3,1,0,100,0,1
262502,-89.8876404494382,3,1,0,100,0,1
262588,-88.8888888888889,3,1,0,100,0,1
262674,-87.9120879120879,3,1,0,100,0,1
262760,-86.9565217391304,3,1,0,100,0,1
262933,-86.9565217391304,3,1,0,100,0,1
263019,-88.1057268722467,3,1,0,100,0,1
263105,-89.2857142857143,3,1,0,100,0,1
263191,-90.4977375565611,3,1,0,100,0,1
263277,-91.743119266055,3,1,0,100,0,1
263450,-94.3396226415094,3,1,0,100,0,1
263622,-97.0873786407767,3,1,0,100,0,1
263708,-98.5221674876847,3,1,0,100,0,1
263795,-100,3,1,0,100,0,1
263967,-100,3,1,0,100,0,1
264053,-98.5221674876847,3,1,0,100,0,1
264140,-97.0873786407767,3,1,0,100,0,1
264197,-96.1538461538461,3,1,0,100,0,1
264254,-95.2380952380952,3,1,0,100,0,1
264312,-94.3396226415094,3,1,0,100,0,1
264369,-93.4579439252336,3,1,0,100,0,1
264427,-92.5925925925926,3,1,0,100,0,1
264484,-91.743119266055,3,1,0,100,0,1
264542,-90.9090909090909,3,1,0,100,0,1
264599,-90.0900900900901,3,1,0,100,0,1
264657,-89.2857142857143,3,1,0,100,0,1
264714,-88.495575221239,3,1,0,100,0,1
264772,-87.719298245614,3,1,0,100,0,1
264829,-86.9565217391304,3,1,0,100,0,1
264915,-88.1057268722467,3,1,0,100,0,1
265002,-89.2857142857143,3,1,0,100,0,1
265088,-90.4977375565611,3,1,0,100,0,1
265174,-91.743119266055,3,1,0,100,0,1
265260,-93.0232558139535,3,1,0,100,0,1
265346,-94.3396226415094,3,1,0,100,0,1
265433,-95.6937799043062,3,1,0,100,0,1
265519,-97.0873786407767,3,1,0,100,0,1
265691,-100,3,1,0,100,0,1
265864,-100,3,1,0,100,0,1
265950,-98.7654320987654,3,1,0,100,0,1
266036,-97.5609756097561,3,1,0,100,0,1
266122,-96.3855421686747,3,1,0,100,0,1
266208,-95.2380952380952,3,1,0,100,0,1
266266,-94.4882187364469,3,1,0,100,0,1
266323,-93.7499707031342,3,1,0,100,0,1
266381,-93.0232558139535,3,1,0,100,0,1
266467,-91.9540229885058,3,1,0,100,0,1
266553,-90.9090909090909,3,1,0,100,0,1
266640,-89.8876404494382,3,1,0,100,0,1
266726,-88.8888888888889,3,1,0,100,0,1
266812,-87.9120879120879,3,1,0,100,0,1
266898,-86.9565217391304,3,1,0,100,0,1
267071,-86.9565217391304,3,1,0,100,0,1
267157,-88.1057268722467,3,1,0,100,0,1
267243,-89.2857142857143,3,1,0,100,0,1
267329,-90.4977375565611,3,1,0,100,0,1
267415,-91.743119266055,3,1,0,100,0,1
267502,-93.0232558139535,3,1,0,100,0,1
267588,-94.3396226415094,3,1,0,100,0,1
267674,-95.6937799043062,3,1,0,100,0,1
267760,-97.0873786407767,3,1,0,100,0,1
267846,-98.5221674876847,3,1,0,100,0,1
267933,-100,3,1,0,100,0,1
268019,-98.7654320987654,3,1,0,100,0,1
268105,-97.5609756097561,3,1,0,100,0,1
268191,-96.3855421686747,3,1,0,100,0,1
268277,-95.2380952380952,3,1,0,100,0,1
268335,-94.4882187364469,3,1,0,100,0,1
268392,-93.7499707031342,3,1,0,100,0,1
268450,-93.0232558139535,3,1,0,100,0,1
268507,-92.3077207100679,3,1,0,100,0,1
268565,-91.6030254647251,3,1,0,100,0,1
268622,-90.9090909090909,3,1,0,100,0,1
268680,-90.2255910452905,3,1,0,100,0,1
268737,-89.5522120739665,3,1,0,100,0,1
268795,-88.8888888888889,3,1,0,100,0,1
268852,-88.2353200692118,3,1,0,100,0,1
268910,-87.591215301835,3,1,0,100,0,1
268967,-86.9565217391304,3,1,0,100,0,1
269053,-87.9054418742847,3,1,0,100,0,1
269140,-88.8753008428934,3,1,0,100,0,1
269226,-89.8667186695412,3,1,0,100,0,1
269312,-90.8805874521173,3,1,0,100,0,1
269398,-91.9175940385925,3,1,0,100,0,1
269484,-92.9785396232696,3,1,0,100,0,1
269571,-94.0642628230755,3,1,0,100,0,1
269657,-95.1755513043809,3,1,0,100,0,1
269829,-97.4789981498486,3,1,0,100,0,1
270002,-99.8967068051635,3,1,0,100,0,1
270174,-100,3,1,0,100,0,1
270260,-98.5221674876847,3,1,0,100,0,1
270346,-97.0873786407767,3,1,0,100,0,1
270404,-96.1538461538461,3,1,0,100,0,1
270461,-95.2380952380952,3,1,0,100,0,1
270519,-94.3396226415094,3,1,0,100,0,1
270605,-93.0232558139535,3,1,0,100,0,1
270691,-91.743119266055,3,1,0,100,0,1
270777,-90.4977375565611,3,1,0,100,0,1
270864,-89.2857142857143,3,1,0,100,0,1
270950,-88.1057268722467,3,1,0,100,0,1
271036,-86.9565217391304,3,1,0,100,0,1
271208,-86.9565217391304,3,1,0,100,0,1
271295,-88.8618748789257,3,1,0,100,0,1
271381,-90.852514570472,3,1,0,100,0,1
271467,-92.9344709751707,3,1,0,100,0,1
271553,-95.1139941219552,3,1,0,100,0,1
271726,-99.7949214364481,3,1,0,100,0,1
271898,-100,3,1,0,100,0,1
271984,-98.9461248244943,3,1,0,100,0,1
272071,-97.9142310501693,3,1,0,100,0,1
272128,-97.2382395211211,3,1,0,100,0,1
272185,-96.5714247085716,3,1,0,100,0,1
272243,-95.9136930224707,3,1,0,100,0,1
272300,-95.2649508813913,3,1,0,100,0,1
272358,-94.6248361807524,3,1,0,100,0,1
272415,-93.9933546698248,3,1,0,100,0,1
272473,-93.3701585238552,3,1,0,100,0,1
272530,-92.7551717964915,3,1,0,100,0,1
272588,-92.1483182471178,3,1,0,100,0,1
272674,-91.252698798567,3,1,0,100,0,1
272760,-90.3743214018142,3,1,0,100,0,1
272846,-89.5126928998532,3,1,0,100,0,1
272933,-88.6673387650945,3,1,0,100,0,1
273019,-87.837802227918,3,1,0,100,0,1
273105,-87.023719184901,3,1,0,100,0,1
273277,-86.9565217391304,3,1,0,100,0,1
273364,-88.0961022760509,3,1,0,100,0,1
273450,-89.2659482543151,3,1,0,100,0,1
273536,-90.4672816029355,3,1,0,100,0,1
273622,-91.7013909266976,3,1,0,100,0,1
273795,-94.2734533497243,3,1,0,100,0,1
273881,-95.614360512034,3,1,0,100,0,1
273967,-96.9939630957369,3,1,0,100,0,1
274053,-98.4139606107964,3,1,0,100,0,1
274140,-99.8761535695737,3,1,0,100,0,1
274312,-100,3,1,0,100,0,1
274398,-98.876368943328,3,1,0,100,0,1
274484,-97.7778038518588,3,1,0,100,0,1
274571,-96.7032882019087,3,1,0,100,0,1
274657,-95.6521323251599,3,1,0,100,0,1
274743,-94.6236721933199,3,1,0,100,0,1
274829,-93.6170053417863,3,1,0,100,0,1
274915,-92.6316179501549,3,1,0,100,0,1
275002,-91.6666743055562,3,1,0,100,0,1
275088,-90.7216270379479,3,1,0,100,0,1
275174,-89.7959476884727,3,1,0,100,0,1
275260,-88.8888888888889,3,1,0,100,0,1
275346,-87.999971840009,3,1,0,100,0,1
275433,-87.1287335751446,3,1,0,100,0,1
275519,-86.2745030372939,3,1,0,100,0,1
275605,-85.4368600245204,3,1,0,100,0,1
275691,-84.6153976331381,3,1,0,100,0,1
275777,-83.8095110385507,3,1,0,100,0,1
275864,-83.0188992524148,3,1,0,100,0,1
275950,-82.2429968032147,3,1,0,100,0,1
276036,-81.4814633744896,3,1,0,100,0,1
276122,-80.733968655844,3,1,0,100,0,1
276208,-80,3,1,0,100,0,1
276381,-80,3,1,0,100,0,1
276467,-80.6699477823428,3,1,0,100,0,1
276553,-81.3511448953377,3,1,0,100,0,1
276640,-82.0440116896308,3,1,0,100,0,1
276726,-82.748713671246,3,1,0,100,0,1
276812,-83.4656960162658,3,1,0,100,0,1
276898,-84.1952116499231,3,1,0,100,0,1
276984,-84.9375199603172,3,1,0,100,0,1
277071,-85.6931072749163,3,1,0,100,0,1
277157,-86.4622583596035,3,1,0,100,0,1
277243,-87.2452656356603,3,1,0,100,0,1
277329,-88.0426619522756,3,1,0,100,0,1
277415,-88.8546897060954,3,1,0,100,0,1
277473,-89.4044945427497,3,1,0,100,0,1
277530,-89.9610648511324,3,1,0,100,0,1
277588,-90.5246901566168,3,1,0,100,0,1
277645,-91.0953394713373,3,1,0,100,0,1
277703,-91.6733129818578,3,1,0,100,0,1
277760,-92.2585823546235,3,1,0,100,0,1
277846,-93.1507206605504,3,1,0,100,0,1
277933,-94.0601928798315,3,1,0,100,0,1
278019,-94.9876895954284,3,1,0,100,0,1
278105,-95.9335679228847,3,1,0,100,0,1
278191,-96.8985675484759,3,1,0,100,0,1
278277,-97.883178384262,3,1,0,100,0,1
278364,-98.88790660235,3,1,0,100,0,1
278450,-99.9135747578345,3,1,0,100,0,1
278622,-100,3,1,0,100,0,1
278708,-98.1781088343608,3,1,0,100,0,1
278795,-96.4215085530699,3,1,0,100,0,1
278881,-94.7265717506418,3,1,0,100,0,1
278967,-93.090194158218,3,1,0,100,0,1
279053,-91.5093925240487,3,1,0,100,0,1
279140,-89.9814638184534,3,1,0,100,0,1
279226,-88.5036423674016,3,1,0,100,0,1
279312,-87.0735789156553,3,1,0,100,0,1
279484,-86.9565217391304,3,1,0,100,0,1
279571,-88.1057268722467,3,1,0,100,0,1
279657,-89.2857142857143,3,1,0,100,0,1
279743,-90.4977375565611,3,1,0,100,0,1
279829,-91.743119266055,3,1,0,100,0,1
279915,-93.0232558139535,3,1,0,100,0,1
280002,-94.3396226415094,3,1,0,100,0,1
280088,-95.6937799043062,3,1,0,100,0,1
280174,-97.0873786407767,3,1,0,100,0,1
280260,-98.5221674876847,3,1,0,100,0,1
280346,-100,3,1,0,100,0,1
280519,-100,3,1,0,100,0,1
280605,-98.7654320987654,3,1,0,100,0,1
280691,-97.5609756097561,3,1,0,100,0,1
280749,-96.774224765879,3,1,0,100,0,1
280806,-95.9999692800098,3,1,0,100,0,1
280864,-95.2380952380952,3,1,0,100,0,1
280950,-94.1176470588235,3,1,0,100,0,1
281036,-93.0232558139535,3,1,0,100,0,1
281122,-91.9540229885058,3,1,0,100,0,1
281208,-90.9090909090909,3,1,0,100,0,1
281295,-89.8876404494382,3,1,0,100,0,1
281381,-88.8888888888889,3,1,0,100,0,1
281553,-86.9565217391304,3,1,0,100,0,1
281640,-88.8618748789257,3,1,0,100,0,1
281726,-90.852514570472,3,1,0,100,0,1
281812,-92.9344709751707,3,1,0,100,0,1
281898,-95.1139941219552,3,1,0,100,0,1
282071,-99.7949214364481,3,1,0,100,0,1
282157,-99.0712074303406,3,1,0,100,0,1
282243,-98.159509202454,3,1,0,100,0,1
282300,-97.5609756097561,3,1,0,100,0,1
282358,-96.969696969697,3,1,0,100,0,1
282415,-96.3855421686747,3,1,0,100,0,1
282502,-95.5223880597015,3,1,0,100,0,1
282588,-94.6745562130178,3,1,0,100,0,1
282674,-93.841642228739,3,1,0,100,0,1
282760,-93.0232558139535,3,1,0,100,0,1
282846,-92.2190201729107,3,1,0,100,0,1
282933,-91.4285714285714,3,1,0,100,0,1
283019,-90.6515580736544,3,1,0,100,0,1
283105,-89.8876404494382,3,1,0,100,0,1
283191,-89.1364902506964,3,1,0,100,0,1
283277,-88.3977900552486,3,1,0,100,0,1
283364,-87.6712328767123,3,1,0,100,0,1
283450,-86.9565217391304,3,1,0,100,0,1
283622,-86.9565217391304,3,1,0,100,0,1
283708,-88.1057268722467,3,1,0,100,0,1
283795,-89.2857142857143,3,1,0,100,0,1
283881,-90.4977375565611,3,1,0,100,0,1
283967,-91.743119266055,3,1,0,100,0,1
284053,-93.0232558139535,3,1,0,100,0,1
284140,-94.3396226415094,3,1,0,100,0,1
284226,-95.6937799043062,3,1,0,100,0,1
284312,-97.0873786407767,3,1,0,100,0,1
284398,-98.5221674876847,3,1,0,100,0,1
284484,-100,3,1,0,100,0,1
284571,-98.7738217764669,3,1,0,100,0,1
284657,-97.5773495650002,3,1,0,100,0,1
284743,-96.4096097242589,3,1,0,100,0,1
284829,-95.2693980403085,3,1,0,100,0,1
284887,-94.5241230288176,3,1,0,100,0,1
284944,-93.7904178081742,3,1,0,100,0,1
285002,-93.0680150360685,3,1,0,100,0,1
285059,-92.3566555438468,3,1,0,100,0,1
285117,-91.6561720349687,3,1,0,100,0,1
285174,-90.9661514950287,3,1,0,100,0,1
285231,-90.2864427683268,3,1,0,100,0,1
285289,-89.6168164163669,3,1,0,100,0,1
285346,-88.9570497572362,3,1,0,100,0,1
285404,-88.3069266187101,3,1,0,100,0,1
285461,-87.6662371021049,3,1,0,100,0,1
285519,-86.9565217391304,3,1,0,100,0,1
285605,-87.9120879120879,3,1,0,100,0,1
285691,-88.8888888888889,3,1,0,100,0,1
285777,-89.8876404494382,3,1,0,100,0,1
285864,-90.9090909090909,3,1,0,100,0,1
285950,-91.9540229885058,3,1,0,100,0,1
286036,-93.0232558139535,3,1,0,100,0,1
286122,-94.1176470588235,3,1,0,100,0,1
286208,-95.2380952380952,3,1,0,100,0,1
286381,-97.5609756097561,3,1,0,100,0,1
286553,-100,3,1,0,100,0,1
286726,-100,3,1,0,100,0,1
286812,-98.5221674876847,3,1,0,100,0,1
286898,-97.0873786407767,3,1,0,100,0,1
286956,-96.1538461538461,3,1,0,100,0,1
287013,-95.2380952380952,3,1,0,100,0,1
287071,-94.3396226415094,3,1,0,100,0,1
287157,-93.0232558139535,3,1,0,100,0,1
287243,-91.743119266055,3,1,0,100,0,1
287329,-90.4977375565611,3,1,0,100,0,1
287415,-89.2857142857143,3,1,0,100,0,1
287502,-88.1057268722467,3,1,0,100,0,1
287588,-86.9565217391304,3,1,0,100,0,1
287760,-86.9565217391304,3,1,0,100,0,1
287846,-88.1057268722467,3,1,0,100,0,1
287933,-89.2857142857143,3,1,0,100,0,1
288019,-90.4977375565611,3,1,0,100,0,1
288105,-91.743119266055,3,1,0,100,0,1
288277,-94.3396226415094,3,1,0,100,0,1
288450,-97.0873786407767,3,1,0,100,0,1
288536,-98.5221674876847,3,1,0,100,0,1
288622,-100,3,1,0,100,0,1
288795,-100,3,1,0,100,0,1
288881,-98.5221674876847,3,1,0,100,0,1
288967,-97.0873786407767,3,1,0,100,0,1
289053,-95.6937799043062,3,1,0,100,0,1
289140,-94.3396226415094,3,1,0,100,0,1
289226,-93.0232558139535,3,1,0,100,0,1
289312,-91.743119266055,3,1,0,100,0,1
289398,-90.4977375565611,3,1,0,100,0,1
289484,-89.2857142857143,3,1,0,100,0,1
289571,-88.1057268722467,3,1,0,100,0,1
289657,-86.9565217391304,3,1,0,100,0,1
289829,-86.9565217391304,3,1,0,100,0,1
290002,-89.2857142857143,3,1,0,100,0,1
290174,-91.743119266055,3,1,0,100,0,1
290260,-93.0232558139535,3,1,0,100,0,1
290346,-94.3396226415094,3,1,0,100,0,1
290404,-95.2380952380952,3,1,0,100,0,1
290461,-96.1538461538461,3,1,0,100,0,1
290519,-97.0873786407767,3,1,0,100,0,1
290576,-98.0392156862745,3,1,0,100,0,1
290634,-99.009900990099,3,1,0,100,0,1
290691,-100,3,1,0,100,0,1
290777,-98.9725657944874,3,1,0,100,0,1
290864,-97.966125273203,3,1,0,100,0,1
290950,-96.9798534052536,3,1,0,100,0,1
291036,-96.013334331872,3,1,0,100,0,1
291122,-95.0657997933269,3,1,0,100,0,1
291208,-94.1367845133693,3,1,0,100,0,1
291295,-93.2258377273778,3,1,0,100,0,1
291381,-92.3322668956507,3,1,0,100,0,1
291467,-91.4556632090329,3,1,0,100,0,1
291553,-90.5956300291899,3,1,0,100,0,1
291640,-89.7515408095769,3,1,0,100,0,1
291726,-88.9231144075898,3,1,0,100,0,1
291812,-88.1097636191262,3,1,0,100,0,1
291898,-87.3111568815598,3,1,0,100,0,1
291984,-86.5269717550006,3,1,0,100,0,1
292071,-85.7566740131551,3,1,0,100,0,1
292157,-84.9999702500104,3,1,0,100,0,1
292243,-84.2565747511693,3,1,0,100,0,1
292329,-83.5259999732717,3,1,0,100,0,1
292415,-82.8080542425879,3,1,0,100,0,1
292502,-82.1022780919102,3,1,0,100,0,1
292588,-81.4084309827463,3,1,0,100,0,1
292674,-80.7262781795256,3,1,0,100,0,1
292760,-80.0553983356483,3,1,0,100,0,0
293105,-80,3,1,0,100,0,0
293277,-80.5746584641664,3,1,0,100,0,0
293450,-81.1576983352121,3,1,0,100,0,0
293536,-81.452327581713,3,1,0,100,0,0
293622,-81.7491706546637,3,1,0,100,0,0
293708,-82.0481852582385,3,1,0,100,0,0
293795,-82.349327494217,3,1,0,100,0,0
293967,-82.9584303601308,3,1,0,100,0,0
294140,-83.5765410678408,3,1,0,100,0,0
294226,-83.8890282378858,3,1,0,100,0,0
294312,-84.2039318183923,3,1,0,100,0,0
294484,-84.8408131822262,3,1,0,100,0,0
294657,-85.4874752300041,3,1,0,100,0,0
294714,-85.8144434289735,3,1,0,100,0,0
294772,-85.9789042160616,3,1,0,100,0,0
294829,-86.1439965818062,3,1,0,100,0,0
295002,-86.8106797970714,3,1,0,100,0,0
295174,-87.4878391903525,3,1,0,100,0,0
295346,-88.1755681372294,3,1,0,100,0,0
295433,-88.5235423934818,3,1,0,100,0,0
295519,-88.8741950219786,3,1,0,100,0,0
295605,-89.2277162701387,3,1,0,100,0,0
295691,-89.5840612038306,3,1,0,100,0,0
295864,-90.3052769888608,3,1,0,100,0,0
296036,-91.0381996285641,3,1,0,100,0,0
296122,-91.4091822351739,3,1,0,100,0,0
296208,-91.7831164957206,3,1,0,100,0,0
296295,-92.1602076185157,3,1,0,100,0,0
296381,-92.5404100835732,3,1,0,100,0,0
296467,-92.9236762093087,3,1,0,100,0,0
296553,-93.310217282172,3,1,0,100,0,0
296726,-94.0929393599234,3,1,0,100,0,0
296898,-94.8889941102401,3,1,0,100,0,0
297071,-95.6985419370151,3,1,0,100,0,0
297157,-96.1085642341589,3,1,0,100,0,0
297243,-96.5220219819253,3,1,0,100,0,0
297415,-97.3598918136882,3,1,0,100,0,0
297588,-98.2123390054233,3,1,0,100,0,0
297674,-98.6442336526776,3,1,0,100,0,0
297760,-99.079845475073,3,1,0,100,0,0
297846,-99.5194207173559,3,1,0,100,0,0
297933,-99.9629137589954,3,1,0,100,0,0
298277,-100,3,1,0,100,0,0
298450,-98.5281859581571,3,1,0,100,0,0
298622,-97.0990682373412,3,1,0,100,0,0
298708,-96.4000370176142,3,1,0,100,0,0
298795,-95.7109071192644,3,1,0,100,0,0
298881,-95.0315599810697,3,1,0,100,0,0
298967,-94.3617887598124,3,1,0,100,0,0
299140,-93.0501754461058,3,1,0,100,0,0
299312,-91.7745246767931,3,1,0,100,0,0
299398,-91.1498092690241,3,1,0,100,0,0
299484,-90.5334593559087,3,1,0,100,0,0
299571,-89.9253889048257,3,1,0,100,0,0
299657,-89.3254322011037,3,1,0,100,0,0
299829,-88.1492189979197,3,1,0,100,0,0
300002,-87.0035793272535,3,1,0,100,0,0
300346,-86.9565217391304,3,1,0,100,0,0
300519,-88.3902109609165,3,1,0,100,0,0
300605,-89.1248916018506,3,1,0,100,0,0
300691,-89.8719683938262,3,1,0,100,0,0
300864,-91.4042526742599,3,1,0,100,0,0
300950,-92.1901144540271,3,1,0,100,0,0
301036,-92.9896065516757,3,1,0,100,0,0
301208,-94.6310147472973,3,1,0,100,0,0
301381,-96.3314108794769,3,1,0,100,0,0
301467,-97.2047793645918,3,1,0,100,0,0
301553,-98.0940329399763,3,1,0,100,0,0
301640,-98.9997069608674,3,1,0,100,0,0
301726,-99.9223603260267,3,1,0,100,0,0
301898,-100,3,1,0,100,0,0
302071,-98.8628791638573,3,1,0,100,0,0
302157,-98.3040583847464,3,1,0,100,0,0
302243,-97.751423993869,3,1,0,100,0,0
302329,-97.2049683403418,3,1,0,100,0,0
302415,-96.6645883780165,3,1,0,100,0,0
302502,-96.1301833394857,3,1,0,100,0,0
302588,-95.6017460702902,3,1,0,100,0,0
302674,-95.0789963841458,3,1,0,100,0,0
302760,-94.5619323920008,3,1,0,100,0,0
302846,-94.0504618347928,3,1,0,100,0,0
302933,-93.5444944387798,3,1,0,100,0,0
302990,-93.2102833312982,3,1,0,100,0,0
303048,-92.8783655636742,3,1,0,100,0,0
303105,-92.548803297699,3,1,0,100,0,0
303277,-91.5740014084082,3,1,0,100,0,0
303450,-90.6196024699279,3,1,0,100,0,0
303536,-90.1497838658932,3,1,0,100,0,0
303622,-89.6848116977694,3,1,0,100,0,0
303708,-89.2246113598991,3,1,0,100,0,0
303795,-88.7691097701058,3,1,0,100,0,0
303967,-87.8719951072873,3,1,0,100,0,0
304140,-86.9565217391304,3,1,0,100,0,0
304226,-87.431693989071,3,1,0,100,0,0
304312,-87.9120879120879,3,1,0,100,0,0
304398,-88.3977900552486,3,1,0,100,0,0
304484,-88.8888888888889,3,1,0,100,0,0
304571,-89.3854748603352,3,1,0,100,0,0
304657,-89.8876404494382,3,1,0,100,0,0
304743,-90.3954802259887,3,1,0,100,0,0
304829,-90.9090909090909,3,1,0,100,0,0
305002,-91.9540229885058,3,1,0,100,0,0
305174,-93.0232558139535,3,1,0,100,0,0
305346,-94.1176470588235,3,1,0,100,0,0
305433,-94.6745562130178,3,1,0,100,0,0
305519,-95.2380952380952,3,1,0,100,0,0
305691,-96.3855421686747,3,1,0,100,0,0
305864,-97.5609756097561,3,1,0,100,0,0
305950,-98.159509202454,3,1,0,100,0,0
306036,-98.7654320987654,3,1,0,100,0,0
306122,-99.3788819875776,3,1,0,100,0,0
306208,-100,3,1,0,100,0,0
307071,-100,3,1,0,100,0,0
307243,-98.1131853328637,3,1,0,100,0,0
307329,-97.1962762162656,3,1,0,100,0,0
307415,-96.2962534979614,3,1,0,100,0,0
307502,-95.4128370339202,3,1,0,100,0,0
307588,-94.5454820495948,3,1,0,100,0,0
307674,-93.6936666829069,3,1,0,100,0,0
307760,-92.8571494897964,3,1,0,100,0,0
307846,-92.0354373247875,3,1,0,100,0,0
307933,-91.2280573715007,3,1,0,100,0,0
308019,-90.4348014820455,3,1,0,100,0,0
308105,-89.6551414982271,3,1,0,100,0,0
308191,-88.8888888888889,3,1,0,100,0,0
308277,-88.1356230968214,3,1,0,100,0,0
308364,-87.394940357323,3,1,0,100,0,0
308450,-86.6666782222238,3,1,0,100,0,0
308536,-85.9503791271223,3,1,0,100,0,0
308622,-85.2458960494494,3,1,0,100,0,0
308708,-84.5528675259493,3,1,0,100,0,0
308795,-83.8709460978204,3,1,0,100,0,0
308881,-83.2000053248003,3,1,0,100,0,0
308967,-82.5397139833831,3,1,0,100,0,0
309053,-81.8897534627082,3,1,0,100,0,0
309140,-81.2500152343779,3,1,0,100,0,0
309226,-80.6201300402698,3,1,0,100,0,0
309312,-80,3,1,0,100,0,0
309657,-80,3,1,0,100,0,0
309714,-80.1909185388573,3,1,0,100,0,0
309772,-80.3827505048037,3,1,0,100,0,0
309829,-80.5755673930017,3,1,0,100,0,0
309915,-80.8664353347506,3,1,0,100,0,0
310002,-81.1594108800683,3,1,0,100,0,0
310088,-81.4545170195141,3,1,0,100,0,0
310174,-81.7518439128394,3,1,0,100,0,0
310260,-82.0512820512821,3,1,0,100,0,0
310346,-82.3529217993125,3,1,0,100,0,0
310519,-82.9629727956116,3,1,0,100,0,0
310605,-83.2713655587967,3,1,0,100,0,0
310691,-83.5820596123966,3,1,0,100,0,0
310777,-83.8951511958415,3,1,0,100,0,0
310864,-84.2105263157895,3,1,0,100,0,0
311036,-84.8485157024906,3,1,0,100,0,0
311208,-85.4961727638262,3,1,0,100,0,0
311266,-85.7142612244968,3,1,0,100,0,0
311323,-85.9335390009367,3,1,0,100,0,0
311381,-86.153867360952,3,1,0,100,0,0
311467,-86.4864864864865,3,1,0,100,0,0
311553,-86.8216838891947,3,1,0,100,0,0
311726,-87.5000109375014,3,1,0,100,0,0
311812,-87.8431262314508,3,1,0,100,0,0
311898,-88.1889430466987,3,1,0,100,0,0
311984,-88.5375718039707,3,1,0,100,0,0
312071,-88.8888888888889,3,1,0,100,0,0
312243,-89.6000344064132,3,1,0,100,0,0
312415,-90.3225689906363,3,1,0,100,0,0
312502,-90.6882238620668,3,1,0,100,0,0
312588,-91.0569342587146,3,1,0,100,0,0
312674,-91.4285714285714,3,1,0,100,0,0
312760,-91.8032546089824,3,1,0,100,0,0
312933,-92.5619957106771,3,1,0,100,0,0
313019,-92.9460457499026,3,1,0,100,0,0
313105,-93.3332960000149,3,1,0,100,0,0
313191,-93.7238744699915,3,1,0,100,0,0
313277,-94.1176470588235,3,1,0,100,0,0
313364,-94.514742409521,3,1,0,100,0,0
313450,-94.9152928468988,3,1,0,100,0,0
313536,-95.3191619158008,3,1,0,100,0,0
313622,-95.7264826356947,3,1,0,100,0,0
313708,-96.1372994455762,3,1,0,100,0,0
313795,-96.5517507728968,3,1,0,100,0,0
313881,-96.969696969697,3,1,0,100,0,0
313967,-97.3912772476446,3,1,0,100,0,0
314140,-98.2456278239478,3,1,0,100,0,0
314226,-98.6784001863048,3,1,0,100,0,0
314312,-99.1150021458398,3,1,0,100,0,0
314398,-99.5555838735883,3,1,0,100,0,0
314484,-100,3,1,0,100,0,0
314657,-100,3,1,0,100,0,0
314743,-99.3228170334658,3,1,0,100,0,0
314829,-98.6547439120158,3,1,0,100,0,0
314915,-97.9955020064579,3,1,0,100,0,0
315002,-97.3451068995291,3,1,0,100,0,0
315088,-96.7032882019087,3,1,0,100,0,0
315174,-96.0698773860155,3,1,0,100,0,0
315260,-95.4447103109875,3,1,0,100,0,0
315346,-94.8276270808737,3,1,0,100,0,0
315433,-94.2183831371707,3,1,0,100,0,0
315519,-93.6170053417863,3,1,0,100,0,0
315605,-93.0232558139535,3,1,0,100,0,0
315691,-92.4369903255446,3,1,0,100,0,0
315749,-92.0501783932457,3,1,0,100,0,0
315806,-91.6666743055562,3,1,0,100,0,0
315864,-91.2862691758219,3,1,0,100,0,0
315921,-90.9090909090909,3,1,0,100,0,0
315979,-90.5350166810768,3,1,0,100,0,0
316036,-90.1639270357437,3,1,0,100,0,0
316122,-89.6130419236694,3,1,0,100,0,0
316208,-89.0688475470885,3,1,0,100,0,0
316295,-88.531222748983,3,1,0,100,0,0
316381,-87.999971840009,3,1,0,100,0,0
316467,-87.4751351928214,3,1,0,100,0,0
316553,-86.9565217391304,3,1,0,100,0,0
316726,-86.9565217391304,3,1,0,100,0,0
316812,-88.1057268722467,3,1,0,100,0,0
316898,-89.2857142857143,3,1,0,100,0,0
316984,-90.4977375565611,3,1,0,100,0,0
317071,-91.743119266055,3,1,0,100,0,0
317157,-93.0232558139535,3,1,0,100,0,0
317243,-94.3396226415094,3,1,0,100,0,0
317329,-95.6937799043062,3,1,0,100,0,0
317415,-97.0873786407767,3,1,0,100,0,0
317502,-98.5221674876847,3,1,0,100,0,0
317588,-100,3,1,0,100,0,0
317760,-100,3,1,0,100,0,0
317846,-97.5609756097561,3,1,0,100,0,0
317933,-95.2380952380952,3,1,0,100,0,0
317990,-93.7499707031342,3,1,0,100,0,0
318048,-92.3077207100679,3,1,0,100,0,0
318105,-90.9090909090909,3,1,0,100,0,0
318162,-89.5522120739665,3,1,0,100,0,0
318220,-88.2353200692118,3,1,0,100,0,0
318277,-86.9565217391304,3,1,0,100,0,0
318364,-87.2719910144758,3,1,0,100,0,0
318450,-87.5897576041048,3,1,0,100,0,0
318536,-87.9098466940184,3,1,0,100,0,0
318622,-88.2322838397278,3,1,0,100,0,0
318708,-88.5570949730565,3,1,0,100,0,0
318795,-88.8843064090918,3,1,0,100,0,0
318881,-89.2139448532921,3,1,0,100,0,0
318967,-89.5460374087526,3,1,0,100,0,0
319053,-89.8806115836335,3,1,0,100,0,0
319140,-90.2176952987559,3,1,0,100,0,0
319226,-90.5573168953692,3,1,0,100,0,0
319312,-90.8995877703695,3,1,0,100,0,0
319398,-91.2443725033259,3,1,0,100,0,0
319484,-91.5917827516187,3,1,0,100,0,0
319571,-91.9418486195851,3,1,0,100,0,0
319657,-92.294600673566,3,1,0,100,0,0
319743,-92.6500699508028,3,1,0,100,0,0
319829,-93.0082879685409,3,1,0,100,0,0
319915,-93.3692867333448,3,1,0,100,0,0
320002,-93.7330987506315,3,1,0,100,0,0
320088,-94.0997570344273,3,1,0,100,0,0
320174,-94.4692951173545,3,1,0,100,0,0
320260,-94.8417470608542,3,1,0,100,0,0
320346,-95.2171474656528,3,1,0,100,0,0
320433,-95.5955314824764,3,1,0,100,0,0
320519,-95.9769348230233,3,1,0,100,0,0
320605,-96.3613937711995,3,1,0,100,0,0
320691,-96.748945194625,3,1,0,100,0,0
320777,-97.1396265564197,3,1,0,100,0,0
320864,-97.5334759272751,3,1,0,100,0,0
320950,-97.930531997822,3,1,0,100,0,0
321036,-98.3308340913002,3,1,0,100,0,0
321122,-98.7344221765411,3,1,0,100,0,0
321208,-99.1413368812713,3,1,0,100,0,0
321295,-99.5517186110942,3,1,0,100,0,0
321381,-99.9654119674593,3,1,0,100,0,0
321553,-100,3,1,0,100,0,0
321640,-99.0115675214335,3,1,0,100,0,0
321726,-98.0423876458748,3,1,0,100,0,0
321812,-97.0920918491189,3,1,0,100,0,0
321898,-96.1600410795696,3,1,0,100,0,0
321984,-95.2456241779112,3,1,0,100,0,0
322071,-94.3485234456081,3,1,0,100,0,0
322157,-93.4680769130111,3,1,0,100,0,0
322243,-92.6039966032854,3,1,0,100,0,0
322329,-91.755746203606,3,1,0,100,0,0
322415,-90.9228119879909,3,1,0,100,0,0
322502,-90.104945229709,3,1,0,100,0,0
322588,-89.3016610108948,3,1,0,100,0,0
322674,-88.5124944237129,3,1,0,100,0,0
322760,-87.7372305041294,3,1,0,100,0,0
322846,-86.9754294411829,3,1,0,100,0,0
322933,-86.2266692189761,3,1,0,100,0,0
323019,-85.4907640053107,3,1,0,100,0,0
323105,-84.7673137238281,3,1,0,100,0,0
323191,-84.0559341808413,3,1,0,100,0,0
323277,-83.3564647523021,3,1,0,100,0,0
323364,-82.6684721460983,3,1,0,100,0,0
323450,-81.9918106579515,3,1,0,100,0,0
323536,-81.3261365124262,3,1,0,100,0,0
323622,-80.6711191746377,3,1,0,100,0,0
323708,-80.026632863417,3,1,0,100,0,0
323795,-79.3923626135013,3,1,0,100,0,0
323881,-78.7680053814301,3,1,0,100,0,0
323967,-78.1534527413887,3,1,0,100,0,0
324053,-77.5484154144536,3,1,0,100,0,0
324140,-76.9526148883302,3,1,0,100,0,0
324226,-76.3659578887562,3,1,0,100,0,0
324312,-75.7881206668142,3,1,0,100,0,0
324398,-75.2190189785107,3,1,0,100,0,0
324484,-74.6584004885646,3,1,0,100,0,0
324571,-74.1060220035601,3,1,0,100,0,0
324657,-73.561811415469,3,1,0,100,0,0
324743,-73.0255355692779,3,1,0,100,0,0
324829,-72.4969696266696,3,1,0,100,0,0
324915,-71.976052127936,3,1,0,100,0,0
325002,-71.4625671926788,3,1,0,100,0,0
325088,-70.9563065255677,3,1,0,100,0,0
325174,-70.4572180249292,3,1,0,100,0,0
325260,-69.9650524562981,3,1,0,100,0,0
325346,-69.4797633241342,3,1,0,100,0,0
325433,-69.0011599094981,3,1,0,100,0,0
325519,-68.5290580338328,3,1,0,100,0,0
325605,-68.0634187710741,3,1,0,100,0,0
325691,-67.6040646267816,3,1,0,100,0,0
325777,-67.1508241084889,3,1,0,100,0,0
325864,461.538461538462,3,1,0,80,1,0
325864,-49.7512437810945,3,1,0,80,0,0
326325,-50.3130477833077,3,1,0,40,0,0
326787,-50.8877106687612,3,1,0,40,0,0
327248,-51.4756260336949,3,1,0,40,0,0
327710,-52.0773118941456,3,1,0,40,0,0
328171,-52.6932022607492,3,1,0,40,0,0
328633,-53.3238630152618,3,1,0,40,0,0
329094,-53.969773688548,3,1,0,40,0,0
329556,-54.6315538743605,3,1,0,40,0,0
330017,-55.3097345132743,3,1,0,40,0,0
330479,-56.0049642800338,3,1,0,40,0,0
330940,-56.7179264379838,3,1,0,40,0,0
331402,458.015267175573,3,1,0,40,1,0
331402,-57.8911594056938,3,1,0,40,0,0
331860,-58.6473871066899,3,1,0,40,0,0
332318,-59.4235983538122,3,1,0,40,0,0
332776,-60.2206678343348,3,1,0,40,0,0
333234,-61.0393737975302,3,1,0,40,0,0
333692,-61.8806853470128,3,1,0,40,0,0
334150,459.77011494253,3,1,0,40,1,0
334150,-62.5059871635215,3,1,0,40,0,0
334609,-63.3918948143391,3,1,0,40,0,0
335069,-64.3033169227656,3,1,0,40,0,0
335529,-65.2412870261177,3,1,0,40,0,0
335989,-66.2070695350783,3,1,0,40,0,0
336448,-67.2018301143915,3,1,0,40,0,0
336908,458.891013384322,3,1,0,40,1,0
336908,-68.3576886244808,3,1,0,40,0,0
337366,-69.4165826898563,3,1,0,40,0,0
337825,-70.5088479301839,3,1,0,40,0,0
338284,454.545454545455,3,1,0,40,1,0
338284,-72.3208415516109,3,1,0,40,0,0
338738,-73.4957262235202,3,1,0,40,0,0
339193,-74.7094693063787,3,1,0,40,0,0
339647,465.116279069768,3,1,0,40,1,0
339647,-74.2374647019559,3,1,0,40,0,0
340112,-75.505332608014,3,1,0,40,0,0
340577,-76.8172001928887,3,1,0,40,0,0
341042,458.015267175573,3,1,0,40,1,0
341042,-79.3875450880351,3,1,0,40,0,0
341500,-80.8165207722828,3,1,0,40,0,0
341958,-82.2979497381921,3,1,0,40,0,0
342416,444.444444444445,3,1,0,40,1,0
342416,-86.3944707538718,3,1,0,40,0,0
342860,-88.0383414150358,3,1,0,40,0,0
343304,-89.7460605301946,3,1,0,40,0,0
343749,481.927710843374,3,1,0,40,1,0
343749,-84.4029400425243,3,1,0,40,0,0
344230,-86.1062186948567,3,1,0,40,0,0
344712,-87.8795780142661,3,1,0,40,0,0
345194,437.956204379563,3,1,0,40,1,0
345194,-98.7363975297451,3,1,0,40,0,0
345631,-100.857234964303,3,1,0,40,0,0
346069,-103.071283497791,3,1,0,40,0,0
346507,565.024955268858,3,1,0,40,1,0
346507,-81.6846153846155,3,1,0,40,0,0
349887,400,3,1,0,60,1,8
350287,400.000000000001,5,1,0,60,1,0
357487,-100,5,1,0,60,0,0
357687,-96.4215085530699,5,1,0,63,0,0
357787,-94.7265717506418,5,1,0,67,0,0
357887,-93.090194158218,5,1,0,70,0,0
357987,-91.5093925240487,5,1,0,73,0,0
358087,-89.9814638184534,5,1,0,77,0,0
358187,-88.5036423674016,5,1,0,80,0,0
358287,-86.9565217391304,5,1,0,60,0,0
358487,-87.9087647675736,5,1,0,60,0,0
358687,-88.8820153463688,5,1,0,60,0,0
359087,-90.8947956366862,5,1,0,60,0,0
359287,-91.9357626439254,5,1,0,60,0,0
359687,-94.090814572409,5,1,0,60,0,0
359887,-95.2067223562521,5,1,0,60,0,0
359987,-95.774615512806,5,1,0,60,0,0
360087,-96.3494169415034,5,1,0,60,0,0
360187,-96.9310655341241,5,1,0,60,0,0
360287,-97.5197794492668,5,1,0,60,0,0
360487,-98.7190219709055,5,1,0,60,0,0
360687,-99.9481269221274,5,1,0,60,0,0
364687,-100,5,1,0,60,0,0
364887,-98.1688563230069,5,1,0,40,0,0
364987,-97.2782517930814,5,1,0,43,0,0
365087,-96.4035684744906,5,1,0,46,0,0
365187,-95.5445658072751,5,1,0,49,0,0
365287,-94.7006465213138,5,1,0,52,0,0
365387,-93.8715930478698,5,1,0,55,0,0
365487,-93.0569294377221,5,1,0,58,0,0
365587,-92.2561991553022,5,1,0,62,0,0
365687,-91.4692151209589,5,1,0,65,0,0
365787,-90.6954618711743,5,1,0,68,0,0
365887,-89.9347703110934,5,1,0,71,0,0
365987,-89.1866533956926,5,1,0,74,0,0
366087,-88.4509583661339,5,1,0,77,0,0
366187,-87.7273014380259,5,1,0,80,0,0
366287,-86.9565217391304,5,1,0,60,0,0
366487,-87.9087647675736,5,1,0,60,0,0
366687,-88.8820153463688,5,1,0,60,0,0
367087,-90.8947956366862,5,1,0,60,0,0
367287,-91.9357626439254,5,1,0,60,0,0
367487,-93.0007626062534,5,1,0,60,0,0
367687,-94.090814572409,5,1,0,60,0,0
367887,-95.2067223562521,5,1,0,60,0,0
367987,-95.774615512806,5,1,0,60,0,0
368087,-96.3494169415034,5,1,0,60,0,0
368287,-97.5197794492668,5,1,0,60,0,0
368487,-98.7190219709055,5,1,0,60,0,0
368687,-99.9481269221274,5,1,0,60,0,0
381487,-100,5,1,0,60,0,0
381687,-96.4215085530699,5,1,0,80,0,0
381787,-94.7265717506418,5,1,0,80,0,0
381887,-93.090194158218,5,1,0,80,0,0
381987,-91.5093925240487,5,1,0,80,0,0
382087,-89.9814638184534,5,1,0,80,0,0
382187,-88.5036423674016,5,1,0,80,0,0
382287,-86.9565217391304,5,1,0,60,0,0
382487,-87.7171437894508,5,1,0,60,0,0
382687,-88.4912681241179,5,1,0,60,0,0
382787,-88.8834373713968,5,1,0,60,0,0
382887,-89.2790980668397,5,1,0,60,0,0
383087,-90.0810819818919,5,1,0,60,0,0
383287,-90.897604757217,5,1,0,60,0,0
383687,-92.5759632066092,5,1,0,60,0,0
383887,-93.4385576076739,5,1,0,60,0,0
384087,-94.317466934654,5,1,0,60,0,0
384287,-95.2129771479334,5,1,0,60,0,0
384487,-96.1256554568131,5,1,0,60,0,0
384687,-97.0560945404006,5,1,0,60,0,0
384787,-97.5280539447172,5,1,0,60,0,0
384887,-98.0046258183386,5,1,0,60,0,0
385087,-98.9718801094233,5,1,0,60,0,0
385187,-99.4627024811966,5,1,0,60,0,0
385287,-99.9584172984039,5,1,0,60,0,0
390287,-100,5,1,0,60,0,0
390487,-99.2709541129942,5,1,0,60,0,0
390687,-98.5524614462771,5,1,0,61,0,0
390787,-98.1971012215719,5,1,0,61,0,0
390887,-97.8442945034989,5,1,0,62,0,0
391087,-97.1462322805272,5,1,0,62,0,0
391287,-96.4580600354966,5,1,0,62,0,0
391487,-95.7795690685628,5,1,0,63,0,0
391687,-95.1105565108883,5,1,0,63,0,0
391887,-94.4508251224083,5,1,0,64,0,0
392087,-93.8002710827834,5,1,0,64,0,0
392287,-93.1585306663909,5,1,0,64,0,0
392487,-92.525511596685,5,1,0,65,0,0
392687,-91.9010372870079,5,1,0,65,0,0
392787,-91.5919505330194,5,1,0,65,0,0
392887,-91.2849358860253,5,1,0,66,0,0
393087,-90.6770401200564,5,1,0,66,0,0
393187,-90.3761182914937,5,1,0,67,0,0
393287,-90.0771871416617,5,1,0,67,0,0
393487,-89.4852183842012,5,1,0,67,0,0
393687,-88.9009794220903,5,1,0,68,0,0
393887,-88.324319836494,5,1,0,68,0,0
394087,-87.755093086215,5,1,0,69,0,0
394287,-87.1931563835418,5,1,0,69,0,0
394487,-86.6383705748369,5,1,0,69,0,0
394687,-86.090600025655,5,1,0,70,0,0
394787,-85.8193040226083,5,1,0,70,0,0
394887,-85.5497125101911,5,1,0,71,0,0
395087,-85.015579104871,5,1,0,71,0,0
395287,-84.4880740859024,5,1,0,71,0,0
395487,-83.9671453353732,5,1,0,72,0,0
395687,-83.4525313656339,5,1,0,72,0,0
395887,-82.9441868566641,5,1,0,73,0,0
396087,-82.4419979323547,5,1,0,73,0,0
396287,-81.9458534578692,5,1,0,73,0,0
396487,-81.4556449576512,5,1,0,74,0,0
396687,-80.9712665363569,5,1,0,74,0,0
396787,-80.7312311997145,5,1,0,75,0,0
396887,-80.4926148025919,5,1,0,75,0,0
397087,-80,5,1,0,75,0,0
397187,-78.6974006248574,5,1,0,76,0,0
397287,-77.4366007190763,5,1,0,76,0,0
397387,-76.2155039102364,5,1,0,76,0,0
397487,-75.0323201719141,5,1,0,77,0,0
397587,-73.8853653779089,5,1,0,77,0,0
397687,-72.7728947165423,5,1,0,78,0,0
397787,-71.6934274333466,5,1,0,78,0,0
397887,-70.6455662489394,5,1,0,78,0,0
397987,-69.6278461252452,5,1,0,79,0,0
398087,-68.6390321347357,5,1,0,79,0,0
398187,-67.6779558008806,5,1,0,80,0,0
398287,-66.6666666666667,5,1,0,80,0,1
398687,-67.4528066438317,5,1,0,80,0,1
398887,-67.852870549615,5,1,0,80,0,1
399087,-68.2577083430032,5,1,0,80,0,1
399287,-68.6673588336437,5,1,0,80,0,1
399687,-69.5016868059388,5,1,0,80,0,1
399887,-69.9265002555814,5,1,0,80,0,1
399987,-70.140884981574,5,1,0,80,0,1
400087,-70.3565387960026,5,1,0,80,0,1
400287,-70.7918994245327,5,1,0,80,0,1
400487,-71.2326815542971,5,1,0,80,0,1
400687,-71.6789870898976,5,1,0,80,0,1
400787,-71.9042178295137,5,1,0,80,0,1
400887,-72.1309205059551,5,1,0,80,0,1
400987,-72.3590048610779,5,1,0,80,0,1
401087,-72.5885889286432,5,1,0,80,0,1
401187,-72.8195814767374,5,1,0,80,0,1
401287,-73.0520488542882,5,1,0,80,0,1
401687,-73.997062316626,5,1,0,80,0,1
401887,-74.478797375963,5,1,0,80,0,1
401987,-74.722052644675,5,1,0,80,0,1
402087,-74.9668459123952,5,1,0,80,0,1
402287,-75.46133285843,5,1,0,80,0,1
402487,-75.9623864647181,5,1,0,80,0,1
402587,-76.2153877343528,5,1,0,80,0,1
402687,-76.4701384109505,5,1,0,80,0,1
402787,-76.7265389425548,5,1,0,80,0,1
402887,-76.9847239212323,5,1,0,80,0,1
403087,-77.506221811956,5,1,0,80,0,1
403287,-78.0348940832383,5,1,0,80,0,1
403687,-79.1141744119443,5,1,0,80,0,1
403887,-79.6650879701734,5,1,0,80,0,1
403987,-79.9434639822717,5,1,0,80,0,1
404087,-80.223727932458,5,1,0,80,0,1
404287,-80.7902579875308,5,1,0,80,0,1
404487,-81.3648464808077,5,1,0,80,0,1
404687,-81.9476665811679,5,1,0,80,0,1
404787,-82.2421851419624,5,1,0,80,0,1
404887,-82.5388964549544,5,1,0,80,0,1
404987,-82.8376878344572,5,1,0,80,0,1
405087,-83.1386503271506,5,1,0,80,0,1
405287,-83.747254136905,5,1,0,80,0,1
405687,-84.9915900821614,5,1,0,80,0,1
405887,-85.6277283134934,5,1,0,80,0,1
405987,-85.9493448940932,5,1,0,80,0,1
406087,-86.2734609892978,5,1,0,80,0,1
406287,-86.9290068187113,5,1,0,80,0,1
411687,-86.9565217391304,5,1,0,80,0,1
411887,-84.9735349925266,5,1,0,80,0,1
411987,-84.0155395141885,5,1,0,80,0,1
412087,-83.0789732103543,5,1,0,80,0,1
412287,-81.267050843105,5,1,0,80,0,1
412487,-79.5324762913688,5,1,0,80,0,1
412687,-77.8704002927927,5,1,0,80,0,1
412787,-77.0651138559992,5,1,0,80,0,1
412887,-76.2763706482424,5,1,0,80,0,1
412987,-75.5035520646069,5,1,0,80,0,1
413087,-74.7462923970314,5,1,0,80,0,1
413187,-74.0040169380394,5,1,0,80,0,1
413287,-73.2763926911195,5,1,0,80,0,1
413487,-71.8631380907689,5,1,0,80,0,1
413687,-70.5034155379657,5,1,0,80,0,1
413887,-69.1941921162905,5,1,0,80,0,1
413987,-68.5576700264496,5,1,0,80,0,1
414087,-67.9327058615735,5,1,0,80,0,1
414187,-67.3190782941076,5,1,0,80,0,1
414287,-66.6666666666667,5,1,0,80,0,1
414687,-67.4528066438317,5,1,0,80,0,1
414887,-67.852870549615,5,1,0,80,0,1
415087,-68.2577083430032,5,1,0,80,0,1
415187,-68.4619207950346,5,1,0,80,0,1
415287,-68.6673588336437,5,1,0,80,0,1
415487,-69.082003792602,5,1,0,80,0,1
415687,-69.5016868059388,5,1,0,80,0,1
416087,-70.3565387960026,5,1,0,80,0,1
416287,-70.7918994245327,5,1,0,80,0,1
416487,-71.2326815542971,5,1,0,80,0,1
416587,-71.4551118987052,5,1,0,80,0,1
416687,-71.6789870898976,5,1,0,80,0,1
416787,-71.9042178295137,5,1,0,80,0,1
416887,-72.1309205059551,5,1,0,80,0,1
417087,-72.5885889286432,5,1,0,80,0,1
417187,-72.8195814767374,5,1,0,80,0,1
417287,-73.0520488542882,5,1,0,80,0,1
417687,-73.997062316626,5,1,0,80,0,1
417887,-74.478797375963,5,1,0,80,0,1
417987,-74.722052644675,5,1,0,80,0,1
418087,-74.9668459123952,5,1,0,80,0,1
418287,-75.46133285843,5,1,0,80,0,1
418487,-75.9623864647181,5,1,0,80,0,1
418687,-76.4701384109505,5,1,0,80,0,1
418787,-76.7265389425548,5,1,0,80,0,1
418887,-76.9847239212323,5,1,0,80,0,1
419087,-77.506221811956,5,1,0,80,0,1
419287,-78.0348940832383,5,1,0,80,0,1
419687,-79.1141744119443,5,1,0,80,0,1
419887,-79.6650879701734,5,1,0,80,0,1
419987,-79.9434639822717,5,1,0,80,0,1
420087,-80.223727932458,5,1,0,80,0,1
420287,-80.7902579875308,5,1,0,80,0,1
420487,-81.3648464808077,5,1,0,80,0,1
420687,-81.9476665811679,5,1,0,80,0,1
420787,-82.2421851419624,5,1,0,80,0,1
420887,-82.5388964549544,5,1,0,80,0,1
420987,-82.8376878344572,5,1,0,80,0,1
421087,-83.1386503271506,5,1,0,80,0,1
421287,-83.747254136905,5,1,0,80,0,1
421687,-84.9915900821614,5,1,0,80,0,1
421887,-85.6277283134934,5,1,0,80,0,1
421987,-85.9493448940932,5,1,0,80,0,1
422087,-86.2734609892978,5,1,0,80,0,1
422287,-86.9290068187113,5,1,0,80,0,1
427687,-86.9565217391304,5,1,0,80,0,1
427887,-84.8128942739423,5,1,0,80,0,1
427987,-83.7802310491212,5,1,0,80,0,1
428087,-82.7724807988538,5,1,0,80,0,1
428287,-80.8278713899242,5,1,0,80,0,1
428487,-78.9725357212522,5,1,0,80,0,1
428587,-78.0764462100131,5,1,0,80,0,1
428687,-77.2004641291904,5,1,0,80,0,1
428787,-76.3439201992271,5,1,0,80,0,1
428887,-75.5062315292881,5,1,0,80,0,1
428987,-74.6866707445589,5,1,0,80,0,1
429087,-73.8847102980509,5,1,0,80,0,1
429287,-72.3313702599445,5,1,0,80,0,1
429487,-70.8419996712931,5,1,0,80,0,1
429587,-70.1200806380927,5,1,0,80,0,1
429687,-69.4127748659119,5,1,0,80,0,1
429887,-68.0400320332471,5,1,0,80,0,1
430087,-66.7205323764719,5,1,0,80,0,0

[HitObjects]
457,305,540,5,8,0:0:0:0:
456,303,840,1,8,0:0:0:0:
482,312,1140,1,0,0:0:0:0:
483,303,1440,1,8,0:0:0:0:
483,303,1740,1,0,0:0:0:0:
483,303,2040,1,0,0:0:0:0:
447,298,2340,1,8,0:0:0:0:
449,299,2640,1,8,0:0:0:0:
476,319,2940,1,0,0:0:0:0:
476,319,3240,1,8,0:0:0:0:
475,321,3540,1,0,0:0:0:0:
476,308,3840,1,0,0:0:0:0:
469,294,4140,1,8,0:0:0:0:
469,294,4440,1,8,0:0:0:0:
469,294,4740,1,0,0:0:0:0:
469,294,5040,1,0,0:0:0:0:
469,294,5340,1,8,0:0:0:0:
471,290,5640,1,0,0:0:0:0:
429,294,5940,1,8,0:0:0:0:
429,294,6240,1,8,0:0:0:0:
429,294,6540,1,0,0:0:0:0:
429,294,6840,1,0,0:0:0:0:
429,294,7140,1,8,0:0:0:0:
429,294,7440,1,0,0:0:0:0:
499,328,7740,1,8,0:0:0:0:
499,328,8040,1,8,0:0:0:0:
476,334,8340,1,0,0:0:0:0:
474,333,8640,1,8,0:0:0:0:
474,332,8940,1,0,0:0:0:0:
474,332,9240,1,0,0:0:0:0:
467,314,9540,1,8,0:0:0:0:
467,314,9840,1,8,0:0:0:0:
466,312,10140,1,0,0:0:0:0:
466,312,10440,1,8,0:0:0:0:
466,312,10740,1,0,0:0:0:0:
466,312,11040,1,0,0:0:0:0:
447,212,11340,1,8,0:0:0:0:
447,212,11640,1,8,0:0:0:0:
447,212,11940,1,0,0:0:0:0:
477,305,12240,1,0,0:0:0:0:
477,303,12540,1,8,0:0:0:0:
477,303,12840,1,0,0:0:0:0:
477,303,13140,1,8,0:0:0:0:
477,303,13440,1,8,0:0:0:0:
477,303,13740,1,0,0:0:0:0:
477,303,14040,1,0,0:0:0:0:
477,303,14340,1,8,0:0:0:0:
477,303,14640,1,0,0:0:0:0:
477,303,14940,1,8,0:0:0:0:
477,303,15240,1,8,0:0:0:0:
477,303,15540,1,0,0:0:0:0:
477,303,15840,1,8,0:0:0:0:
477,303,16140,1,0,0:0:0:0:
477,303,16440,1,0,0:0:0:0:
477,303,16740,1,8,0:0:0:0:
477,303,17040,1,8,0:0:0:0:
477,303,17340,1,0,0:0:0:0:
477,303,17640,1,8,0:0:0:0:
477,303,17940,1,0,0:0:0:0:
477,303,18240,1,0,0:0:0:0:
484,321,18540,1,8,0:0:0:0:
484,321,18840,1,8,0:0:0:0:
484,321,19140,1,0,0:0:0:0:
484,321,19440,1,0,0:0:0:0:
484,321,19740,1,8,0:0:0:0:
484,321,20040,1,0,0:0:0:0:
484,321,20340,1,8,0:0:0:0:
484,321,20640,1,8,0:0:0:0:
484,321,20940,1,0,0:0:0:0:
484,321,21240,1,0,0:0:0:0:
484,321,21540,1,8,0:0:0:0:
320,190,21640,1,0,0:0:0:0:
320,190,21740,1,0,0:0:0:0:
320,190,21840,1,8,0:0:0:0:
320,190,21940,1,0,0:0:0:0:
320,190,22040,1,0,0:0:0:0:
466,330,22140,1,8,0:0:0:0:
482,307,22340,1,8,0:0:0:0:
482,307,22440,1,0,0:0:0:0:
497,326,22640,1,0,0:0:0:0:
497,326,22740,1,8,0:0:0:0:
497,326,22940,1,8,0:0:0:0:
497,326,23040,1,0,0:0:0:0:
500,304,23340,1,8,0:0:0:0:
479,341,23440,1,0,0:0:0:0:
479,341,23540,1,0,0:0:0:0:
453,300,23640,1,8,0:0:0:0:
449,303,23740,1,8,0:0:0:0:
449,303,23840,1,0,0:0:0:0:
449,303,23940,1,8,0:0:0:0:
490,341,24140,1,0,0:0:0:0:
490,341,24240,1,8,0:0:0:0:
483,338,24440,1,8,0:0:0:0:
483,338,24540,1,0,0:0:0:0:
474,329,24740,1,0,0:0:0:0:
474,329,24840,1,8,0:0:0:0:
478,337,25140,1,8,0:0:0:0:
476,311,25340,1,8,0:0:0:0:
469,271,25440,1,8,0:0:0:0:
469,271,25540,1,0,0:0:0:0:
460,282,25640,1,8,0:0:0:0:
460,282,25740,1,0,0:0:0:0:
498,294,25940,1,0,0:0:0:0:
498,294,26040,1,8,0:0:0:0:
498,294,26240,1,8,0:0:0:0:
498,294,26340,1,0,0:0:0:0:
408,278,26540,1,0,0:0:0:0:
408,278,26640,1,8,0:0:0:0:
488,334,26940,1,8,0:0:0:0:
480,334,27140,1,0,0:0:0:0:
480,334,27240,1,8,0:0:0:0:
480,334,27340,1,8,0:0:0:0:
480,334,27440,1,0,0:0:0:0:
488,337,27540,1,8,0:0:0:0:
457,316,27640,1,0,0:0:0:0:
457,316,27740,1,0,0:0:0:0:
457,316,27840,1,8,0:0:0:0:
470,312,28040,1,8,0:0:0:0:
470,312,28140,1,0,0:0:0:0:
491,310,28340,1,0,0:0:0:0:
491,310,28440,1,8,0:0:0:0:
465,339,28740,1,8,0:0:0:0:
445,283,28940,1,8,0:0:0:0:
440,287,29040,1,0,0:0:0:0:
440,289,29140,1,8,0:0:0:0:
440,287,29240,1,8,0:0:0:0:
440,289,29340,1,0,0:0:0:0:
480,308,29540,1,0,0:0:0:0:
480,308,29640,1,8,0:0:0:0:
480,308,29840,1,8,0:0:0:0:
480,308,29940,1,0,0:0:0:0:
489,319,30140,1,0,0:0:0:0:
489,319,30240,1,8,0:0:0:0:
489,319,30540,1,12,0:0:0:0:
466,345,30840,1,8,0:0:0:0:
466,345,30940,1,0,0:0:0:0:
466,345,31040,1,0,0:0:0:0:
466,345,31140,1,8,0:0:0:0:
506,293,31340,1,0,0:0:0:0:
506,293,31440,1,8,0:0:0:0:
506,293,31640,1,8,0:0:0:0:
506,293,31740,1,0,0:0:0:0:
493,313,31940,1,0,0:0:0:0:
493,313,32040,1,8,0:0:0:0:
493,313,32340,1,8,0:0:0:0:
451,263,32540,1,8,0:0:0:0:
465,324,32640,1,8,0:0:0:0:
451,263,32740,1,0,0:0:0:0:
465,324,32840,1,0,0:0:0:0:
473,318,32940,1,8,0:0:0:0:
468,304,33140,1,0,0:0:0:0:
468,304,33240,1,8,0:0:0:0:
468,304,33440,1,8,0:0:0:0:
468,304,33540,1,0,0:0:0:0:
478,316,33740,1,0,0:0:0:0:
478,316,33840,1,8,0:0:0:0:
476,345,34140,1,8,0:0:0:0:
480,321,34340,1,0,0:0:0:0:
480,321,34440,1,8,0:0:0:0:
480,321,34540,1,8,0:0:0:0:
480,321,34640,1,0,0:0:0:0:
480,321,34740,1,8,0:0:0:0:
478,341,34940,1,0,0:0:0:0:
478,341,35040,1,8,0:0:0:0:
478,341,35240,1,8,0:0:0:0:
478,341,35340,1,0,0:0:0:0:
471,341,35540,1,0,0:0:0:0:
471,341,35640,1,8,0:0:0:0:
471,341,35940,1,8,0:0:0:0:
498,323,36140,1,8,0:0:0:0:
498,323,36240,1,8,0:0:0:0:
498,323,36340,1,0,0:0:0:0:
498,323,36440,1,8,0:0:0:0:
498,323,36540,1,0,0:0:0:0:
482,310,36740,1,0,0:0:0:0:
482,310,36840,1,8,0:0:0:0:
483,285,37040,1,8,0:0:0:0:
479,308,37140,1,0,0:0:0:0:
462,323,37340,1,0,0:0:0:0:
462,323,37440,1,8,0:0:0:0:
417,276,37740,1,8,0:0:0:0:
457,296,37940,1,8,0:0:0:0:
457,296,38040,1,8,0:0:0:0:
457,296,38140,1,0,0:0:0:0:
457,296,38240,1,0,0:0:0:0:
457,296,38340,1,8,0:0:0:0:
482,330,38540,1,0,0:0:0:0:
482,330,38640,1,8,0:0:0:0:
482,330,38840,1,8,0:0:0:0:
482,330,38940,1,0,0:0:0:0:
371,296,39140,1,0,0:0:0:0:
371,296,39240,1,8,0:0:0:0:
492,363,39440,1,0,0:0:0:0:
493,342,39540,1,8,0:0:0:0:
482,304,39740,1,0,0:0:0:0:
482,304,39840,1,8,0:0:0:0:
482,304,39940,1,8,0:0:0:0:
482,304,40040,1,0,0:0:0:0:
482,304,40140,1,8,0:0:0:0:
459,290,40340,1,0,0:0:0:0:
459,290,40440,1,8,0:0:0:0:
459,290,40540,1,0,0:0:0:0:
459,290,40740,1,0,0:0:0:0:
499,313,40940,1,0,0:0:0:0:
499,313,41040,1,8,0:0:0:0:
504,306,41140,1,0,0:0:0:0:
489,336,41340,1,8,0:0:0:0:
485,310,41540,1,8,0:0:0:0:
508,323,41640,1,8,0:0:0:0:
508,323,41740,1,0,0:0:0:0:
508,323,41840,1,8,0:0:0:0:
508,323,41940,1,0,0:0:0:0:
490,305,42140,1,0,0:0:0:0:
480,311,42240,1,0,0:0:0:0:
480,311,42340,1,8,0:0:0:0:
477,309,42440,1,0,0:0:0:0:
478,305,42540,1,8,0:0:0:0:
478,308,42740,1,0,0:0:0:0:
478,308,42840,1,8,0:0:0:0:
479,327,43140,1,8,0:0:0:0:
489,302,43240,1,0,0:0:0:0:
489,302,43340,1,0,0:0:0:0:
489,302,43440,1,8,0:0:0:0:
489,302,43540,1,0,0:0:0:0:
489,302,43640,1,0,0:0:0:0:
493,310,43740,1,12,0:0:0:0:
482,307,43940,1,8,0:0:0:0:
482,307,44040,1,0,0:0:0:0:
497,326,44240,1,0,0:0:0:0:
497,326,44340,1,8,0:0:0:0:
497,326,44540,1,8,0:0:0:0:
497,326,44640,1,0,0:0:0:0:
459,286,44840,1,0,0:0:0:0:
500,304,44940,1,8,0:0:0:0:
479,341,45040,1,0,0:0:0:0:
479,341,45140,1,0,0:0:0:0:
453,300,45240,1,8,0:0:0:0:
449,303,45340,1,8,0:0:0:0:
449,303,45440,1,0,0:0:0:0:
449,303,45540,1,8,0:0:0:0:
490,341,45740,1,0,0:0:0:0:
490,341,45840,1,8,0:0:0:0:
483,338,46040,1,8,0:0:0:0:
483,338,46140,1,0,0:0:0:0:
474,329,46340,1,0,0:0:0:0:
474,329,46440,1,8,0:0:0:0:
498,294,46540,1,0,0:0:0:0:
498,294,46640,1,0,0:0:0:0:
478,337,46740,1,8,0:0:0:0:
476,311,46940,1,8,0:0:0:0:
469,271,47040,1,8,0:0:0:0:
469,271,47140,1,0,0:0:0:0:
460,282,47240,1,0,0:0:0:0:
460,282,47340,1,8,0:0:0:0:
498,294,47540,1,0,0:0:0:0:
498,294,47640,1,8,0:0:0:0:
498,294,47840,1,8,0:0:0:0:
498,294,47940,1,0,0:0:0:0:
408,278,48140,1,0,0:0:0:0:
408,278,48240,1,8,0:0:0:0:
488,334,48540,1,8,0:0:0:0:
480,334,48740,1,0,0:0:0:0:
480,334,48840,1,8,0:0:0:0:
480,334,48940,1,8,0:0:0:0:
480,334,49040,1,0,0:0:0:0:
488,337,49140,1,8,0:0:0:0:
457,316,49240,1,0,0:0:0:0:
457,316,49340,1,0,0:0:0:0:
457,316,49440,1,8,0:0:0:0:
470,312,49640,1,8,0:0:0:0:
470,312,49740,1,0,0:0:0:0:
491,310,49940,1,0,0:0:0:0:
491,310,50040,1,8,0:0:0:0:
478,270,50140,1,0,0:0:0:0:
478,270,50240,1,0,0:0:0:0:
465,339,50340,1,8,0:0:0:0:
445,283,50540,1,8,0:0:0:0:
440,287,50640,1,0,0:0:0:0:
440,289,50740,1,8,0:0:0:0:
440,287,50840,1,8,0:0:0:0:
440,289,50940,1,0,0:0:0:0:
480,308,51140,1,0,0:0:0:0:
480,308,51240,1,8,0:0:0:0:
480,308,51440,1,8,0:0:0:0:
480,308,51540,1,0,0:0:0:0:
489,319,51740,1,0,0:0:0:0:
489,319,51840,1,8,0:0:0:0:
489,319,52140,1,12,0:0:0:0:
466,345,52440,1,8,0:0:0:0:
466,345,52540,1,0,0:0:0:0:
466,345,52640,1,0,0:0:0:0:
466,345,52740,1,8,0:0:0:0:
506,293,52940,1,0,0:0:0:0:
506,293,53040,1,8,0:0:0:0:
506,293,53240,1,8,0:0:0:0:
506,293,53340,1,0,0:0:0:0:
493,313,53540,1,0,0:0:0:0:
493,313,53640,1,8,0:0:0:0:
480,281,53740,1,0,0:0:0:0:
480,281,53840,1,0,0:0:0:0:
493,313,53940,1,8,0:0:0:0:
451,263,54140,1,8,0:0:0:0:
465,324,54240,1,8,0:0:0:0:
451,263,54340,1,0,0:0:0:0:
473,318,54440,1,8,0:0:0:0:
465,324,54540,1,0,0:0:0:0:
468,304,54740,1,0,0:0:0:0:
468,304,54840,1,8,0:0:0:0:
468,304,55040,1,8,0:0:0:0:
468,304,55140,1,0,0:0:0:0:
478,316,55340,1,0,0:0:0:0:
478,316,55440,1,8,0:0:0:0:
476,345,55740,1,8,0:0:0:0:
480,321,55940,1,0,0:0:0:0:
480,321,56040,1,8,0:0:0:0:
480,321,56140,1,8,0:0:0:0:
480,321,56240,1,0,0:0:0:0:
480,321,56340,1,8,0:0:0:0:
478,341,56540,1,0,0:0:0:0:
478,341,56640,1,8,0:0:0:0:
478,341,56840,1,8,0:0:0:0:
478,341,56940,1,0,0:0:0:0:
471,341,57140,1,0,0:0:0:0:
471,341,57240,1,8,0:0:0:0:
479,269,57340,1,0,0:0:0:0:
479,269,57440,1,0,0:0:0:0:
471,341,57540,1,8,0:0:0:0:
498,323,57740,1,8,0:0:0:0:
498,323,57840,1,8,0:0:0:0:
498,323,57940,1,0,0:0:0:0:
498,323,58040,1,8,0:0:0:0:
498,323,58140,1,0,0:0:0:0:
482,310,58340,1,0,0:0:0:0:
482,310,58440,1,8,0:0:0:0:
483,285,58640,1,8,0:0:0:0:
479,308,58740,1,0,0:0:0:0:
462,323,58940,1,0,0:0:0:0:
462,323,59040,1,8,0:0:0:0:
417,276,59340,1,8,0:0:0:0:
457,296,59540,1,8,0:0:0:0:
457,296,59640,1,8,0:0:0:0:
457,296,59740,1,0,0:0:0:0:
457,296,59840,1,0,0:0:0:0:
457,296,59940,1,8,0:0:0:0:
482,330,60140,1,0,0:0:0:0:
482,330,60240,1,8,0:0:0:0:
482,330,60440,1,8,0:0:0:0:
482,330,60540,1,0,0:0:0:0:
371,296,60740,1,0,0:0:0:0:
371,296,60840,1,8,0:0:0:0:
511,316,60940,1,0,0:0:0:0:
492,363,61040,1,0,0:0:0:0:
493,342,61140,1,8,0:0:0:0:
482,304,61340,1,0,0:0:0:0:
482,304,61440,1,8,0:0:0:0:
482,304,61540,1,8,0:0:0:0:
482,304,61640,1,0,0:0:0:0:
482,304,61740,1,8,0:0:0:0:
466,304,61940,1,0,0:0:0:0:
466,304,62040,1,8,0:0:0:0:
466,304,62140,1,0,0:0:0:0:
471,306,62340,1,8,0:0:0:0:
471,306,62540,1,0,0:0:0:0:
471,306,62640,1,8,0:0:0:0:
490,324,62740,1,0,0:0:0:0:
482,319,62940,1,8,0:0:0:0:
471,322,63140,1,8,0:0:0:0:
471,322,63240,1,0,0:0:0:0:
471,322,63440,1,0,0:0:0:0:
471,322,63540,1,8,0:0:0:0:
480,336,63740,1,0,0:0:0:0:
484,332,63840,1,0,0:0:0:0:
484,332,63940,1,8,0:0:0:0:
484,332,64040,1,8,0:0:0:0:
484,332,64140,1,0,0:0:0:0:
489,316,64340,1,0,0:0:0:0:
489,316,64440,1,8,0:0:0:0:
487,321,64540,1,0,0:0:0:0:
473,327,64640,1,0,0:0:0:0:
478,300,64740,1,8,0:0:0:0:
484,321,64940,1,8,0:0:0:0:
484,321,65040,1,0,0:0:0:0:
487,316,65140,1,0,0:0:0:0:
487,316,65240,1,0,0:0:0:0:
487,323,65340,1,12,0:0:0:0:
495,298,65540,1,8,0:0:0:0:
502,308,65640,1,0,0:0:0:0:
499,301,65840,1,0,0:0:0:0:
502,308,65940,1,8,0:0:0:0:
492,339,66140,1,0,0:0:0:0:
492,339,66240,1,8,0:0:0:0:
492,339,66340,1,0,0:0:0:0:
493,345,66440,1,0,0:0:0:0:
492,339,66540,1,8,0:0:0:0:
478,314,66740,1,0,0:0:0:0:
478,314,66840,1,8,0:0:0:0:
504,267,67040,1,8,0:0:0:0:
436,285,67140,1,0,0:0:0:0:
482,338,67340,1,0,0:0:0:0:
482,338,67440,1,8,0:0:0:0:
482,338,67540,1,0,0:0:0:0:
482,338,67640,1,8,0:0:0:0:
482,338,67740,1,0,0:0:0:0:
480,313,67940,1,8,0:0:0:0:
480,313,68040,1,0,0:0:0:0:
449,245,68240,1,0,0:0:0:0:
449,245,68340,1,8,0:0:0:0:
509,301,68540,1,0,0:0:0:0:
509,301,68640,1,8,0:0:0:0:
509,301,68740,1,8,0:0:0:0:
509,301,68840,1,0,0:0:0:0:
509,301,68940,1,0,0:0:0:0:
480,280,69140,1,0,0:0:0:0:
480,280,69240,1,8,0:0:0:0:
480,280,69440,1,8,0:0:0:0:
480,280,69540,1,0,0:0:0:0:
488,317,69740,1,0,0:0:0:0:
488,317,69840,1,8,0:0:0:0:
488,317,69940,1,0,0:0:0:0:
488,317,70040,1,0,0:0:0:0:
488,317,70140,1,8,0:0:0:0:
476,343,70340,1,0,0:0:0:0:
476,343,70440,1,8,0:0:0:0:
496,325,70640,1,0,0:0:0:0:
496,325,70740,1,0,0:0:0:0:
473,310,70940,1,8,0:0:0:0:
473,310,71040,1,0,0:0:0:0:
496,325,71240,1,0,0:0:0:0:
486,328,71340,1,8,0:0:0:0:
491,316,71440,1,0,0:0:0:0:
491,316,71540,1,0,0:0:0:0:
491,316,71640,1,8,0:0:0:0:
490,323,71740,1,0,0:0:0:0:
490,327,71840,1,0,0:0:0:0:
490,323,71940,1,8,0:0:0:0:
481,325,72140,1,0,0:0:0:0:
481,325,72240,1,8,0:0:0:0:
490,335,72340,1,0,0:0:0:0:
480,291,72540,1,0,0:0:0:0:
480,291,72740,1,0,0:0:0:0:
480,291,72840,1,8,0:0:0:0:
480,276,73040,1,8,0:0:0:0:
480,276,73140,1,0,0:0:0:0:
479,284,73340,1,0,0:0:0:0:
479,284,73440,1,8,0:0:0:0:
479,284,73540,1,0,0:0:0:0:
479,284,73640,1,0,0:0:0:0:
479,284,73740,1,8,0:0:0:0:
505,297,73940,1,0,0:0:0:0:
505,297,74040,1,8,0:0:0:0:
505,297,74240,1,8,0:0:0:0:
505,297,74340,1,0,0:0:0:0:
480,284,74540,1,0,0:0:0:0:
480,284,74640,1,8,0:0:0:0:
480,284,74740,1,0,0:0:0:0:
480,284,74840,1,8,0:0:0:0:
474,279,74940,1,0,0:0:0:0:
502,283,75140,1,8,0:0:0:0:
502,283,75240,1,0,0:0:0:0:
502,283,75440,1,0,0:0:0:0:
502,283,75540,1,8,0:0:0:0:
482,324,75740,1,0,0:0:0:0:
478,294,75840,1,8,0:0:0:0:
478,294,75940,1,0,0:0:0:0:
489,298,76140,1,12,0:0:0:0:
471,321,76340,1,8,0:0:0:0:
484,326,76440,1,8,0:0:0:0:
484,326,76540,1,0,0:0:0:0:
484,326,76640,1,0,0:0:0:0:
487,333,76740,1,8,0:0:0:0:
487,305,76940,1,0,0:0:0:0:
487,305,77040,1,8,0:0:0:0:
488,310,77140,1,0,0:0:0:0:
489,313,77240,1,0,0:0:0:0:
498,314,77340,1,8,0:0:0:0:
493,320,77540,1,0,0:0:0:0:
493,320,77640,1,8,0:0:0:0:
493,320,77840,1,8,0:0:0:0:
493,320,77940,1,0,0:0:0:0:
493,341,78140,1,0,0:0:0:0:
493,341,78240,1,8,0:0:0:0:
493,341,78340,1,0,0:0:0:0:
493,341,78440,1,8,0:0:0:0:
493,341,78540,1,0,0:0:0:0:
489,314,78740,1,8,0:0:0:0:
489,314,78840,1,0,0:0:0:0:
489,314,79040,1,0,0:0:0:0:
489,314,79140,1,8,0:0:0:0:
496,329,79340,1,0,0:0:0:0:
496,329,79440,1,8,0:0:0:0:
496,329,79540,1,8,0:0:0:0:
489,301,79640,1,8,0:0:0:0:
500,316,79740,1,0,0:0:0:0:
495,298,79940,1,8,0:0:0:0:
502,308,80040,1,0,0:0:0:0:
499,301,80240,1,0,0:0:0:0:
502,308,80340,1,8,0:0:0:0:
492,339,80540,1,0,0:0:0:0:
492,339,80640,1,8,0:0:0:0:
492,339,80740,1,0,0:0:0:0:
493,345,80840,1,0,0:0:0:0:
492,339,80940,1,8,0:0:0:0:
478,314,81140,1,0,0:0:0:0:
478,314,81240,1,8,0:0:0:0:
504,267,81440,1,8,0:0:0:0:
436,285,81540,1,0,0:0:0:0:
482,338,81740,1,0,0:0:0:0:
482,338,81840,1,8,0:0:0:0:
482,338,81940,1,0,0:0:0:0:
482,338,82040,1,8,0:0:0:0:
482,338,82140,1,0,0:0:0:0:
480,313,82340,1,8,0:0:0:0:
480,313,82440,1,0,0:0:0:0:
449,245,82640,1,0,0:0:0:0:
449,245,82740,1,8,0:0:0:0:
509,301,82940,1,0,0:0:0:0:
509,301,83040,1,8,0:0:0:0:
509,301,83140,1,8,0:0:0:0:
509,301,83240,1,0,0:0:0:0:
509,301,83340,1,0,0:0:0:0:
480,280,83540,1,0,0:0:0:0:
480,280,83640,1,8,0:0:0:0:
480,280,83840,1,8,0:0:0:0:
480,280,83940,1,0,0:0:0:0:
488,317,84140,1,0,0:0:0:0:
488,317,84240,1,8,0:0:0:0:
488,317,84340,1,0,0:0:0:0:
488,317,84440,1,0,0:0:0:0:
488,317,84540,1,8,0:0:0:0:
476,343,84740,1,0,0:0:0:0:
476,343,84840,1,8,0:0:0:0:
496,325,85040,1,0,0:0:0:0:
496,325,85140,1,0,0:0:0:0:
473,310,85340,1,0,0:0:0:0:
473,310,85440,1,8,0:0:0:0:
495,330,85740,1,0,0:0:0:0:
495,330,85840,1,8,0:0:0:0:
495,330,85940,1,8,0:0:0:0:
495,330,86040,1,0,0:0:0:0:
493,321,86240,1,0,0:0:0:0:
491,296,86340,1,8,0:0:0:0:
491,296,86440,1,8,0:0:0:0:
491,296,86540,1,0,0:0:0:0:
490,304,86640,1,0,0:0:0:0:
489,292,86840,1,0,0:0:0:0:
489,292,86940,1,8,0:0:0:0:
464,309,94140,5,0,0:0:0:0:
482,356,94312,1,0,0:0:0:0:
464,298,94398,1,0,0:0:0:0:
482,356,94484,1,8,0:0:0:0:
497,314,94657,1,0,0:0:0:0:
473,354,94829,1,8,0:0:0:0:
488,310,94915,1,0,0:0:0:0:
473,354,95002,1,0,0:0:0:0:
454,305,95088,1,0,0:0:0:0:
473,354,95174,1,8,0:0:0:0:
496,311,95346,1,0,0:0:0:0:
496,311,95519,1,8,0:0:0:0:
496,311,95691,1,8,0:0:0:0:
493,292,95777,1,8,0:0:0:0:
496,311,95864,1,0,0:0:0:0:
486,341,96036,1,8,0:0:0:0:
464,309,96208,1,0,0:0:0:0:
482,356,96381,1,0,0:0:0:0:
489,299,96467,1,0,0:0:0:0:
482,356,96553,1,8,0:0:0:0:
497,314,96726,1,0,0:0:0:0:
473,354,96898,1,8,0:0:0:0:
502,294,96984,1,8,0:0:0:0:
473,354,97071,1,0,0:0:0:0:
502,294,97157,1,0,0:0:0:0:
473,354,97243,1,8,0:0:0:0:
496,311,97415,1,0,0:0:0:0:
496,311,97588,1,8,0:0:0:0:
496,311,97760,1,8,0:0:0:0:
470,291,97846,1,8,0:0:0:0:
496,311,97933,1,0,0:0:0:0:
486,341,98105,1,8,0:0:0:0:
489,322,98277,1,0,0:0:0:0:
489,322,98450,1,8,0:0:0:0:
489,346,98536,1,0,0:0:0:0:
489,322,98622,1,8,0:0:0:0:
483,301,98795,1,0,0:0:0:0:
483,301,98967,1,8,0:0:0:0:
410,291,99053,1,0,0:0:0:0:
483,301,99140,1,0,0:0:0:0:
410,291,99226,1,0,0:0:0:0:
488,304,99312,1,8,0:0:0:0:
488,304,99484,1,0,0:0:0:0:
488,304,99657,1,8,0:0:0:0:
488,304,99829,1,8,0:0:0:0:
494,273,99915,1,8,0:0:0:0:
488,304,100002,1,0,0:0:0:0:
488,304,100174,1,8,0:0:0:0:
490,310,100346,1,0,0:0:0:0:
490,310,100519,1,0,0:0:0:0:
493,330,100605,1,0,0:0:0:0:
490,310,100691,1,8,0:0:0:0:
490,310,100864,1,0,0:0:0:0:
490,310,101036,1,8,0:0:0:0:
508,334,101122,1,8,0:0:0:0:
490,310,101208,1,0,0:0:0:0:
508,334,101295,1,0,0:0:0:0:
463,292,101381,1,8,0:0:0:0:
470,293,101553,1,8,0:0:0:0:
508,334,101726,1,8,0:0:0:0:
508,334,101812,1,8,0:0:0:0:
508,334,101898,1,0,0:0:0:0:
504,323,102071,1,8,0:0:0:0:
501,299,102157,1,8,0:0:0:0:
504,323,102243,1,0,0:0:0:0:
502,331,102329,1,0,0:0:0:0:
502,331,102415,1,8,0:0:0:0:
473,330,102502,1,0,0:0:0:0:
473,330,102588,1,8,0:0:0:0:
404,255,102674,1,0,0:0:0:0:
463,296,102760,1,8,0:0:0:0:
446,199,102818,1,0,0:0:0:0:
446,199,102875,1,0,0:0:0:0:
446,199,102933,1,8,0:0:0:0:
446,199,102990,1,0,0:0:0:0:
446,199,103048,1,0,0:0:0:0:
446,199,103105,1,8,0:0:0:0:
483,302,103162,1,0,0:0:0:0:
483,302,103220,1,0,0:0:0:0:
483,302,103277,1,8,0:0:0:0:
483,302,103335,1,0,0:0:0:0:
483,302,103392,1,0,0:0:0:0:
481,280,103450,1,8,0:0:0:0:
382,207,103536,1,0,0:0:0:0:
382,207,103622,1,8,0:0:0:0:
378,212,103708,1,8,0:0:0:0:
378,220,103795,1,0,0:0:0:0:
377,227,103881,1,0,0:0:0:0:
506,290,103967,1,8,0:0:0:0:
506,290,104053,1,0,0:0:0:0:
506,290,104140,1,8,0:0:0:0:
493,259,104312,1,0,0:0:0:0:
493,259,104398,1,0,0:0:0:0:
493,259,104484,1,8,0:0:0:0:
493,259,104657,1,8,0:0:0:0:
420,256,104829,1,0,0:0:0:0:
470,267,104915,1,0,0:0:0:0:
470,267,105002,1,8,0:0:0:0:
418,256,105174,1,0,0:0:0:0:
508,308,105260,1,0,0:0:0:0:
508,308,105346,1,8,0:0:0:0:
492,305,105433,1,0,0:0:0:0:
455,183,105519,1,8,0:0:0:0:
455,183,105576,1,0,0:0:0:0:
455,183,105634,1,0,0:0:0:0:
455,183,105691,1,8,0:0:0:0:
455,183,105749,1,0,0:0:0:0:
455,183,105806,1,0,0:0:0:0:
472,137,105864,1,8,0:0:0:0:
485,303,105950,1,0,0:0:0:0:
485,303,106036,1,8,0:0:0:0:
485,303,106122,1,8,0:0:0:0:
485,303,106208,1,0,0:0:0:0:
501,325,106295,1,0,0:0:0:0:
501,325,106381,1,8,0:0:0:0:
501,325,106467,1,8,0:0:0:0:
501,325,106553,1,0,0:0:0:0:
505,339,106726,1,8,0:0:0:0:
509,336,106898,1,0,0:0:0:0:
480,328,107071,1,8,0:0:0:0:
496,348,107243,1,8,0:0:0:0:
485,326,107329,1,8,0:0:0:0:
484,330,107415,1,0,0:0:0:0:
485,326,107502,1,0,0:0:0:0:
484,330,107588,1,8,0:0:0:0:
461,308,107760,1,8,0:0:0:0:
498,337,107933,1,0,0:0:0:0:
509,315,108019,1,0,0:0:0:0:
509,315,108105,1,8,0:0:0:0:
509,315,108191,1,8,0:0:0:0:
509,315,108277,1,0,0:0:0:0:
487,278,108335,1,0,0:0:0:0:
487,278,108392,1,0,0:0:0:0:
487,278,108450,1,8,0:0:0:0:
510,246,108536,1,8,0:0:0:0:
510,246,108622,1,0,0:0:0:0:
504,276,108795,1,0,0:0:0:0:
442,274,108967,1,0,0:0:0:0:
442,274,109053,1,0,0:0:0:0:
448,276,109140,1,8,0:0:0:0:
474,295,109226,1,0,0:0:0:0:
496,304,109312,1,8,0:0:0:0:
478,323,109398,1,8,0:0:0:0:
478,323,109484,1,0,0:0:0:0:
500,329,109657,1,8,0:0:0:0:
491,349,109743,1,0,0:0:0:0:
491,349,109829,1,8,0:0:0:0:
491,349,109915,1,8,0:0:0:0:
491,349,110002,1,0,0:0:0:0:
497,321,110088,1,0,0:0:0:0:
497,321,110174,1,8,0:0:0:0:
497,321,110260,1,8,0:0:0:0:
497,321,110346,1,0,0:0:0:0:
497,321,110433,1,0,0:0:0:0:
497,321,110519,1,8,0:0:0:0:
496,325,110605,1,0,0:0:0:0:
497,321,110691,1,12,0:0:0:0:
497,316,111036,1,8,0:0:0:0:
497,316,111208,1,0,0:0:0:0:
497,316,111381,1,8,0:0:0:0:
497,316,111467,1,8,0:0:0:0:
473,316,111553,1,0,0:0:0:0:
497,316,111726,1,8,0:0:0:0:
497,326,111898,1,8,0:0:0:0:
498,314,111984,1,8,0:0:0:0:
499,332,112071,1,0,0:0:0:0:
449,264,112157,1,0,0:0:0:0:
492,358,112243,1,8,0:0:0:0:
492,358,112415,1,0,0:0:0:0:
471,300,112588,1,8,0:0:0:0:
487,332,112760,1,0,0:0:0:0:
487,332,112933,1,0,0:0:0:0:
484,310,113105,1,8,0:0:0:0:
476,327,113191,1,8,0:0:0:0:
484,310,113277,1,0,0:0:0:0:
484,310,113450,1,8,0:0:0:0:
484,310,113622,1,0,0:0:0:0:
489,302,113708,1,0,0:0:0:0:
484,310,113795,1,8,0:0:0:0:
491,325,113967,1,8,0:0:0:0:
491,325,114140,1,0,0:0:0:0:
491,325,114226,1,0,0:0:0:0:
491,325,114312,1,8,0:0:0:0:
491,325,114398,1,8,0:0:0:0:
491,325,114484,1,0,0:0:0:0:
454,314,114657,1,8,0:0:0:0:
454,314,114829,1,0,0:0:0:0:
454,314,115002,1,0,0:0:0:0:
473,313,115088,1,0,0:0:0:0:
454,314,115174,1,8,0:0:0:0:
454,314,115346,1,0,0:0:0:0:
454,314,115519,1,8,0:0:0:0:
480,314,115605,1,8,0:0:0:0:
454,314,115691,1,0,0:0:0:0:
480,314,115777,1,0,0:0:0:0:
454,314,115864,1,8,0:0:0:0:
491,318,116036,1,0,0:0:0:0:
491,318,116208,1,8,0:0:0:0:
491,318,116381,1,8,0:0:0:0:
491,318,116553,1,0,0:0:0:0:
473,302,116726,1,8,0:0:0:0:
473,302,116812,1,8,0:0:0:0:
473,302,116898,1,0,0:0:0:0:
467,332,117071,1,0,0:0:0:0:
467,332,117243,1,8,0:0:0:0:
467,312,117415,1,0,0:0:0:0:
455,312,117502,1,0,0:0:0:0:
467,312,117588,1,8,0:0:0:0:
455,312,117674,1,8,0:0:0:0:
467,312,117760,1,0,0:0:0:0:
482,328,117933,1,8,0:0:0:0:
467,330,118105,1,0,0:0:0:0:
490,312,118277,1,8,0:0:0:0:
490,312,118364,1,0,0:0:0:0:
490,312,118450,1,0,0:0:0:0:
489,317,118536,1,8,0:0:0:0:
489,317,118622,1,8,0:0:0:0:
485,328,118795,1,0,0:0:0:0:
488,337,118967,1,0,0:0:0:0:
501,325,119140,1,0,0:0:0:0:
373,299,119226,1,0,0:0:0:0:
501,325,119312,1,8,0:0:0:0:
501,325,119484,1,0,0:0:0:0:
501,325,119657,1,8,0:0:0:0:
495,330,119743,1,8,0:0:0:0:
501,325,119829,1,0,0:0:0:0:
495,330,119915,1,0,0:0:0:0:
501,325,120002,1,8,0:0:0:0:
440,323,120174,1,0,0:0:0:0:
440,323,120346,1,8,0:0:0:0:
440,323,120519,1,8,0:0:0:0:
502,350,120691,1,0,0:0:0:0:
502,350,120777,1,0,0:0:0:0:
502,350,120864,1,8,0:0:0:0:
499,321,121036,1,0,0:0:0:0:
499,321,121208,1,0,0:0:0:0:
440,299,121295,1,0,0:0:0:0:
466,317,121381,1,8,0:0:0:0:
440,299,121467,1,8,0:0:0:0:
466,317,121553,1,0,0:0:0:0:
466,317,121726,1,8,0:0:0:0:
466,317,121898,1,0,0:0:0:0:
495,321,121984,1,0,0:0:0:0:
466,317,122071,1,8,0:0:0:0:
495,321,122243,1,8,0:0:0:0:
467,319,122415,1,8,0:0:0:0:
467,319,122502,1,0,0:0:0:0:
467,319,122588,1,8,0:0:0:0:
467,319,122674,1,8,0:0:0:0:
467,319,122760,1,0,0:0:0:0:
470,285,122933,1,0,0:0:0:0:
487,352,122990,1,0,0:0:0:0:
487,352,123048,1,0,0:0:0:0:
456,320,123105,1,8,0:0:0:0:
508,333,123277,1,0,0:0:0:0:
508,333,123450,1,8,0:0:0:0:
482,297,123536,1,8,0:0:0:0:
493,314,123622,1,0,0:0:0:0:
493,314,123795,1,8,0:0:0:0:
493,314,123967,1,0,0:0:0:0:
480,295,124053,1,0,0:0:0:0:
493,314,124140,1,8,0:0:0:0:
480,295,124226,1,8,0:0:0:0:
480,295,124312,1,0,0:0:0:0:
507,324,124484,1,8,0:0:0:0:
507,324,124657,1,8,0:0:0:0:
507,324,124829,1,0,0:0:0:0:
491,320,125002,1,8,0:0:0:0:
491,320,125088,1,8,0:0:0:0:
491,317,125174,1,0,0:0:0:0:
461,283,125346,1,0,0:0:0:0:
461,283,125433,1,8,0:0:0:0:
461,283,125519,1,8,0:0:0:0:
467,282,125691,1,0,0:0:0:0:
467,282,125777,1,8,0:0:0:0:
467,282,125864,1,0,0:0:0:0:
502,306,126036,1,0,0:0:0:0:
502,306,126208,1,8,0:0:0:0:
496,312,126381,1,0,0:0:0:0:
496,312,126467,1,0,0:0:0:0:
496,312,126553,1,8,0:0:0:0:
496,312,126640,1,0,0:0:0:0:
488,276,126726,1,8,0:0:0:0:
488,276,126812,1,8,0:0:0:0:
488,276,126898,1,0,0:0:0:0:
485,317,127071,1,0,0:0:0:0:
485,317,127157,1,0,0:0:0:0:
485,317,127243,1,12,0:0:0:0:
497,316,127588,1,8,0:0:0:0:
497,316,127760,1,0,0:0:0:0:
497,316,127933,1,8,0:0:0:0:
473,316,128019,1,8,0:0:0:0:
497,316,128105,1,0,0:0:0:0:
497,316,128277,1,8,0:0:0:0:
497,326,128450,1,8,0:0:0:0:
498,314,128536,1,8,0:0:0:0:
499,332,128622,1,0,0:0:0:0:
449,264,128708,1,0,0:0:0:0:
492,358,128795,1,8,0:0:0:0:
492,358,128967,1,0,0:0:0:0:
471,300,129140,1,8,0:0:0:0:
411,166,129197,1,8,0:0:0:0:
411,166,129254,1,8,0:0:0:0:
487,332,129312,1,0,0:0:0:0:
487,332,129484,1,0,0:0:0:0:
484,310,129657,1,8,0:0:0:0:
476,327,129743,1,8,0:0:0:0:
484,310,129829,1,0,0:0:0:0:
484,310,130002,1,8,0:0:0:0:
484,310,130174,1,0,0:0:0:0:
489,302,130260,1,0,0:0:0:0:
484,310,130346,1,8,0:0:0:0:
491,325,130519,1,8,0:0:0:0:
491,325,130691,1,0,0:0:0:0:
491,325,130777,1,0,0:0:0:0:
491,325,130864,1,8,0:0:0:0:
491,325,130950,1,8,0:0:0:0:
491,325,131036,1,0,0:0:0:0:
454,314,131208,1,8,0:0:0:0:
454,314,131381,1,0,0:0:0:0:
454,314,131553,1,0,0:0:0:0:
473,313,131640,1,0,0:0:0:0:
454,314,131726,1,8,0:0:0:0:
454,314,131898,1,0,0:0:0:0:
454,314,132071,1,8,0:0:0:0:
480,314,132157,1,8,0:0:0:0:
454,314,132243,1,0,0:0:0:0:
480,314,132329,1,0,0:0:0:0:
454,314,132415,1,8,0:0:0:0:
491,318,132588,1,0,0:0:0:0:
491,318,132760,1,8,0:0:0:0:
491,318,132933,1,8,0:0:0:0:
491,318,133105,1,0,0:0:0:0:
473,302,133277,1,8,0:0:0:0:
473,302,133364,1,8,0:0:0:0:
473,302,133450,1,0,0:0:0:0:
467,332,133622,1,0,0:0:0:0:
467,332,133795,1,8,0:0:0:0:
467,312,133967,1,0,0:0:0:0:
455,312,134053,1,0,0:0:0:0:
467,312,134140,1,8,0:0:0:0:
455,312,134226,1,8,0:0:0:0:
467,312,134312,1,0,0:0:0:0:
482,328,134484,1,8,0:0:0:0:
467,330,134657,1,0,0:0:0:0:
490,312,134829,1,8,0:0:0:0:
490,312,134915,1,0,0:0:0:0:
490,312,135002,1,8,0:0:0:0:
489,317,135088,1,8,0:0:0:0:
489,317,135174,1,8,0:0:0:0:
485,328,135346,1,0,0:0:0:0:
488,337,135519,1,0,0:0:0:0:
501,325,135691,1,0,0:0:0:0:
373,299,135777,1,0,0:0:0:0:
501,325,135864,1,8,0:0:0:0:
501,325,136036,1,0,0:0:0:0:
501,325,136208,1,8,0:0:0:0:
495,330,136295,1,8,0:0:0:0:
501,325,136381,1,0,0:0:0:0:
495,330,136467,1,0,0:0:0:0:
501,325,136553,1,8,0:0:0:0:
440,323,136726,1,0,0:0:0:0:
440,323,136898,1,8,0:0:0:0:
440,323,137071,1,8,0:0:0:0:
502,350,137243,1,0,0:0:0:0:
502,350,137329,1,0,0:0:0:0:
502,350,137415,1,8,0:0:0:0:
499,321,137588,1,0,0:0:0:0:
499,321,137760,1,0,0:0:0:0:
440,299,137846,1,0,0:0:0:0:
466,317,137933,1,8,0:0:0:0:
440,299,138019,1,8,0:0:0:0:
466,317,138105,1,0,0:0:0:0:
466,317,138277,1,8,0:0:0:0:
466,317,138450,1,0,0:0:0:0:
495,321,138507,1,0,0:0:0:0:
320,171,138565,1,0,0:0:0:0:
466,317,138622,1,8,0:0:0:0:
495,321,138795,1,8,0:0:0:0:
467,319,138967,1,8,0:0:0:0:
467,319,139053,1,0,0:0:0:0:
467,319,139140,1,8,0:0:0:0:
467,319,139226,1,8,0:0:0:0:
467,319,139312,1,0,0:0:0:0:
470,285,139484,1,0,0:0:0:0:
456,320,139571,1,0,0:0:0:0:
456,320,139657,1,8,0:0:0:0:
508,333,139829,1,0,0:0:0:0:
508,333,140002,1,8,0:0:0:0:
482,297,140088,1,8,0:0:0:0:
493,314,140174,1,0,0:0:0:0:
493,314,140346,1,8,0:0:0:0:
493,314,140519,1,0,0:0:0:0:
480,295,140605,1,0,0:0:0:0:
493,314,140691,1,8,0:0:0:0:
480,295,140864,1,0,0:0:0:0:
507,324,141036,1,8,0:0:0:0:
507,324,141208,1,8,0:0:0:0:
507,324,141381,1,0,0:0:0:0:
491,320,141553,1,8,0:0:0:0:
491,320,141640,1,8,0:0:0:0:
491,317,141726,1,0,0:0:0:0:
461,283,141898,1,0,0:0:0:0:
461,283,141984,1,8,0:0:0:0:
461,283,142071,1,8,0:0:0:0:
467,282,142243,1,0,0:0:0:0:
467,282,142329,1,8,0:0:0:0:
467,282,142415,1,0,0:0:0:0:
502,306,142588,1,0,0:0:0:0:
502,306,142760,1,8,0:0:0:0:
496,312,142933,1,0,0:0:0:0:
496,312,143019,1,0,0:0:0:0:
496,312,143105,1,8,0:0:0:0:
496,312,143191,1,0,0:0:0:0:
488,276,143277,1,8,0:0:0:0:
488,276,143364,1,8,0:0:0:0:
488,276,143450,1,0,0:0:0:0:
485,317,143622,1,0,0:0:0:0:
485,317,143708,1,0,0:0:0:0:
485,317,143795,1,12,0:0:0:0:
443,259,143967,1,8,0:0:0:0:
443,259,144053,1,0,0:0:0:0:
462,292,144140,1,8,0:0:0:0:
443,259,144312,1,0,0:0:0:0:
443,259,144484,1,0,0:0:0:0:
490,288,144571,1,8,0:0:0:0:
443,259,144657,1,0,0:0:0:0:
490,288,144743,1,0,0:0:0:0:
443,259,144829,1,8,0:0:0:0:
443,259,145002,1,8,0:0:0:0:
443,259,145174,1,0,0:0:0:0:
479,321,145260,1,0,0:0:0:0:
443,259,145346,1,8,0:0:0:0:
443,259,145519,1,0,0:0:0:0:
443,259,145691,1,0,0:0:0:0:
479,348,145777,1,0,0:0:0:0:
471,328,145864,1,8,0:0:0:0:
471,328,146036,1,8,0:0:0:0:
471,328,146208,1,0,0:0:0:0:
491,319,146295,1,8,0:0:0:0:
471,328,146381,1,0,0:0:0:0:
491,319,146467,1,0,0:0:0:0:
471,328,146553,1,8,0:0:0:0:
471,328,146726,1,0,0:0:0:0:
472,311,146898,1,8,0:0:0:0:
483,318,146984,1,0,0:0:0:0:
472,311,147071,1,8,0:0:0:0:
476,297,147157,1,8,0:0:0:0:
472,311,147243,1,0,0:0:0:0:
476,297,147329,1,8,0:0:0:0:
472,311,147415,1,8,0:0:0:0:
498,304,147502,1,0,0:0:0:0:
472,311,147588,1,8,0:0:0:0:
472,311,147760,1,0,0:0:0:0:
480,310,147846,1,0,0:0:0:0:
483,332,147933,1,8,0:0:0:0:
483,332,148105,1,8,0:0:0:0:
483,332,148277,1,0,0:0:0:0:
493,287,148364,1,0,0:0:0:0:
483,332,148450,1,8,0:0:0:0:
493,287,148536,1,8,0:0:0:0:
483,332,148622,1,0,0:0:0:0:
483,332,148795,1,0,0:0:0:0:
483,332,148967,1,8,0:0:0:0:
407,256,149053,1,0,0:0:0:0:
483,332,149140,1,8,0:0:0:0:
407,256,149226,1,8,0:0:0:0:
483,332,149312,1,0,0:0:0:0:
483,332,149484,1,8,0:0:0:0:
483,332,149657,1,0,0:0:0:0:
483,332,149829,1,0,0:0:0:0:
482,315,149915,1,0,0:0:0:0:
489,302,150002,1,8,0:0:0:0:
489,302,150174,1,8,0:0:0:0:
489,302,150346,1,0,0:0:0:0:
447,307,150433,1,8,0:0:0:0:
489,302,150519,1,0,0:0:0:0:
447,307,150605,1,0,0:0:0:0:
489,302,150691,1,8,0:0:0:0:
489,302,150864,1,0,0:0:0:0:
489,302,151036,1,8,0:0:0:0:
498,301,151122,1,0,0:0:0:0:
489,302,151208,1,8,0:0:0:0:
498,301,151295,1,8,0:0:0:0:
489,302,151381,1,0,0:0:0:0:
505,337,151467,1,8,0:0:0:0:
489,302,151553,1,8,0:0:0:0:
505,337,151640,1,0,0:0:0:0:
489,302,151726,1,8,0:0:0:0:
489,302,151898,1,0,0:0:0:0:
500,295,151984,1,0,0:0:0:0:
485,317,152071,1,8,0:0:0:0:
443,259,152243,1,8,0:0:0:0:
443,259,152415,1,0,0:0:0:0:
488,265,152502,1,0,0:0:0:0:
443,259,152588,1,8,0:0:0:0:
488,265,152674,1,8,0:0:0:0:
443,259,152760,1,0,0:0:0:0:
443,259,152933,1,0,0:0:0:0:
443,259,153105,1,8,0:0:0:0:
500,319,153191,1,0,0:0:0:0:
443,259,153277,1,8,0:0:0:0:
500,319,153364,1,8,0:0:0:0:
443,259,153450,1,0,0:0:0:0:
443,259,153622,1,8,0:0:0:0:
443,259,153795,1,0,0:0:0:0:
443,259,153967,1,0,0:0:0:0:
431,250,154053,1,0,0:0:0:0:
471,328,154140,1,8,0:0:0:0:
471,328,154312,1,8,0:0:0:0:
471,328,154484,1,0,0:0:0:0:
489,303,154571,1,8,0:0:0:0:
471,328,154657,1,0,0:0:0:0:
489,303,154743,1,0,0:0:0:0:
471,328,154829,1,8,0:0:0:0:
471,328,155002,1,0,0:0:0:0:
472,311,155174,1,8,0:0:0:0:
456,272,155260,1,0,0:0:0:0:
472,311,155346,1,8,0:0:0:0:
456,272,155433,1,8,0:0:0:0:
472,311,155519,1,0,0:0:0:0:
456,272,155605,1,8,0:0:0:0:
472,311,155691,1,0,0:0:0:0:
456,272,155777,1,0,0:0:0:0:
472,311,155864,1,8,0:0:0:0:
472,311,156036,1,0,0:0:0:0:
453,274,156122,1,0,0:0:0:0:
483,332,156208,1,8,0:0:0:0:
483,332,156381,1,8,0:0:0:0:
483,332,156553,1,0,0:0:0:0:
491,303,156640,1,0,0:0:0:0:
483,332,156726,1,8,0:0:0:0:
491,303,156812,1,8,0:0:0:0:
483,332,156898,1,0,0:0:0:0:
483,332,157071,1,0,0:0:0:0:
483,332,157243,1,8,0:0:0:0:
466,304,157329,1,0,0:0:0:0:
483,332,157415,1,8,0:0:0:0:
466,304,157502,1,8,0:0:0:0:
483,332,157588,1,0,0:0:0:0:
483,332,157760,1,8,0:0:0:0:
483,332,157933,1,0,0:0:0:0:
483,332,158105,1,0,0:0:0:0:
375,243,158191,1,0,0:0:0:0:
489,302,158277,1,8,0:0:0:0:
489,302,158450,1,8,0:0:0:0:
375,243,158536,1,8,0:0:0:0:
489,302,158622,1,0,0:0:0:0:
489,302,158795,1,0,0:0:0:0:
375,243,158881,1,8,0:0:0:0:
489,302,158967,1,8,0:0:0:0:
489,302,159140,1,0,0:0:0:0:
489,302,159312,1,8,0:0:0:0:
413,283,159398,1,0,0:0:0:0:
489,302,159484,1,8,0:0:0:0:
413,283,159571,1,0,0:0:0:0:
489,302,159657,1,8,0:0:0:0:
413,283,159743,1,0,0:0:0:0:
489,302,159829,1,8,0:0:0:0:
413,283,159915,1,0,0:0:0:0:
489,302,160002,1,8,0:0:0:0:
456,286,160088,1,0,0:0:0:0:
489,302,160174,1,8,0:0:0:0:
456,286,160260,1,0,0:0:0:0:
507,305,160346,1,12,0:0:0:0:
498,267,160519,1,8,0:0:0:0:
498,267,160605,1,0,0:0:0:0:
413,178,160691,1,8,0:0:0:0:
413,178,160749,1,0,0:0:0:0:
413,178,160806,1,0,0:0:0:0:
413,178,160864,1,8,0:0:0:0:
413,178,160921,1,0,0:0:0:0:
413,178,160979,1,0,0:0:0:0:
413,178,161036,1,8,0:0:0:0:
413,178,161094,1,0,0:0:0:0:
413,178,161151,1,0,0:0:0:0:
413,178,161208,1,8,0:0:0:0:
415,261,161266,1,0,0:0:0:0:
415,261,161323,1,0,0:0:0:0:
415,261,161381,1,8,0:0:0:0:
448,304,161467,1,8,0:0:0:0:
448,304,161553,1,0,0:0:0:0:
448,304,161640,1,0,0:0:0:0:
448,304,161726,1,8,0:0:0:0:
469,281,161812,1,0,0:0:0:0:
469,281,161898,1,8,0:0:0:0:
469,281,161984,1,8,0:0:0:0:
478,292,162071,1,0,0:0:0:0:
457,300,162243,1,8,0:0:0:0:
465,304,162415,1,0,0:0:0:0:
484,295,162588,1,0,0:0:0:0:
484,295,162674,1,0,0:0:0:0:
458,158,162760,1,8,0:0:0:0:
458,158,162818,1,8,0:0:0:0:
458,158,162875,1,8,0:0:0:0:
458,158,162933,1,0,0:0:0:0:
398,241,163019,1,8,0:0:0:0:
398,241,163105,1,0,0:0:0:0:
493,285,163277,1,0,0:0:0:0:
493,285,163450,1,8,0:0:0:0:
489,319,163622,1,8,0:0:0:0:
388,310,163708,1,8,0:0:0:0:
388,310,163795,1,0,0:0:0:0:
388,310,163881,1,0,0:0:0:0:
388,310,163967,1,8,0:0:0:0:
469,312,164140,1,8,0:0:0:0:
469,312,164226,1,0,0:0:0:0:
469,312,164312,1,8,0:0:0:0:
469,312,164398,1,8,0:0:0:0:
469,312,164484,1,0,0:0:0:0:
496,324,164657,1,0,0:0:0:0:
496,324,164829,1,8,0:0:0:0:
482,283,164915,1,8,0:0:0:0:
482,325,165002,1,0,0:0:0:0:
482,325,165174,1,8,0:0:0:0:
470,303,165346,1,0,0:0:0:0:
470,303,165433,1,0,0:0:0:0:
470,303,165519,1,8,0:0:0:0:
470,303,165605,1,0,0:0:0:0:
470,303,165691,1,8,0:0:0:0:
510,318,165864,1,8,0:0:0:0:
495,313,166036,1,8,0:0:0:0:
448,300,166208,1,0,0:0:0:0:
448,300,166266,1,0,0:0:0:0:
448,300,166323,1,0,0:0:0:0:
448,300,166381,1,8,0:0:0:0:
512,343,166467,1,8,0:0:0:0:
512,343,166553,1,0,0:0:0:0:
494,337,166640,1,8,0:0:0:0:
494,337,166726,1,0,0:0:0:0:
494,337,166812,1,0,0:0:0:0:
494,337,166898,1,8,0:0:0:0:
494,337,166984,1,8,0:0:0:0:
494,337,167071,1,0,0:0:0:0:
494,337,167243,1,8,0:0:0:0:
488,326,167415,1,0,0:0:0:0:
488,326,167502,1,0,0:0:0:0:
478,331,167588,1,8,0:0:0:0:
478,331,167674,1,0,0:0:0:0:
478,331,167760,1,8,0:0:0:0:
478,331,167846,1,8,0:0:0:0:
489,331,167933,1,0,0:0:0:0:
489,331,168019,1,8,0:0:0:0:
489,331,168105,1,0,0:0:0:0:
489,331,168191,1,0,0:0:0:0:
489,331,168277,1,8,0:0:0:0:
489,331,168450,1,0,0:0:0:0:
480,354,168536,1,0,0:0:0:0:
479,354,168622,1,8,0:0:0:0:
311,251,168795,1,0,0:0:0:0:
404,136,168967,1,8,0:0:0:0:
404,136,169025,1,8,0:0:0:0:
404,136,169082,1,8,0:0:0:0:
404,136,169140,1,0,0:0:0:0:
485,312,169312,1,8,0:0:0:0:
485,312,169484,1,0,0:0:0:0:
504,335,169657,1,8,0:0:0:0:
489,321,169743,1,8,0:0:0:0:
497,340,169829,1,0,0:0:0:0:
489,321,169915,1,0,0:0:0:0:
497,340,170002,1,8,0:0:0:0:
497,340,170174,1,8,0:0:0:0:
497,340,170346,1,0,0:0:0:0:
462,328,170433,1,0,0:0:0:0:
462,328,170519,1,8,0:0:0:0:
461,292,170605,1,8,0:0:0:0:
478,218,170691,1,0,0:0:0:0:
411,181,170734,1,0,0:0:0:0:
478,218,170864,1,0,0:0:0:0:
411,181,170907,1,0,0:0:0:0:
470,295,171036,1,8,0:0:0:0:
466,324,171208,1,0,0:0:0:0:
466,324,171381,1,8,0:0:0:0:
480,307,171467,1,8,0:0:0:0:
453,315,171553,1,0,0:0:0:0:
477,267,171640,1,0,0:0:0:0:
451,303,171726,1,8,0:0:0:0:
400,176,171769,1,8,0:0:0:0:
451,303,171898,1,8,0:0:0:0:
400,176,171941,1,8,0:0:0:0:
466,354,172071,1,0,0:0:0:0:
466,354,172157,1,0,0:0:0:0:
466,354,172243,1,8,0:0:0:0:
482,341,172329,1,0,0:0:0:0:
482,341,172415,1,8,0:0:0:0:
482,341,172502,1,0,0:0:0:0:
488,323,172588,1,8,0:0:0:0:
488,323,172674,1,8,0:0:0:0:
488,323,172760,1,0,0:0:0:0:
459,319,172933,1,0,0:0:0:0:
459,319,173105,1,8,0:0:0:0:
476,324,173191,1,8,0:0:0:0:
464,321,173277,1,0,0:0:0:0:
464,321,173450,1,8,0:0:0:0:
464,321,173622,1,0,0:0:0:0:
462,300,173708,1,0,0:0:0:0:
464,321,173795,1,8,0:0:0:0:
462,300,173881,1,8,0:0:0:0:
462,301,173967,1,0,0:0:0:0:
482,317,174140,1,8,0:0:0:0:
474,339,174312,1,0,0:0:0:0:
424,135,174484,1,8,0:0:0:0:
424,135,174542,1,8,0:0:0:0:
424,135,174599,1,8,0:0:0:0:
424,135,174657,1,0,0:0:0:0:
312,269,174714,1,0,0:0:0:0:
312,269,174772,1,0,0:0:0:0:
442,146,174829,1,8,0:0:0:0:
493,338,174915,1,0,0:0:0:0:
442,146,175002,1,8,0:0:0:0:
493,382,175088,1,0,0:0:0:0:
442,146,175174,1,8,0:0:0:0:
499,312,175260,1,8,0:0:0:0:
499,312,175346,1,0,0:0:0:0:
499,312,175433,1,0,0:0:0:0:
499,312,175519,1,8,0:0:0:0:
499,312,175605,1,8,0:0:0:0:
499,312,175691,1,0,0:0:0:0:
502,328,175864,1,8,0:0:0:0:
485,268,176036,1,0,0:0:0:0:
484,321,176122,1,0,0:0:0:0:
485,268,176208,1,8,0:0:0:0:
484,330,176381,1,8,0:0:0:0:
484,330,176467,1,8,0:0:0:0:
484,330,176553,1,0,0:0:0:0:
484,330,176640,1,8,0:0:0:0:
484,330,176726,1,0,0:0:0:0:
484,330,176812,1,0,0:0:0:0:
484,330,176898,1,12,0:0:0:0:
483,355,177071,1,8,0:0:0:0:
483,355,177243,1,8,0:0:0:0:
451,330,177329,1,8,0:0:0:0:
483,355,177415,1,0,0:0:0:0:
451,330,177588,1,8,0:0:0:0:
451,330,177674,1,8,0:0:0:0:
451,330,177760,1,0,0:0:0:0:
451,330,177846,1,0,0:0:0:0:
451,330,177933,1,8,0:0:0:0:
487,355,178105,1,0,0:0:0:0:
444,313,178277,1,8,0:0:0:0:
462,314,178364,1,8,0:0:0:0:
496,341,178450,1,0,0:0:0:0:
439,330,178622,1,8,0:0:0:0:
439,330,178665,1,8,0:0:0:0:
419,320,178795,1,8,0:0:0:0:
481,269,178838,1,8,0:0:0:0:
497,321,178967,1,0,0:0:0:0:
478,357,179140,1,0,0:0:0:0:
504,354,179312,1,0,0:0:0:0:
498,332,179398,1,0,0:0:0:0:
498,332,179484,1,8,0:0:0:0:
496,349,179657,1,8,0:0:0:0:
441,133,179829,1,0,0:0:0:0:
441,133,179887,1,0,0:0:0:0:
441,133,179944,1,0,0:0:0:0:
441,133,180002,1,8,0:0:0:0:
507,321,180174,1,8,0:0:0:0:
471,314,180346,1,0,0:0:0:0:
471,314,180433,1,0,0:0:0:0:
471,314,180519,1,8,0:0:0:0:
471,314,180605,1,8,0:0:0:0:
480,312,180691,1,0,0:0:0:0:
461,311,180864,1,0,0:0:0:0:
467,313,181036,1,8,0:0:0:0:
489,310,181208,1,8,0:0:0:0:
489,310,181295,1,0,0:0:0:0:
489,310,181381,1,8,0:0:0:0:
489,310,181467,1,8,0:0:0:0:
500,321,181553,1,0,0:0:0:0:
500,321,181640,1,0,0:0:0:0:
500,321,181726,1,8,0:0:0:0:
474,345,181898,1,0,0:0:0:0:
473,347,182071,1,8,0:0:0:0:
482,314,182157,1,0,0:0:0:0:
476,350,182243,1,8,0:0:0:0:
498,323,182415,1,8,0:0:0:0:
454,288,182588,1,0,0:0:0:0:
369,123,182631,1,0,0:0:0:0:
473,326,182760,1,8,0:0:0:0:
376,125,182803,1,8,0:0:0:0:
473,326,182933,1,8,0:0:0:0:
379,130,182976,1,8,0:0:0:0:
471,292,183105,1,0,0:0:0:0:
462,307,183277,1,8,0:0:0:0:
462,307,183364,1,0,0:0:0:0:
462,307,183450,1,8,0:0:0:0:
458,314,183536,1,8,0:0:0:0:
458,315,183622,1,0,0:0:0:0:
477,345,183795,1,8,0:0:0:0:
477,345,183967,1,0,0:0:0:0:
476,293,184053,1,0,0:0:0:0:
466,318,184140,1,8,0:0:0:0:
466,318,184197,1,8,0:0:0:0:
466,318,184254,1,8,0:0:0:0:
466,318,184312,1,8,0:0:0:0:
466,318,184369,1,8,0:0:0:0:
466,318,184427,1,8,0:0:0:0:
466,318,184484,1,0,0:0:0:0:
500,309,184657,1,0,0:0:0:0:
478,294,184743,1,0,0:0:0:0:
499,317,184829,1,8,0:0:0:0:
487,305,184915,1,8,0:0:0:0:
487,305,185002,1,0,0:0:0:0:
487,305,185088,1,0,0:0:0:0:
487,305,185174,1,8,0:0:0:0:
482,302,185346,1,0,0:0:0:0:
482,302,185519,1,8,0:0:0:0:
482,302,185691,1,0,0:0:0:0:
451,205,185777,1,0,0:0:0:0:
421,150,185864,1,8,0:0:0:0:
421,150,185921,1,8,0:0:0:0:
421,150,185979,1,8,0:0:0:0:
421,150,186036,1,0,0:0:0:0:
483,321,186208,1,8,0:0:0:0:
475,329,186381,1,8,0:0:0:0:
475,329,186467,1,8,0:0:0:0:
479,328,186553,1,0,0:0:0:0:
463,342,186726,1,0,0:0:0:0:
459,349,186783,1,0,0:0:0:0:
457,351,186841,1,0,0:0:0:0:
454,356,186898,1,8,0:0:0:0:
462,303,186984,1,0,0:0:0:0:
462,303,187071,1,8,0:0:0:0:
462,303,187157,1,8,0:0:0:0:
462,303,187243,1,0,0:0:0:0:
496,335,187329,1,8,0:0:0:0:
496,335,187415,1,0,0:0:0:0:
496,335,187502,1,8,0:0:0:0:
478,359,187588,1,0,0:0:0:0:
478,359,187674,1,0,0:0:0:0:
478,359,187760,1,8,0:0:0:0:
471,345,187846,1,8,0:0:0:0:
471,345,187933,1,0,0:0:0:0:
473,336,188105,1,0,0:0:0:0:
473,336,188277,1,8,0:0:0:0:
493,345,188364,1,0,0:0:0:0:
493,345,188450,1,8,0:0:0:0:
389,350,188536,1,8,0:0:0:0:
493,345,188622,1,0,0:0:0:0:
501,346,188795,1,0,0:0:0:0:
501,346,188852,1,0,0:0:0:0:
501,346,188910,1,0,0:0:0:0:
501,351,188967,1,8,0:0:0:0:
498,354,189025,1,8,0:0:0:0:
499,356,189082,1,8,0:0:0:0:
499,356,189140,1,0,0:0:0:0:
511,343,189226,1,0,0:0:0:0:
511,348,189312,1,8,0:0:0:0:
492,331,189484,1,0,0:0:0:0:
444,306,189571,1,0,0:0:0:0:
492,331,189657,1,8,0:0:0:0:
506,331,189829,1,0,0:0:0:0:
470,179,190002,1,8,0:0:0:0:
470,179,190059,1,8,0:0:0:0:
469,184,190117,1,8,0:0:0:0:
471,185,190174,1,0,0:0:0:0:
500,308,190260,1,0,0:0:0:0:
457,283,190346,1,8,0:0:0:0:
496,344,190519,1,0,0:0:0:0:
496,344,190691,1,8,0:0:0:0:
457,333,190864,1,0,0:0:0:0:
457,333,190950,1,0,0:0:0:0:
485,344,191036,1,8,0:0:0:0:
477,333,191208,1,8,0:0:0:0:
477,333,191266,1,8,0:0:0:0:
477,333,191323,1,8,0:0:0:0:
477,333,191381,1,0,0:0:0:0:
487,301,191467,1,8,0:0:0:0:
487,301,191553,1,0,0:0:0:0:
487,301,191640,1,0,0:0:0:0:
487,301,191726,1,8,0:0:0:0:
465,383,191812,1,0,0:0:0:0:
465,328,191898,1,8,0:0:0:0:
483,323,191984,1,0,0:0:0:0:
484,342,192071,1,8,0:0:0:0:
484,343,192157,1,8,0:0:0:0:
484,347,192243,1,0,0:0:0:0:
485,348,192329,1,0,0:0:0:0:
487,352,192415,1,8,0:0:0:0:
475,339,192502,1,8,0:0:0:0:
475,339,192588,1,0,0:0:0:0:
475,339,192674,1,0,0:0:0:0:
475,339,192760,1,8,0:0:0:0:
475,339,192846,1,0,0:0:0:0:
475,339,192933,1,0,0:0:0:0:
475,339,193019,1,0,0:0:0:0:
475,339,193105,1,8,0:0:0:0:
475,339,193191,1,0,0:0:0:0:
475,339,193277,1,0,0:0:0:0:
475,339,193364,1,0,0:0:0:0:
476,362,193450,1,12,0:0:0:0:
325,117,193622,1,8,0:0:0:0:
325,117,193708,1,0,0:0:0:0:
363,143,193795,1,8,0:0:0:0:
363,143,193852,1,0,0:0:0:0:
363,143,193910,1,0,0:0:0:0:
363,143,193967,1,8,0:0:0:0:
363,143,194025,1,0,0:0:0:0:
363,143,194082,1,0,0:0:0:0:
363,143,194140,1,8,0:0:0:0:
484,344,194197,1,0,0:0:0:0:
484,344,194254,1,0,0:0:0:0:
484,344,194312,1,8,0:0:0:0:
484,344,194369,1,0,0:0:0:0:
484,344,194427,1,0,0:0:0:0:
484,344,194484,1,8,0:0:0:0:
478,299,194571,1,0,0:0:0:0:
478,299,194657,1,8,0:0:0:0:
478,299,194743,1,8,0:0:0:0:
478,299,194829,1,0,0:0:0:0:
478,299,194915,1,8,0:0:0:0:
493,317,195002,1,0,0:0:0:0:
492,316,195088,1,0,0:0:0:0:
493,310,195174,1,8,0:0:0:0:
477,336,195346,1,8,0:0:0:0:
481,328,195519,1,0,0:0:0:0:
436,330,195605,1,8,0:0:0:0:
478,355,195691,1,0,0:0:0:0:
404,192,195864,1,8,0:0:0:0:
404,192,195921,1,8,0:0:0:0:
404,192,195979,1,8,0:0:0:0:
404,192,196036,1,0,0:0:0:0:
487,285,196122,1,0,0:0:0:0:
487,285,196208,1,8,0:0:0:0:
487,285,196295,1,0,0:0:0:0:
487,285,196381,1,0,0:0:0:0:
487,285,196467,1,0,0:0:0:0:
487,285,196553,1,8,0:0:0:0:
434,268,196640,1,8,0:0:0:0:
456,288,196726,1,0,0:0:0:0:
456,288,196812,1,0,0:0:0:0:
456,288,196898,1,8,0:0:0:0:
456,312,196984,1,0,0:0:0:0:
456,312,197071,1,8,0:0:0:0:
476,313,197243,1,0,0:0:0:0:
479,323,197329,1,8,0:0:0:0:
476,286,197415,1,0,0:0:0:0:
476,286,197502,1,0,0:0:0:0:
478,333,197588,1,8,0:0:0:0:
478,333,197674,1,0,0:0:0:0:
435,192,197760,1,8,0:0:0:0:
435,192,197818,1,8,0:0:0:0:
435,192,197875,1,8,0:0:0:0:
435,192,197933,1,0,0:0:0:0:
435,192,197990,1,8,0:0:0:0:
435,192,198048,1,8,0:0:0:0:
435,192,198105,1,0,0:0:0:0:
394,270,198191,1,0,0:0:0:0:
394,270,198277,1,8,0:0:0:0:
394,270,198364,1,0,0:0:0:0:
397,147,198450,1,8,0:0:0:0:
397,147,198507,1,8,0:0:0:0:
397,147,198565,1,8,0:0:0:0:
402,150,198622,1,0,0:0:0:0:
422,241,198708,1,0,0:0:0:0:
495,297,198795,1,8,0:0:0:0:
495,297,198881,1,0,0:0:0:0:
495,297,198967,1,0,0:0:0:0:
478,350,199053,1,8,0:0:0:0:
478,350,199140,1,0,0:0:0:0:
453,171,199312,1,0,0:0:0:0:
453,171,199369,1,0,0:0:0:0:
453,171,199427,1,0,0:0:0:0:
453,171,199484,1,8,0:0:0:0:
436,141,199571,1,8,0:0:0:0:
489,328,199657,1,0,0:0:0:0:
458,319,199743,1,8,0:0:0:0:
489,328,199829,1,0,0:0:0:0:
481,335,199915,1,0,0:0:0:0:
481,335,200002,1,8,0:0:0:0:
467,328,200088,1,0,0:0:0:0:
467,328,200174,1,8,0:0:0:0:
280,203,200346,1,8,0:0:0:0:
280,203,200433,1,8,0:0:0:0:
280,203,200519,1,0,0:0:0:0:
280,203,200605,1,0,0:0:0:0:
285,203,200691,1,8,0:0:0:0:
501,325,200864,1,8,0:0:0:0:
501,325,200950,1,0,0:0:0:0:
501,325,201036,1,8,0:0:0:0:
501,325,201122,1,8,0:0:0:0:
501,325,201208,1,0,0:0:0:0:
501,325,201295,1,0,0:0:0:0:
506,323,201381,1,8,0:0:0:0:
482,336,201553,1,0,0:0:0:0:
482,336,201640,1,0,0:0:0:0:
482,336,201726,1,8,0:0:0:0:
485,319,201898,1,0,0:0:0:0:
485,319,202071,1,8,0:0:0:0:
491,345,202157,1,8,0:0:0:0:
485,319,202243,1,0,0:0:0:0:
485,319,202415,1,8,0:0:0:0:
485,319,202588,1,0,0:0:0:0:
487,314,202674,1,0,0:0:0:0:
485,319,202760,1,8,0:0:0:0:
487,328,202846,1,0,0:0:0:0:
487,328,202933,1,8,0:0:0:0:
487,328,203105,1,8,0:0:0:0:
504,336,203277,1,0,0:0:0:0:
480,339,203450,1,8,0:0:0:0:
477,345,203536,1,0,0:0:0:0:
472,335,203622,1,8,0:0:0:0:
477,345,203708,1,8,0:0:0:0:
460,245,203795,1,0,0:0:0:0:
419,145,203838,1,0,0:0:0:0:
460,245,203967,1,0,0:0:0:0:
419,145,204010,1,0,0:0:0:0:
462,308,204140,1,8,0:0:0:0:
462,308,204312,1,0,0:0:0:0:
491,334,204484,1,8,0:0:0:0:
491,334,204571,1,8,0:0:0:0:
491,334,204657,1,0,0:0:0:0:
491,334,204743,1,0,0:0:0:0:
494,267,204829,1,8,0:0:0:0:
372,170,204872,1,8,0:0:0:0:
494,267,205002,1,8,0:0:0:0:
372,170,205045,1,8,0:0:0:0:
486,310,205174,1,0,0:0:0:0:
486,310,205260,1,0,0:0:0:0:
486,310,205346,1,8,0:0:0:0:
486,310,205433,1,8,0:0:0:0:
486,310,205519,1,0,0:0:0:0:
469,322,205605,1,8,0:0:0:0:
469,322,205691,1,0,0:0:0:0:
469,322,205777,1,0,0:0:0:0:
471,317,205864,1,8,0:0:0:0:
444,293,206036,1,0,0:0:0:0:
447,301,206208,1,8,0:0:0:0:
473,325,206295,1,8,0:0:0:0:
482,307,206381,1,0,0:0:0:0:
482,307,206553,1,8,0:0:0:0:
482,307,206726,1,8,0:0:0:0:
468,339,206812,1,0,0:0:0:0:
502,308,206898,1,8,0:0:0:0:
468,339,206984,1,8,0:0:0:0:
496,327,207071,1,0,0:0:0:0:
484,330,207243,1,8,0:0:0:0:
484,330,207415,1,8,0:0:0:0:
460,113,207588,1,8,0:0:0:0:
460,113,207645,1,8,0:0:0:0:
460,113,207703,1,8,0:0:0:0:
460,113,207760,1,0,0:0:0:0:
460,346,207818,1,0,0:0:0:0:
460,346,207875,1,0,0:0:0:0:
442,145,207933,1,8,0:0:0:0:
486,281,208105,1,0,0:0:0:0:
486,281,208191,1,0,0:0:0:0:
486,281,208277,1,8,0:0:0:0:
476,325,208450,1,8,0:0:0:0:
476,319,208536,1,0,0:0:0:0:
476,319,208622,1,8,0:0:0:0:
476,341,208795,1,8,0:0:0:0:
482,341,208967,1,8,0:0:0:0:
482,341,209053,1,8,0:0:0:0:
482,341,209140,1,0,0:0:0:0:
482,341,209226,1,0,0:0:0:0:
482,341,209312,1,8,0:0:0:0:
482,341,209398,1,8,0:0:0:0:
482,341,209484,1,0,0:0:0:0:
482,341,209571,1,0,0:0:0:0:
482,341,209657,1,8,0:0:0:0:
482,341,209743,1,8,0:0:0:0:
486,338,209829,1,0,0:0:0:0:
488,339,209915,1,0,0:0:0:0:
505,325,210002,1,12,0:0:0:0:
512,325,218277,5,0,0:0:0:0:
460,333,218450,1,0,0:0:0:0:
460,333,218536,1,8,0:0:0:0:
460,333,218622,1,0,0:0:0:0:
460,333,218708,1,8,0:0:0:0:
460,333,218795,1,0,0:0:0:0:
480,301,218967,1,0,0:0:0:0:
480,301,219140,1,0,0:0:0:0:
480,301,219312,1,8,0:0:0:0:
471,335,219484,1,8,0:0:0:0:
471,335,219571,1,8,0:0:0:0:
465,337,219657,1,8,0:0:0:0:
465,337,219829,1,8,0:0:0:0:
431,321,220002,1,0,0:0:0:0:
468,338,220174,1,8,0:0:0:0:
468,338,220260,1,8,0:0:0:0:
468,338,220346,1,0,0:0:0:0:
468,338,220433,1,8,0:0:0:0:
468,338,220519,1,0,0:0:0:0:
470,342,220605,1,8,0:0:0:0:
461,330,220777,1,8,0:0:0:0:
461,330,220864,1,0,0:0:0:0:
463,349,220950,1,0,0:0:0:0:
463,349,221036,1,0,0:0:0:0:
462,365,221122,1,8,0:0:0:0:
472,330,221295,1,0,0:0:0:0:
472,330,221381,1,8,0:0:0:0:
479,331,221640,1,0,0:0:0:0:
475,330,221898,1,8,0:0:0:0:
484,345,222071,1,0,0:0:0:0:
490,360,222243,1,8,0:0:0:0:
490,360,222329,1,8,0:0:0:0:
490,360,222415,1,0,0:0:0:0:
493,341,222588,1,0,0:0:0:0:
493,341,222760,1,8,0:0:0:0:
493,341,222933,1,0,0:0:0:0:
458,313,223019,1,0,0:0:0:0:
493,341,223105,1,8,0:0:0:0:
493,341,223277,1,0,0:0:0:0:
498,341,223450,1,12,0:0:0:0:
507,299,223795,1,0,0:0:0:0:
507,299,223967,1,8,0:0:0:0:
470,255,224053,1,8,0:0:0:0:
507,299,224140,1,0,0:0:0:0:
508,306,224312,1,0,0:0:0:0:
475,302,224484,1,8,0:0:0:0:
475,302,224542,1,8,0:0:0:0:
475,302,224599,1,8,0:0:0:0:
477,307,224657,1,0,0:0:0:0:
462,312,224743,1,8,0:0:0:0:
462,312,224829,1,0,0:0:0:0:
462,319,224915,1,0,0:0:0:0:
435,204,225002,1,8,0:0:0:0:
435,204,225059,1,8,0:0:0:0:
435,204,225117,1,8,0:0:0:0:
435,204,225174,1,0,0:0:0:0:
497,291,225346,1,0,0:0:0:0:
497,291,225519,1,8,0:0:0:0:
499,326,225605,1,8,0:0:0:0:
499,326,225691,1,0,0:0:0:0:
499,326,225777,1,8,0:0:0:0:
449,286,225864,1,0,0:0:0:0:
499,326,225950,1,0,0:0:0:0:
499,326,226036,1,8,0:0:0:0:
499,326,226122,1,0,0:0:0:0:
449,289,226208,1,8,0:0:0:0:
482,291,226381,1,8,0:0:0:0:
482,291,226467,1,8,0:0:0:0:
482,291,226553,1,0,0:0:0:0:
496,354,226726,1,0,0:0:0:0:
462,313,226812,1,0,0:0:0:0:
496,354,226898,1,8,0:0:0:0:
496,354,227071,1,0,0:0:0:0:
501,350,227243,1,8,0:0:0:0:
413,280,227329,1,8,0:0:0:0:
480,354,227415,1,0,0:0:0:0:
480,354,227473,1,0,0:0:0:0:
480,354,227530,1,0,0:0:0:0:
480,354,227588,1,8,0:0:0:0:
466,334,227760,1,0,0:0:0:0:
466,334,227933,1,8,0:0:0:0:
489,336,228019,1,0,0:0:0:0:
466,334,228105,1,8,0:0:0:0:
466,334,228277,1,0,0:0:0:0:
485,362,228450,1,8,0:0:0:0:
485,362,228536,1,8,0:0:0:0:
485,362,228622,1,0,0:0:0:0:
476,341,228795,1,0,0:0:0:0:
476,341,228967,1,8,0:0:0:0:
476,312,229053,1,8,0:0:0:0:
476,341,229140,1,0,0:0:0:0:
476,312,229226,1,0,0:0:0:0:
476,341,229312,1,8,0:0:0:0:
476,341,229484,1,0,0:0:0:0:
476,341,229657,1,8,0:0:0:0:
480,340,229743,1,8,0:0:0:0:
480,345,229829,1,0,0:0:0:0:
491,358,229915,1,8,0:0:0:0:
491,358,230002,1,0,0:0:0:0:
491,358,230088,1,0,0:0:0:0:
479,354,230174,1,8,0:0:0:0:
479,354,230260,1,8,0:0:0:0:
479,354,230346,1,0,0:0:0:0:
485,331,230519,1,0,0:0:0:0:
485,331,230691,1,0,0:0:0:0:
468,327,230777,1,8,0:0:0:0:
485,331,230864,1,0,0:0:0:0:
485,331,231036,1,8,0:0:0:0:
485,331,231208,1,0,0:0:0:0:
471,334,231295,1,0,0:0:0:0:
485,331,231381,1,8,0:0:0:0:
471,334,231467,1,8,0:0:0:0:
485,331,231553,1,0,0:0:0:0:
476,332,231611,1,0,0:0:0:0:
476,332,231668,1,0,0:0:0:0:
485,331,231726,1,8,0:0:0:0:
476,343,231898,1,0,0:0:0:0:
476,343,232071,1,8,0:0:0:0:
476,343,232157,1,0,0:0:0:0:
476,343,232243,1,8,0:0:0:0:
476,343,232415,1,0,0:0:0:0:
481,348,232588,1,8,0:0:0:0:
481,348,232674,1,8,0:0:0:0:
481,348,232760,1,0,0:0:0:0:
483,352,232933,1,0,0:0:0:0:
483,352,233105,1,8,0:0:0:0:
483,352,233191,1,8,0:0:0:0:
483,352,233277,1,0,0:0:0:0:
483,352,233364,1,0,0:0:0:0:
483,352,233450,1,8,0:0:0:0:
487,366,233622,1,0,0:0:0:0:
496,336,233795,1,8,0:0:0:0:
491,353,233881,1,0,0:0:0:0:
491,353,233967,1,8,0:0:0:0:
491,353,234053,1,8,0:0:0:0:
509,349,234140,1,0,0:0:0:0:
509,349,234226,1,0,0:0:0:0:
509,349,234312,1,8,0:0:0:0:
509,349,234398,1,0,0:0:0:0:
509,349,234484,1,8,0:0:0:0:
480,351,234571,1,8,0:0:0:0:
480,351,234657,1,0,0:0:0:0:
480,351,234743,1,0,0:0:0:0:
474,366,234829,1,8,0:0:0:0:
456,303,235002,1,0,0:0:0:0:
493,293,235088,1,0,0:0:0:0:
456,303,235174,1,8,0:0:0:0:
456,303,235346,1,0,0:0:0:0:
456,303,235519,1,8,0:0:0:0:
493,293,235605,1,8,0:0:0:0:
456,303,235691,1,0,0:0:0:0:
409,191,235749,1,0,0:0:0:0:
409,191,235806,1,0,0:0:0:0:
456,303,235864,1,8,0:0:0:0:
486,328,236036,1,0,0:0:0:0:
490,321,236208,1,8,0:0:0:0:
500,336,236295,1,8,0:0:0:0:
490,321,236381,1,0,0:0:0:0:
490,321,236553,1,8,0:0:0:0:
500,337,236726,1,0,0:0:0:0:
500,337,236812,1,0,0:0:0:0:
500,337,236898,1,8,0:0:0:0:
469,311,237071,1,0,0:0:0:0:
469,311,237243,1,8,0:0:0:0:
505,328,237329,1,8,0:0:0:0:
484,328,237415,1,0,0:0:0:0:
484,328,237588,1,8,0:0:0:0:
498,328,237760,1,0,0:0:0:0:
498,328,237846,1,0,0:0:0:0:
498,328,237933,1,8,0:0:0:0:
498,328,238019,1,0,0:0:0:0:
493,337,238105,1,8,0:0:0:0:
500,359,238191,1,8,0:0:0:0:
502,336,238277,1,0,0:0:0:0:
502,336,238364,1,8,0:0:0:0:
502,336,238450,1,0,0:0:0:0:
502,336,238536,1,0,0:0:0:0:
502,336,238622,1,8,0:0:0:0:
457,185,238795,1,0,0:0:0:0:
457,185,238852,1,0,0:0:0:0:
457,185,238910,1,0,0:0:0:0:
457,185,238967,1,8,0:0:0:0:
471,336,239312,1,0,0:0:0:0:
471,336,239484,1,8,0:0:0:0:
471,336,239657,1,0,0:0:0:0:
471,336,239829,1,0,0:0:0:0:
471,336,240002,1,8,0:0:0:0:
502,345,240346,1,8,0:0:0:0:
502,345,240519,1,8,0:0:0:0:
502,345,240691,1,0,0:0:0:0:
502,345,240864,1,0,0:0:0:0:
502,345,241036,1,8,0:0:0:0:
509,356,241381,1,0,0:0:0:0:
509,356,241553,1,8,0:0:0:0:
509,356,241726,1,0,0:0:0:0:
504,307,241898,1,0,0:0:0:0:
504,307,241984,1,0,0:0:0:0:
504,307,242071,1,8,0:0:0:0:
504,307,242157,1,8,0:0:0:0:
504,307,242243,1,0,0:0:0:0:
504,307,242329,1,0,0:0:0:0:
504,307,242415,1,8,0:0:0:0:
504,307,242502,1,0,0:0:0:0:
504,307,242588,1,0,0:0:0:0:
504,307,242674,1,0,0:0:0:0:
504,307,242760,1,8,0:0:0:0:
504,307,242846,1,0,0:0:0:0:
506,297,242933,1,0,0:0:0:0:
506,297,243019,1,0,0:0:0:0:
506,297,243105,1,12,0:0:0:0:
481,311,243277,1,8,0:0:0:0:
508,336,243364,1,0,0:0:0:0:
481,311,243450,1,8,0:0:0:0:
481,311,243622,1,0,0:0:0:0:
481,311,243795,1,8,0:0:0:0:
507,336,243838,1,8,0:0:0:0:
465,301,243967,1,0,0:0:0:0:
489,332,244010,1,0,0:0:0:0:
465,301,244140,1,8,0:0:0:0:
478,323,244312,1,0,0:0:0:0:
478,323,244355,1,0,0:0:0:0:
478,323,244484,1,8,0:0:0:0:
499,334,244657,1,0,0:0:0:0:
489,297,244829,1,8,0:0:0:0:
472,319,244872,1,8,0:0:0:0:
472,319,245002,1,0,0:0:0:0:
472,319,245088,1,0,0:0:0:0:
487,342,245174,1,8,0:0:0:0:
487,342,245260,1,8,0:0:0:0:
487,342,245346,1,0,0:0:0:0:
487,342,245433,1,0,0:0:0:0:
487,342,245519,1,8,0:0:0:0:
472,342,245691,1,0,0:0:0:0:
471,191,245864,1,8,0:0:0:0:
471,191,245950,1,0,0:0:0:0:
453,183,246036,1,8,0:0:0:0:
453,182,246094,1,0,0:0:0:0:
453,182,246151,1,0,0:0:0:0:
453,183,246208,1,8,0:0:0:0:
482,342,246381,1,8,0:0:0:0:
498,319,246553,1,8,0:0:0:0:
498,319,246640,1,0,0:0:0:0:
498,319,246726,1,8,0:0:0:0:
497,323,246812,1,8,0:0:0:0:
495,323,246898,1,0,0:0:0:0:
482,346,247071,1,0,0:0:0:0:
482,346,247243,1,8,0:0:0:0:
461,333,247415,1,8,0:0:0:0:
461,333,247502,1,0,0:0:0:0:
461,333,247588,1,8,0:0:0:0:
461,333,247674,1,8,0:0:0:0:
461,333,247760,1,0,0:0:0:0:
498,338,247846,1,0,0:0:0:0:
498,338,247933,1,8,0:0:0:0:
474,328,248105,1,0,0:0:0:0:
474,328,248277,1,8,0:0:0:0:
480,328,248450,1,8,0:0:0:0:
480,328,248536,1,0,0:0:0:0:
480,328,248622,1,8,0:0:0:0:
491,346,248795,1,0,0:0:0:0:
411,143,248838,1,0,0:0:0:0:
411,143,248967,1,8,0:0:0:0:
411,143,249010,1,8,0:0:0:0:
411,143,249140,1,8,0:0:0:0:
411,143,249183,1,8,0:0:0:0:
489,290,249312,1,0,0:0:0:0:
477,304,249484,1,8,0:0:0:0:
477,304,249571,1,8,0:0:0:0:
477,304,249657,1,0,0:0:0:0:
493,330,249829,1,0,0:0:0:0:
493,330,250002,1,8,0:0:0:0:
511,325,250088,1,8,0:0:0:0:
493,330,250174,1,0,0:0:0:0:
511,325,250260,1,0,0:0:0:0:
493,330,250346,1,8,0:0:0:0:
500,337,250519,1,8,0:0:0:0:
453,214,250576,1,8,0:0:0:0:
453,214,250634,1,8,0:0:0:0:
499,351,250691,1,0,0:0:0:0:
499,351,250777,1,0,0:0:0:0:
500,156,250864,1,8,0:0:0:0:
500,156,250921,1,0,0:0:0:0:
500,156,250979,1,0,0:0:0:0:
493,152,251036,1,8,0:0:0:0:
492,150,251094,1,0,0:0:0:0:
491,150,251151,1,0,0:0:0:0:
485,145,251208,1,8,0:0:0:0:
428,283,251295,1,8,0:0:0:0:
428,283,251381,1,0,0:0:0:0:
497,284,251553,1,0,0:0:0:0:
477,296,251640,1,0,0:0:0:0:
497,284,251726,1,8,0:0:0:0:
497,284,251898,1,0,0:0:0:0:
497,284,252071,1,8,0:0:0:0:
487,336,252128,1,8,0:0:0:0:
487,336,252185,1,8,0:0:0:0:
460,319,252243,1,0,0:0:0:0:
474,301,252415,1,8,0:0:0:0:
474,301,252588,1,0,0:0:0:0:
474,301,252760,1,8,0:0:0:0:
484,319,252846,1,0,0:0:0:0:
496,318,252933,1,8,0:0:0:0:
496,318,253105,1,0,0:0:0:0:
451,187,253162,1,0,0:0:0:0:
451,187,253220,1,0,0:0:0:0:
451,198,253277,1,8,0:0:0:0:
492,330,253364,1,8,0:0:0:0:
490,321,253450,1,0,0:0:0:0:
480,324,253536,1,8,0:0:0:0:
480,324,253622,1,0,0:0:0:0:
480,324,253708,1,0,0:0:0:0:
480,324,253795,1,8,0:0:0:0:
488,334,253881,1,8,0:0:0:0:
488,334,253967,1,0,0:0:0:0:
488,334,254053,1,0,0:0:0:0:
488,334,254140,1,8,0:0:0:0:
468,334,254312,1,0,0:0:0:0:
468,334,254484,1,8,0:0:0:0:
475,332,254571,1,8,0:0:0:0:
478,321,254657,1,0,0:0:0:0:
478,321,254743,1,8,0:0:0:0:
478,321,254829,1,0,0:0:0:0:
506,329,255002,1,0,0:0:0:0:
506,338,255059,1,0,0:0:0:0:
506,338,255117,1,0,0:0:0:0:
422,196,255174,1,8,0:0:0:0:
500,318,255260,1,8,0:0:0:0:
500,318,255346,1,0,0:0:0:0:
500,318,255433,1,0,0:0:0:0:
500,318,255519,1,8,0:0:0:0:
490,308,255691,1,0,0:0:0:0:
460,301,255777,1,0,0:0:0:0:
490,308,255864,1,8,0:0:0:0:
490,308,256036,1,0,0:0:0:0:
490,308,256208,1,8,0:0:0:0:
428,381,256266,1,8,0:0:0:0:
431,370,256323,1,8,0:0:0:0:
394,206,256381,1,0,0:0:0:0:
462,303,256553,1,8,0:0:0:0:
478,346,256726,1,0,0:0:0:0:
472,352,256812,1,0,0:0:0:0:
478,346,256898,1,8,0:0:0:0:
461,310,256984,1,0,0:0:0:0:
472,352,257071,1,8,0:0:0:0:
461,310,257243,1,0,0:0:0:0:
448,294,257329,1,0,0:0:0:0:
482,328,257415,1,8,0:0:0:0:
482,328,257473,1,8,0:0:0:0:
482,328,257530,1,8,0:0:0:0:
482,328,257588,1,0,0:0:0:0:
495,299,257674,1,8,0:0:0:0:
495,299,257760,1,0,0:0:0:0:
495,299,257846,1,0,0:0:0:0:
495,299,257933,1,8,0:0:0:0:
472,304,258019,1,0,0:0:0:0:
472,304,258105,1,8,0:0:0:0:
472,304,258191,1,8,0:0:0:0:
504,328,258277,1,0,0:0:0:0:
493,321,258364,1,8,0:0:0:0:
493,321,258450,1,0,0:0:0:0:
493,321,258536,1,0,0:0:0:0:
493,321,258622,1,8,0:0:0:0:
496,305,258708,1,8,0:0:0:0:
496,305,258795,1,0,0:0:0:0:
496,305,258881,1,0,0:0:0:0:
496,305,258967,1,8,0:0:0:0:
496,305,259053,1,0,0:0:0:0:
489,312,259140,1,0,0:0:0:0:
489,311,259226,1,0,0:0:0:0:
489,312,259312,1,8,0:0:0:0:
489,311,259398,1,8,0:0:0:0:
489,312,259484,1,0,0:0:0:0:
489,311,259571,1,0,0:0:0:0:
489,312,259657,1,12,0:0:0:0:
492,305,259829,1,8,0:0:0:0:
492,305,259915,1,0,0:0:0:0:
388,233,260002,1,8,0:0:0:0:
388,233,260059,1,0,0:0:0:0:
388,233,260117,1,0,0:0:0:0:
441,283,260174,1,8,0:0:0:0:
441,283,260231,1,0,0:0:0:0:
441,283,260289,1,0,0:0:0:0:
441,283,260346,1,8,0:0:0:0:
441,283,260404,1,0,0:0:0:0:
441,283,260461,1,0,0:0:0:0:
441,283,260519,1,8,0:0:0:0:
441,283,260576,1,0,0:0:0:0:
441,283,260634,1,0,0:0:0:0:
441,283,260691,1,8,0:0:0:0:
511,325,260777,1,8,0:0:0:0:
511,325,260864,1,0,0:0:0:0:
507,328,260950,1,0,0:0:0:0:
502,326,261036,1,8,0:0:0:0:
499,333,261122,1,0,0:0:0:0:
499,333,261208,1,8,0:0:0:0:
499,333,261295,1,8,0:0:0:0:
474,326,261381,1,0,0:0:0:0:
476,246,261553,1,8,0:0:0:0:
476,246,261726,1,0,0:0:0:0:
495,339,261898,1,0,0:0:0:0:
495,339,261984,1,0,0:0:0:0:
477,208,262071,1,8,0:0:0:0:
477,208,262128,1,8,0:0:0:0:
477,208,262185,1,8,0:0:0:0:
477,208,262243,1,0,0:0:0:0:
493,338,262329,1,8,0:0:0:0:
493,338,262415,1,0,0:0:0:0:
493,338,262502,1,0,0:0:0:0:
493,338,262588,1,8,0:0:0:0:
493,338,262674,1,0,0:0:0:0:
493,338,262760,1,8,0:0:0:0:
493,338,262933,1,8,0:0:0:0:
493,338,263019,1,8,0:0:0:0:
493,338,263105,1,0,0:0:0:0:
493,338,263191,1,0,0:0:0:0:
493,338,263277,1,8,0:0:0:0:
496,346,263450,1,0,0:0:0:0:
496,346,263622,1,0,0:0:0:0:
496,346,263708,1,0,0:0:0:0:
496,346,263795,1,8,0:0:0:0:
481,335,263967,1,8,0:0:0:0:
487,313,264053,1,0,0:0:0:0:
467,296,264140,1,8,0:0:0:0:
467,296,264197,1,0,0:0:0:0:
467,296,264254,1,0,0:0:0:0:
467,296,264312,1,8,0:0:0:0:
467,296,264369,1,0,0:0:0:0:
467,296,264427,1,0,0:0:0:0:
467,296,264484,1,8,0:0:0:0:
467,296,264542,1,0,0:0:0:0:
467,296,264599,1,0,0:0:0:0:
467,296,264657,1,8,0:0:0:0:
467,296,264714,1,0,0:0:0:0:
467,296,264772,1,0,0:0:0:0:
473,299,264829,1,8,0:0:0:0:
496,327,264915,1,0,0:0:0:0:
496,327,265002,1,8,0:0:0:0:
496,327,265088,1,8,0:0:0:0:
496,327,265174,1,0,0:0:0:0:
504,340,265260,1,8,0:0:0:0:
504,340,265346,1,0,0:0:0:0:
504,340,265433,1,0,0:0:0:0:
482,323,265519,1,8,0:0:0:0:
502,276,265691,1,0,0:0:0:0:
502,276,265864,1,8,0:0:0:0:
504,307,265950,1,8,0:0:0:0:
504,307,266036,1,0,0:0:0:0:
504,307,266122,1,0,0:0:0:0:
467,163,266208,1,8,0:0:0:0:
467,163,266266,1,8,0:0:0:0:
467,163,266323,1,8,0:0:0:0:
467,163,266381,1,0,0:0:0:0:
509,294,266467,1,0,0:0:0:0:
509,294,266553,1,8,0:0:0:0:
509,294,266640,1,0,0:0:0:0:
509,294,266726,1,0,0:0:0:0:
503,332,266812,1,0,0:0:0:0:
503,332,266898,1,8,0:0:0:0:
493,334,267071,1,8,0:0:0:0:
493,334,267157,1,0,0:0:0:0:
493,334,267243,1,8,0:0:0:0:
493,334,267329,1,8,0:0:0:0:
493,334,267415,1,0,0:0:0:0:
493,334,267502,1,0,0:0:0:0:
487,346,267588,1,8,0:0:0:0:
487,346,267674,1,8,0:0:0:0:
487,346,267760,1,0,0:0:0:0:
487,346,267846,1,0,0:0:0:0:
487,346,267933,1,8,0:0:0:0:
322,276,268019,1,0,0:0:0:0:
322,276,268105,1,8,0:0:0:0:
322,276,268191,1,0,0:0:0:0:
443,172,268277,1,8,0:0:0:0:
443,172,268335,1,0,0:0:0:0:
443,172,268392,1,0,0:0:0:0:
443,172,268450,1,8,0:0:0:0:
443,172,268507,1,0,0:0:0:0:
443,172,268565,1,0,0:0:0:0:
443,172,268622,1,8,0:0:0:0:
443,172,268680,1,0,0:0:0:0:
443,172,268737,1,0,0:0:0:0:
443,172,268795,1,8,0:0:0:0:
443,172,268852,1,0,0:0:0:0:
449,181,268910,1,0,0:0:0:0:
449,181,268967,1,8,0:0:0:0:
466,284,269053,1,0,0:0:0:0:
466,284,269140,1,8,0:0:0:0:
466,284,269226,1,8,0:0:0:0:
466,284,269312,1,0,0:0:0:0:
466,284,269398,1,8,0:0:0:0:
466,289,269484,1,0,0:0:0:0:
466,289,269571,1,0,0:0:0:0:
466,289,269657,1,8,0:0:0:0:
494,334,269829,1,8,0:0:0:0:
494,334,270002,1,0,0:0:0:0:
509,325,270174,1,0,0:0:0:0:
509,325,270260,1,0,0:0:0:0:
447,133,270346,1,8,0:0:0:0:
447,133,270404,1,8,0:0:0:0:
447,133,270461,1,8,0:0:0:0:
447,133,270519,1,0,0:0:0:0:
493,302,270605,1,0,0:0:0:0:
493,302,270691,1,8,0:0:0:0:
504,320,270777,1,0,0:0:0:0:
504,320,270864,1,0,0:0:0:0:
504,320,270950,1,0,0:0:0:0:
504,320,271036,1,8,0:0:0:0:
506,312,271208,1,0,0:0:0:0:
506,312,271295,1,0,0:0:0:0:
480,330,271381,1,8,0:0:0:0:
480,330,271467,1,0,0:0:0:0:
480,330,271553,1,8,0:0:0:0:
480,330,271726,1,0,0:0:0:0:
472,324,271898,1,0,0:0:0:0:
472,324,271984,1,0,0:0:0:0:
428,138,272071,1,8,0:0:0:0:
428,138,272128,1,0,0:0:0:0:
428,138,272185,1,0,0:0:0:0:
428,138,272243,1,8,0:0:0:0:
428,138,272300,1,0,0:0:0:0:
428,138,272358,1,0,0:0:0:0:
428,138,272415,1,8,0:0:0:0:
422,269,272473,1,8,0:0:0:0:
422,269,272530,1,8,0:0:0:0:
469,325,272588,1,0,0:0:0:0:
469,325,272674,1,0,0:0:0:0:
469,325,272760,1,8,0:0:0:0:
469,325,272846,1,0,0:0:0:0:
469,325,272933,1,0,0:0:0:0:
469,325,273019,1,0,0:0:0:0:
473,327,273105,1,8,0:0:0:0:
497,332,273277,1,8,0:0:0:0:
497,332,273364,1,8,0:0:0:0:
497,332,273450,1,0,0:0:0:0:
497,332,273536,1,0,0:0:0:0:
497,332,273622,1,8,0:0:0:0:
497,332,273795,1,0,0:0:0:0:
491,325,273881,1,8,0:0:0:0:
490,322,273967,1,0,0:0:0:0:
491,325,274053,1,0,0:0:0:0:
490,322,274140,1,8,0:0:0:0:
496,324,274312,1,8,0:0:0:0:
496,324,274398,1,8,0:0:0:0:
496,324,274484,1,0,0:0:0:0:
498,329,274571,1,0,0:0:0:0:
498,329,274657,1,8,0:0:0:0:
498,329,274743,1,0,0:0:0:0:
498,329,274829,1,8,0:0:0:0:
498,329,274915,1,8,0:0:0:0:
480,338,275002,1,0,0:0:0:0:
480,338,275088,1,0,0:0:0:0:
468,306,275174,1,8,0:0:0:0:
468,306,275260,1,0,0:0:0:0:
468,306,275346,1,8,0:0:0:0:
468,306,275433,1,0,0:0:0:0:
468,306,275519,1,8,0:0:0:0:
468,306,275605,1,0,0:0:0:0:
468,306,275691,1,8,0:0:0:0:
468,306,275777,1,0,0:0:0:0:
468,306,275864,1,8,0:0:0:0:
468,306,275950,1,0,0:0:0:0:
468,306,276036,1,8,0:0:0:0:
468,306,276122,1,0,0:0:0:0:
468,306,276208,1,12,0:0:0:0:
479,308,276381,1,8,0:0:0:0:
479,308,276467,1,0,0:0:0:0:
500,293,276553,1,8,0:0:0:0:
500,293,276640,1,0,0:0:0:0:
502,284,276726,1,8,0:0:0:0:
504,282,276812,1,8,0:0:0:0:
509,277,276898,1,0,0:0:0:0:
469,280,276984,1,8,0:0:0:0:
472,276,277071,1,0,0:0:0:0:
476,274,277157,1,0,0:0:0:0:
486,270,277243,1,8,0:0:0:0:
494,294,277329,1,0,0:0:0:0:
360,196,277415,1,8,0:0:0:0:
360,196,277473,1,0,0:0:0:0:
360,196,277530,1,0,0:0:0:0:
360,196,277588,1,8,0:0:0:0:
360,196,277645,1,0,0:0:0:0:
360,196,277703,1,0,0:0:0:0:
360,196,277760,1,8,0:0:0:0:
473,325,277846,1,8,0:0:0:0:
473,325,277933,1,0,0:0:0:0:
473,325,278019,1,0,0:0:0:0:
473,325,278105,1,8,0:0:0:0:
409,281,278191,1,8,0:0:0:0:
409,281,278277,1,0,0:0:0:0:
467,319,278364,1,8,0:0:0:0:
467,319,278450,1,0,0:0:0:0:
493,304,278622,1,8,0:0:0:0:
493,304,278708,1,0,0:0:0:0:
493,304,278795,1,8,0:0:0:0:
493,304,278881,1,8,0:0:0:0:
493,304,278967,1,0,0:0:0:0:
493,304,279053,1,0,0:0:0:0:
493,304,279140,1,8,0:0:0:0:
493,304,279226,1,0,0:0:0:0:
493,304,279312,1,8,0:0:0:0:
453,301,279484,1,8,0:0:0:0:
453,301,279571,1,0,0:0:0:0:
453,301,279657,1,8,0:0:0:0:
453,301,279743,1,8,0:0:0:0:
453,301,279829,1,0,0:0:0:0:
453,301,279915,1,8,0:0:0:0:
453,301,280002,1,0,0:0:0:0:
458,303,280088,1,0,0:0:0:0:
478,317,280174,1,8,0:0:0:0:
478,317,280260,1,8,0:0:0:0:
478,317,280346,1,0,0:0:0:0:
489,296,280519,1,0,0:0:0:0:
489,296,280605,1,0,0:0:0:0:
489,296,280691,1,8,0:0:0:0:
414,370,280749,1,8,0:0:0:0:
414,370,280806,1,8,0:0:0:0:
489,296,280864,1,0,0:0:0:0:
489,296,280950,1,0,0:0:0:0:
459,288,281036,1,8,0:0:0:0:
459,288,281122,1,0,0:0:0:0:
459,288,281208,1,0,0:0:0:0:
459,288,281295,1,0,0:0:0:0:
459,288,281381,1,8,0:0:0:0:
497,339,281553,1,8,0:0:0:0:
497,339,281640,1,8,0:0:0:0:
498,362,281726,1,0,0:0:0:0:
498,362,281812,1,0,0:0:0:0:
502,351,281898,1,8,0:0:0:0:
502,351,282071,1,0,0:0:0:0:
500,286,282157,1,0,0:0:0:0:
500,286,282243,1,8,0:0:0:0:
471,196,282300,1,0,0:0:0:0:
471,196,282358,1,0,0:0:0:0:
471,196,282415,1,8,0:0:0:0:
453,310,282502,1,0,0:0:0:0:
453,310,282588,1,8,0:0:0:0:
453,310,282674,1,8,0:0:0:0:
488,335,282760,1,0,0:0:0:0:
488,335,282846,1,8,0:0:0:0:
488,335,282933,1,0,0:0:0:0:
488,335,283019,1,0,0:0:0:0:
488,335,283105,1,8,0:0:0:0:
488,335,283191,1,0,0:0:0:0:
488,335,283277,1,0,0:0:0:0:
488,335,283364,1,0,0:0:0:0:
488,335,283450,1,8,0:0:0:0:
481,326,283622,1,8,0:0:0:0:
481,326,283708,1,0,0:0:0:0:
481,326,283795,1,8,0:0:0:0:
481,326,283881,1,0,0:0:0:0:
481,326,283967,1,8,0:0:0:0:
481,326,284053,1,0,0:0:0:0:
503,323,284140,1,8,0:0:0:0:
469,334,284226,1,8,0:0:0:0:
469,334,284312,1,0,0:0:0:0:
469,334,284398,1,0,0:0:0:0:
454,334,284484,1,8,0:0:0:0:
485,315,284571,1,0,0:0:0:0:
485,315,284657,1,8,0:0:0:0:
482,341,284743,1,0,0:0:0:0:
429,121,284829,1,8,0:0:0:0:
429,121,284887,1,0,0:0:0:0:
429,121,284944,1,0,0:0:0:0:
429,121,285002,1,8,0:0:0:0:
429,121,285059,1,0,0:0:0:0:
429,121,285117,1,0,0:0:0:0:
429,121,285174,1,8,0:0:0:0:
429,121,285231,1,0,0:0:0:0:
429,121,285289,1,0,0:0:0:0:
429,121,285346,1,8,0:0:0:0:
429,121,285404,1,0,0:0:0:0:
429,121,285461,1,0,0:0:0:0:
429,121,285519,1,8,0:0:0:0:
491,317,285605,1,8,0:0:0:0:
491,317,285691,1,0,0:0:0:0:
491,317,285777,1,0,0:0:0:0:
484,312,285864,1,8,0:0:0:0:
465,323,285950,1,0,0:0:0:0:
465,323,286036,1,0,0:0:0:0:
465,323,286122,1,0,0:0:0:0:
460,321,286208,1,8,0:0:0:0:
480,328,286381,1,0,0:0:0:0:
480,328,286553,1,8,0:0:0:0:
502,323,286726,1,8,0:0:0:0:
460,320,286812,1,0,0:0:0:0:
460,60,286898,1,8,0:0:0:0:
460,60,286956,1,8,0:0:0:0:
460,60,287013,1,8,0:0:0:0:
460,60,287071,1,0,0:0:0:0:
496,276,287157,1,0,0:0:0:0:
496,276,287243,1,8,0:0:0:0:
475,282,287329,1,0,0:0:0:0:
475,282,287415,1,0,0:0:0:0:
475,282,287502,1,0,0:0:0:0:
475,282,287588,1,8,0:0:0:0:
420,304,287760,1,8,0:0:0:0:
420,304,287846,1,0,0:0:0:0:
420,304,287933,1,8,0:0:0:0:
420,304,288019,1,8,0:0:0:0:
420,312,288105,1,0,0:0:0:0:
496,324,288277,1,8,0:0:0:0:
482,314,288450,1,8,0:0:0:0:
482,314,288536,1,8,0:0:0:0:
482,314,288622,1,0,0:0:0:0:
451,321,288795,1,0,0:0:0:0:
451,321,288881,1,0,0:0:0:0:
451,321,288967,1,8,0:0:0:0:
451,321,289053,1,0,0:0:0:0:
491,309,289140,1,0,0:0:0:0:
491,309,289226,1,0,0:0:0:0:
491,309,289312,1,8,0:0:0:0:
491,309,289398,1,8,0:0:0:0:
481,334,289484,1,0,0:0:0:0:
481,334,289571,1,0,0:0:0:0:
481,334,289657,1,8,0:0:0:0:
392,248,289829,1,0,0:0:0:0:
392,248,290002,1,8,0:0:0:0:
499,328,290174,1,8,0:0:0:0:
486,332,290260,1,0,0:0:0:0:
390,147,290346,1,8,0:0:0:0:
390,147,290404,1,0,0:0:0:0:
390,147,290461,1,0,0:0:0:0:
390,147,290519,1,8,0:0:0:0:
388,140,290576,1,0,0:0:0:0:
387,140,290634,1,0,0:0:0:0:
387,140,290691,1,8,0:0:0:0:
491,316,290777,1,0,0:0:0:0:
491,316,290864,1,8,0:0:0:0:
491,316,290950,1,8,0:0:0:0:
491,316,291036,1,0,0:0:0:0:
491,316,291122,1,8,0:0:0:0:
491,316,291208,1,0,0:0:0:0:
491,316,291295,1,0,0:0:0:0:
491,316,291381,1,8,0:0:0:0:
470,321,291467,1,8,0:0:0:0:
470,321,291553,1,0,0:0:0:0:
470,321,291640,1,0,0:0:0:0:
470,321,291726,1,8,0:0:0:0:
497,315,291812,1,0,0:0:0:0:
497,315,291898,1,8,0:0:0:0:
497,315,291984,1,0,0:0:0:0:
497,315,292071,1,8,0:0:0:0:
497,315,292157,1,0,0:0:0:0:
497,315,292243,1,8,0:0:0:0:
497,315,292329,1,0,0:0:0:0:
497,315,292415,1,8,0:0:0:0:
497,315,292502,1,0,0:0:0:0:
497,315,292588,1,8,0:0:0:0:
497,315,292674,1,0,0:0:0:0:
497,315,292760,1,12,0:0:0:0:
502,351,293105,1,8,0:0:0:0:
502,351,293277,1,0,0:0:0:0:
502,351,293450,1,8,0:0:0:0:
502,351,293536,1,8,0:0:0:0:
502,351,293622,1,0,0:0:0:0:
502,351,293708,1,0,0:0:0:0:
502,351,293795,1,8,0:0:0:0:
478,337,293967,1,0,0:0:0:0:
486,330,294140,1,8,0:0:0:0:
486,330,294226,1,0,0:0:0:0:
486,330,294312,1,8,0:0:0:0:
486,330,294484,1,0,0:0:0:0:
366,231,294657,1,0,0:0:0:0:
493,329,294714,1,0,0:0:0:0:
493,329,294772,1,0,0:0:0:0:
345,144,294829,1,8,0:0:0:0:
487,346,295002,1,0,0:0:0:0:
487,346,295174,1,8,0:0:0:0:
464,321,295346,1,0,0:0:0:0:
464,321,295433,1,0,0:0:0:0:
464,321,295519,1,8,0:0:0:0:
464,321,295605,1,8,0:0:0:0:
464,321,295691,1,0,0:0:0:0:
464,321,295864,1,8,0:0:0:0:
470,310,296036,1,0,0:0:0:0:
470,310,296122,1,0,0:0:0:0:
470,310,296208,1,8,0:0:0:0:
496,319,296295,1,0,0:0:0:0:
496,319,296381,1,8,0:0:0:0:
496,319,296467,1,8,0:0:0:0:
496,319,296553,1,0,0:0:0:0:
478,310,296726,1,0,0:0:0:0:
478,310,296898,1,8,0:0:0:0:
487,333,297071,1,8,0:0:0:0:
487,333,297157,1,8,0:0:0:0:
487,333,297243,1,0,0:0:0:0:
487,333,297415,1,8,0:0:0:0:
473,344,297588,1,8,0:0:0:0:
473,344,297674,1,8,0:0:0:0:
473,344,297760,1,0,0:0:0:0:
470,339,297846,1,0,0:0:0:0:
469,336,297933,1,8,0:0:0:0:
493,352,298105,1,0,0:0:0:0:
493,352,298277,1,8,0:0:0:0:
487,346,298450,1,0,0:0:0:0:
504,343,298622,1,0,0:0:0:0:
504,343,298708,1,0,0:0:0:0:
479,326,298795,1,8,0:0:0:0:
479,326,298881,1,0,0:0:0:0:
501,335,298967,1,0,0:0:0:0:
504,327,299140,1,0,0:0:0:0:
504,327,299312,1,8,0:0:0:0:
504,327,299398,1,8,0:0:0:0:
504,327,299484,1,0,0:0:0:0:
465,343,299571,1,0,0:0:0:0:
504,327,299657,1,8,0:0:0:0:
485,349,299829,1,0,0:0:0:0:
485,349,300002,1,12,0:0:0:0:
489,343,300346,1,8,0:0:0:0:
489,343,300519,1,8,0:0:0:0:
489,343,300605,1,8,0:0:0:0:
489,343,300691,1,0,0:0:0:0:
467,365,300864,1,0,0:0:0:0:
467,365,300950,1,0,0:0:0:0:
467,365,301036,1,8,0:0:0:0:
464,328,301208,1,0,0:0:0:0:
464,328,301381,1,8,0:0:0:0:
479,297,301467,1,8,0:0:0:0:
464,328,301553,1,0,0:0:0:0:
479,297,301640,1,0,0:0:0:0:
464,328,301726,1,8,0:0:0:0:
464,328,301898,1,0,0:0:0:0:
464,328,302071,1,8,0:0:0:0:
482,330,302157,1,0,0:0:0:0:
483,329,302243,1,8,0:0:0:0:
482,330,302329,1,0,0:0:0:0:
483,329,302415,1,8,0:0:0:0:
482,330,302502,1,8,0:0:0:0:
483,329,302588,1,0,0:0:0:0:
482,330,302674,1,0,0:0:0:0:
477,342,302760,1,8,0:0:0:0:
477,342,302846,1,0,0:0:0:0:
487,332,302933,1,0,0:0:0:0:
402,130,302990,1,0,0:0:0:0:
401,135,303048,1,0,0:0:0:0:
487,326,303105,1,8,0:0:0:0:
487,315,303277,1,0,0:0:0:0:
487,315,303450,1,8,0:0:0:0:
506,292,303536,1,8,0:0:0:0:
487,315,303622,1,0,0:0:0:0:
506,292,303708,1,0,0:0:0:0:
487,315,303795,1,8,0:0:0:0:
479,299,303967,1,0,0:0:0:0:
479,294,304140,1,8,0:0:0:0:
491,309,304226,1,0,0:0:0:0:
491,304,304312,1,8,0:0:0:0:
491,309,304398,1,8,0:0:0:0:
491,304,304484,1,0,0:0:0:0:
491,309,304571,1,8,0:0:0:0:
491,304,304657,1,0,0:0:0:0:
491,309,304743,1,0,0:0:0:0:
489,309,304829,1,8,0:0:0:0:
489,309,305002,1,0,0:0:0:0:
489,309,305174,1,8,0:0:0:0:
395,267,305346,1,8,0:0:0:0:
395,267,305433,1,8,0:0:0:0:
395,267,305519,1,0,0:0:0:0:
395,267,305691,1,8,0:0:0:0:
456,294,305864,1,8,0:0:0:0:
456,294,305950,1,8,0:0:0:0:
456,294,306036,1,0,0:0:0:0:
456,294,306122,1,0,0:0:0:0:
456,294,306208,1,8,0:0:0:0:
472,310,306381,1,0,0:0:0:0:
472,310,306553,1,8,0:0:0:0:
464,333,306726,1,8,0:0:0:0:
464,333,306812,1,8,0:0:0:0:
464,333,306898,1,0,0:0:0:0:
486,340,307071,1,0,0:0:0:0:
486,340,307243,1,8,0:0:0:0:
486,340,307329,1,8,0:0:0:0:
486,340,307415,1,0,0:0:0:0:
482,336,307502,1,0,0:0:0:0:
482,336,307588,1,8,0:0:0:0:
482,336,307674,1,8,0:0:0:0:
482,336,307760,1,0,0:0:0:0:
482,336,307846,1,0,0:0:0:0:
467,324,307933,1,8,0:0:0:0:
467,324,308019,1,8,0:0:0:0:
467,324,308105,1,0,0:0:0:0:
467,324,308191,1,0,0:0:0:0:
467,324,308277,1,8,0:0:0:0:
467,324,308364,1,8,0:0:0:0:
467,324,308450,1,0,0:0:0:0:
467,324,308536,1,0,0:0:0:0:
467,324,308622,1,8,0:0:0:0:
467,324,308708,1,0,0:0:0:0:
467,324,308795,1,0,0:0:0:0:
467,324,308881,1,0,0:0:0:0:
467,324,308967,1,8,0:0:0:0:
467,324,309053,1,0,0:0:0:0:
467,324,309140,1,0,0:0:0:0:
467,324,309226,1,0,0:0:0:0:
476,348,309312,1,12,0:0:0:0:
497,315,309657,1,8,0:0:0:0:
439,228,309714,1,8,0:0:0:0:
439,228,309772,1,8,0:0:0:0:
439,228,309829,1,0,0:0:0:0:
498,312,309915,1,0,0:0:0:0:
498,312,310002,1,8,0:0:0:0:
498,312,310088,1,8,0:0:0:0:
498,312,310174,1,0,0:0:0:0:
498,312,310260,1,0,0:0:0:0:
502,311,310346,1,8,0:0:0:0:
490,322,310519,1,8,0:0:0:0:
490,322,310605,1,8,0:0:0:0:
490,322,310691,1,0,0:0:0:0:
490,322,310777,1,0,0:0:0:0:
490,322,310864,1,8,0:0:0:0:
400,303,311036,1,0,0:0:0:0:
386,236,311208,1,0,0:0:0:0:
386,236,311266,1,0,0:0:0:0:
386,236,311323,1,0,0:0:0:0:
386,236,311381,1,8,0:0:0:0:
476,321,311467,1,0,0:0:0:0:
476,321,311553,1,8,0:0:0:0:
489,296,311726,1,0,0:0:0:0:
489,296,311812,1,8,0:0:0:0:
489,296,311898,1,0,0:0:0:0:
489,296,311984,1,0,0:0:0:0:
489,296,312071,1,8,0:0:0:0:
493,339,312243,1,0,0:0:0:0:
493,339,312415,1,8,0:0:0:0:
449,323,312502,1,8,0:0:0:0:
449,323,312588,1,0,0:0:0:0:
449,323,312674,1,0,0:0:0:0:
449,323,312760,1,8,0:0:0:0:
449,323,312933,1,8,0:0:0:0:
489,346,313019,1,8,0:0:0:0:
449,323,313105,1,0,0:0:0:0:
478,350,313191,1,0,0:0:0:0:
478,350,313277,1,8,0:0:0:0:
478,350,313364,1,0,0:0:0:0:
478,350,313450,1,8,0:0:0:0:
494,321,313536,1,0,0:0:0:0:
494,321,313622,1,8,0:0:0:0:
494,321,313708,1,8,0:0:0:0:
494,321,313795,1,0,0:0:0:0:
494,321,313881,1,0,0:0:0:0:
494,321,313967,1,8,0:0:0:0:
489,321,314140,1,0,0:0:0:0:
489,321,314226,1,8,0:0:0:0:
489,321,314312,1,0,0:0:0:0:
489,321,314398,1,0,0:0:0:0:
489,321,314484,1,8,0:0:0:0:
476,349,314657,1,0,0:0:0:0:
476,349,314743,1,0,0:0:0:0:
476,349,314829,1,8,0:0:0:0:
476,349,314915,1,0,0:0:0:0:
476,349,315002,1,8,0:0:0:0:
476,349,315088,1,8,0:0:0:0:
502,321,315174,1,0,0:0:0:0:
502,321,315260,1,8,0:0:0:0:
502,321,315346,1,0,0:0:0:0:
502,321,315433,1,0,0:0:0:0:
502,321,315519,1,8,0:0:0:0:
506,332,315605,1,0,0:0:0:0:
498,227,315691,1,8,0:0:0:0:
498,227,315749,1,0,0:0:0:0:
498,227,315806,1,0,0:0:0:0:
498,227,315864,1,8,0:0:0:0:
498,227,315921,1,0,0:0:0:0:
498,227,315979,1,0,0:0:0:0:
498,227,316036,1,8,0:0:0:0:
479,313,316122,1,0,0:0:0:0:
479,313,316208,1,8,0:0:0:0:
479,313,316295,1,8,0:0:0:0:
479,313,316381,1,0,0:0:0:0:
479,313,316467,1,0,0:0:0:0:
483,310,316553,1,12,0:0:0:0:
469,334,316726,1,0,0:0:0:0:
469,334,316812,1,0,0:0:0:0:
469,334,316898,1,8,0:0:0:0:
484,347,316984,1,0,0:0:0:0:
484,347,317071,1,8,0:0:0:0:
484,347,317157,1,8,0:0:0:0:
484,347,317243,1,0,0:0:0:0:
484,347,317329,1,0,0:0:0:0:
484,347,317415,1,8,0:0:0:0:
484,347,317502,1,8,0:0:0:0:
484,347,317588,1,0,0:0:0:0:
493,323,317760,1,8,0:0:0:0:
493,323,317846,1,0,0:0:0:0:
411,187,317933,1,8,0:0:0:0:
411,187,317990,1,0,0:0:0:0:
411,187,318048,1,0,0:0:0:0:
411,187,318105,1,8,0:0:0:0:
411,187,318162,1,0,0:0:0:0:
413,198,318220,1,0,0:0:0:0:
414,205,318277,1,8,0:0:0:0:
470,308,318364,1,8,0:0:0:0:
470,308,318450,1,0,0:0:0:0:
470,308,318536,1,0,0:0:0:0:
479,328,318622,1,8,0:0:0:0:
479,328,318708,1,0,0:0:0:0:
479,328,318795,1,8,0:0:0:0:
479,328,318881,1,8,0:0:0:0:
479,328,318967,1,0,0:0:0:0:
479,328,319053,1,0,0:0:0:0:
479,328,319140,1,8,0:0:0:0:
479,328,319226,1,8,0:0:0:0:
479,328,319312,1,0,0:0:0:0:
482,321,319398,1,8,0:0:0:0:
467,315,319484,1,8,0:0:0:0:
467,315,319571,1,8,0:0:0:0:
467,315,319657,1,0,0:0:0:0:
467,315,319743,1,8,0:0:0:0:
467,315,319829,1,0,0:0:0:0:
484,305,319915,1,0,0:0:0:0:
484,305,320002,1,8,0:0:0:0:
484,305,320088,1,0,0:0:0:0:
484,305,320174,1,8,0:0:0:0:
484,305,320260,1,8,0:0:0:0:
483,322,320346,1,0,0:0:0:0:
483,321,320433,1,8,0:0:0:0:
483,316,320519,1,0,0:0:0:0:
483,321,320605,1,0,0:0:0:0:
483,316,320691,1,8,0:0:0:0:
494,318,320777,1,0,0:0:0:0:
494,318,320864,1,8,0:0:0:0:
494,318,320950,1,8,0:0:0:0:
494,318,321036,1,0,0:0:0:0:
494,318,321122,1,0,0:0:0:0:
494,318,321208,1,8,0:0:0:0:
494,318,321295,1,8,0:0:0:0:
494,318,321381,1,0,0:0:0:0:
470,277,321553,1,0,0:0:0:0:
470,277,321640,1,0,0:0:0:0:
470,277,321726,1,8,0:0:0:0:
501,321,321812,1,0,0:0:0:0:
501,321,321898,1,8,0:0:0:0:
501,321,321984,1,8,0:0:0:0:
501,321,322071,1,8,0:0:0:0:
501,321,322157,1,8,0:0:0:0:
478,334,322243,1,0,0:0:0:0:
494,310,322329,1,0,0:0:0:0:
494,310,322415,1,8,0:0:0:0:
494,310,322502,1,8,0:0:0:0:
494,323,322588,1,0,0:0:0:0:
493,320,322674,1,0,0:0:0:0:
494,323,322760,1,8,0:0:0:0:
489,324,322846,1,0,0:0:0:0:
489,324,322933,1,8,0:0:0:0:
489,324,323019,1,8,0:0:0:0:
489,324,323105,1,0,0:0:0:0:
489,324,323191,1,8,0:0:0:0:
489,324,323277,1,0,0:0:0:0:
489,324,323364,1,0,0:0:0:0:
489,324,323450,1,8,0:0:0:0:
490,339,323536,1,0,0:0:0:0:
490,339,323622,1,8,0:0:0:0:
490,339,323708,1,0,0:0:0:0:
490,339,323795,1,8,0:0:0:0:
490,339,323881,1,8,0:0:0:0:
490,339,323967,1,0,0:0:0:0:
490,339,324053,1,8,0:0:0:0:
490,339,324140,1,0,0:0:0:0:
487,348,324226,1,0,0:0:0:0:
494,336,324312,1,8,0:0:0:0:
494,336,324398,1,0,0:0:0:0:
494,336,324484,1,8,0:0:0:0:
487,341,324571,1,8,0:0:0:0:
487,341,324657,1,0,0:0:0:0:
487,341,324743,1,0,0:0:0:0:
485,348,324829,1,8,0:0:0:0:
488,332,324915,1,0,0:0:0:0:
488,332,325002,1,8,0:0:0:0:
488,332,325088,1,8,0:0:0:0:
488,332,325174,1,0,0:0:0:0:
488,332,325260,1,8,0:0:0:0:
488,332,325346,1,0,0:0:0:0:
488,332,325433,1,0,0:0:0:0:
488,332,325519,1,8,0:0:0:0:
476,330,325605,1,0,0:0:0:0:
476,330,325691,1,8,0:0:0:0:
476,330,325777,1,8,0:0:0:0:
483,340,325864,1,4,0:0:0:0:
317,302,326325,1,8,0:0:0:0:
317,302,326787,1,0,0:0:0:0:
361,345,327248,1,8,0:0:0:0:
361,345,327710,1,8,0:0:0:0:
361,345,328171,1,0,0:0:0:0:
361,345,328633,1,8,0:0:0:0:
361,345,329094,1,0,0:0:0:0:
361,345,329556,1,0,0:0:0:0:
366,336,330017,1,8,0:0:0:0:
366,336,330479,1,8,0:0:0:0:
366,336,330940,1,0,0:0:0:0:
366,357,331402,1,8,0:0:0:0:
366,357,331860,1,0,0:0:0:0:
366,357,332318,1,0,0:0:0:0:
346,300,332776,1,8,0:0:0:0:
346,300,333234,1,8,0:0:0:0:
346,300,333692,1,0,0:0:0:0:
346,300,334150,1,8,0:0:0:0:
346,300,334609,1,0,0:0:0:0:
346,300,335069,1,0,0:0:0:0:
344,298,335529,1,8,0:0:0:0:
344,298,335989,1,8,0:0:0:0:
344,298,336448,1,0,0:0:0:0:
296,274,336908,1,8,0:0:0:0:
296,274,337366,1,0,0:0:0:0:
296,274,337825,1,0,0:0:0:0:
296,274,338284,1,8,0:0:0:0:
296,274,338738,1,8,0:0:0:0:
296,274,339193,1,0,0:0:0:0:
296,274,339647,1,8,0:0:0:0:
296,274,340112,1,0,0:0:0:0:
296,274,340577,1,0,0:0:0:0:
296,274,341042,1,8,0:0:0:0:
296,274,341500,1,8,0:0:0:0:
296,274,341958,1,0,0:0:0:0:
296,274,342416,1,8,0:0:0:0:
296,274,342860,1,0,0:0:0:0:
296,274,343304,1,0,0:0:0:0:
296,274,343749,1,8,0:0:0:0:
296,274,344230,1,8,0:0:0:0:
296,274,344712,1,0,0:0:0:0:
296,274,345194,1,8,0:0:0:0:
330,228,345631,1,0,0:0:0:0:
330,228,346069,1,0,0:0:0:0:
330,228,346507,1,8,0:0:0:0:
386,330,350087,1,8,0:0:0:0:
386,330,350187,1,8,0:0:0:0:
386,330,350287,1,0,0:0:0:0:
416,353,350687,1,0,0:0:0:0:
416,353,351087,1,0,0:0:0:0:
416,353,351287,1,8,0:0:0:0:
343,313,351687,1,0,0:0:0:0:
351,301,351887,1,8,0:0:0:0:
351,301,351987,1,8,0:0:0:0:
351,301,352087,1,0,0:0:0:0:
351,301,352287,1,0,0:0:0:0:
388,333,352687,1,0,0:0:0:0:
331,329,353087,1,0,0:0:0:0:
332,333,353287,1,8,0:0:0:0:
387,363,353487,1,0,0:0:0:0:
422,309,353687,1,0,0:0:0:0:
404,296,353887,1,8,0:0:0:0:
328,337,354087,1,8,0:0:0:0:
422,309,354287,1,0,0:0:0:0:
375,319,354687,1,0,0:0:0:0:
375,319,355087,1,0,0:0:0:0:
375,319,355287,1,8,0:0:0:0:
402,325,355687,1,0,0:0:0:0:
402,325,355887,1,8,0:0:0:0:
361,272,355987,1,8,0:0:0:0:
361,272,356087,1,0,0:0:0:0:
402,325,356287,1,0,0:0:0:0:
350,337,356487,1,8,0:0:0:0:
362,334,356687,1,0,0:0:0:0:
359,300,356787,1,8,0:0:0:0:
359,300,356887,1,0,0:0:0:0:
359,300,356987,1,0,0:0:0:0:
359,300,357087,1,8,0:0:0:0:
359,300,357187,1,8,0:0:0:0:
359,300,357287,1,0,0:0:0:0:
359,300,357387,1,0,0:0:0:0:
359,300,357487,1,8,0:0:0:0:
307,295,357687,1,8,0:0:0:0:
307,295,357787,1,8,0:0:0:0:
307,295,357887,1,0,0:0:0:0:
307,295,357987,1,8,0:0:0:0:
307,295,358087,1,8,0:0:0:0:
307,295,358187,1,8,0:0:0:0:
307,295,358287,1,0,0:0:0:0:
336,309,358487,1,8,0:0:0:0:
313,308,358687,1,0,0:0:0:0:
357,308,359087,1,0,0:0:0:0:
357,308,359287,1,8,0:0:0:0:
346,319,359687,1,0,0:0:0:0:
346,319,359887,1,8,0:0:0:0:
346,319,359987,1,8,0:0:0:0:
346,319,360087,1,0,0:0:0:0:
356,323,360187,1,0,0:0:0:0:
350,321,360287,1,8,0:0:0:0:
375,305,360487,1,8,0:0:0:0:
375,305,360687,1,0,0:0:0:0:
409,309,361087,1,0,0:0:0:0:
409,309,361287,1,8,0:0:0:0:
326,307,361687,1,0,0:0:0:0:
326,307,361887,1,8,0:0:0:0:
334,305,362087,1,8,0:0:0:0:
334,305,362287,1,0,0:0:0:0:
346,321,362687,1,0,0:0:0:0:
379,327,363087,1,0,0:0:0:0:
379,327,363287,1,8,0:0:0:0:
343,312,363487,1,0,0:0:0:0:
346,318,363887,1,8,0:0:0:0:
346,318,364087,1,0,0:0:0:0:
346,318,364287,1,0,0:0:0:0:
381,302,364687,1,8,0:0:0:0:
416,338,364887,1,0,0:0:0:0:
416,338,364987,1,0,0:0:0:0:
416,338,365087,1,8,0:0:0:0:
416,338,365187,1,8,0:0:0:0:
416,338,365287,1,0,0:0:0:0:
416,338,365387,1,0,0:0:0:0:
416,338,365487,1,8,0:0:0:0:
416,338,365587,1,0,0:0:0:0:
416,338,365687,1,8,0:0:0:0:
416,338,365787,1,0,0:0:0:0:
416,338,365887,1,8,0:0:0:0:
416,338,365987,1,8,0:0:0:0:
416,338,366087,1,8,0:0:0:0:
416,338,366187,1,8,0:0:0:0:
416,338,366287,1,0,0:0:0:0:
405,301,366487,1,8,0:0:0:0:
405,301,366687,1,0,0:0:0:0:
402,310,367087,1,0,0:0:0:0:
402,310,367287,1,8,0:0:0:0:
304,322,367487,1,0,0:0:0:0:
373,289,367687,1,0,0:0:0:0:
373,289,367887,1,8,0:0:0:0:
373,289,367987,1,8,0:0:0:0:
373,289,368087,1,0,0:0:0:0:
373,296,368287,1,0,0:0:0:0:
341,321,368487,1,8,0:0:0:0:
341,321,368687,1,0,0:0:0:0:
360,272,369087,1,0,0:0:0:0:
360,272,369287,1,8,0:0:0:0:
367,339,369687,1,0,0:0:0:0:
351,301,369887,1,8,0:0:0:0:
351,301,370087,1,8,0:0:0:0:
351,301,370287,1,0,0:0:0:0:
302,253,370487,1,8,0:0:0:0:
358,303,370687,1,0,0:0:0:0:
358,303,371087,1,0,0:0:0:0:
358,303,371287,1,8,0:0:0:0:
309,305,371487,1,0,0:0:0:0:
352,323,371687,1,0,0:0:0:0:
317,309,371887,1,8,0:0:0:0:
317,309,371987,1,8,0:0:0:0:
317,309,372087,1,0,0:0:0:0:
317,309,372287,1,0,0:0:0:0:
382,292,372487,1,8,0:0:0:0:
382,292,372687,1,0,0:0:0:0:
326,324,373087,1,0,0:0:0:0:
326,324,373287,1,8,0:0:0:0:
435,338,373687,1,0,0:0:0:0:
435,338,373887,1,8,0:0:0:0:
416,292,374087,1,8,0:0:0:0:
416,292,374187,1,8,0:0:0:0:
416,292,374287,1,0,0:0:0:0:
362,330,374487,1,8,0:0:0:0:
362,330,374687,1,0,0:0:0:0:
322,304,375087,1,0,0:0:0:0:
322,304,375287,1,8,0:0:0:0:
393,322,375487,1,0,0:0:0:0:
393,322,375687,1,0,0:0:0:0:
393,322,375887,1,8,0:0:0:0:
393,322,375987,1,8,0:0:0:0:
393,322,376087,1,0,0:0:0:0:
370,321,376287,1,8,0:0:0:0:
380,312,376487,1,0,0:0:0:0:
370,286,376687,1,0,0:0:0:0:
370,286,376787,1,8,0:0:0:0:
370,286,376887,1,0,0:0:0:0:
370,286,376987,1,8,0:0:0:0:
370,286,377087,1,0,0:0:0:0:
370,286,377187,1,0,0:0:0:0:
370,286,377287,1,8,0:0:0:0:
362,287,377687,1,0,0:0:0:0:
362,287,377887,1,8,0:0:0:0:
362,287,378087,1,8,0:0:0:0:
362,287,378287,1,0,0:0:0:0:
362,287,378487,1,8,0:0:0:0:
362,287,378687,1,0,0:0:0:0:
377,300,379087,1,0,0:0:0:0:
377,300,379287,1,8,0:0:0:0:
351,326,379687,1,0,0:0:0:0:
351,326,379887,1,8,0:0:0:0:
351,326,380087,1,0,0:0:0:0:
351,326,380287,1,0,0:0:0:0:
351,326,380487,1,8,0:0:0:0:
351,326,380687,1,0,0:0:0:0:
362,286,380887,1,8,0:0:0:0:
362,286,381087,1,8,0:0:0:0:
362,286,381287,1,0,0:0:0:0:
386,292,381487,1,0,0:0:0:0:
386,292,381687,1,8,0:0:0:0:
387,249,381787,1,0,0:0:0:0:
433,315,381887,1,8,0:0:0:0:
431,304,381987,1,0,0:0:0:0:
431,304,382087,1,8,0:0:0:0:
431,304,382187,1,8,0:0:0:0:
431,304,382287,1,0,0:0:0:0:
359,279,382487,1,8,0:0:0:0:
381,280,382687,1,0,0:0:0:0:
381,280,382787,1,0,0:0:0:0:
381,280,382887,1,8,0:0:0:0:
381,280,383087,1,0,0:0:0:0:
381,280,383287,1,8,0:0:0:0:
361,191,383687,1,8,0:0:0:0:
348,310,383887,1,8,0:0:0:0:
287,265,384087,1,0,0:0:0:0:
287,265,384287,1,0,0:0:0:0:
463,304,384487,1,8,0:0:0:0:
348,272,384687,1,0,0:0:0:0:
348,272,384787,1,0,0:0:0:0:
348,272,384887,1,8,0:0:0:0:
296,242,385087,1,8,0:0:0:0:
296,242,385187,1,8,0:0:0:0:
296,242,385287,1,8,0:0:0:0:
388,270,385687,1,8,0:0:0:0:
348,309,385887,1,0,0:0:0:0:
348,309,386087,1,0,0:0:0:0:
348,309,386287,1,0,0:0:0:0:
410,303,386487,1,8,0:0:0:0:
410,303,386687,1,0,0:0:0:0:
410,303,386787,1,0,0:0:0:0:
410,303,386887,1,8,0:0:0:0:
397,290,387087,1,0,0:0:0:0:
397,290,387287,1,8,0:0:0:0:
397,291,387687,1,8,0:0:0:0:
396,297,387887,1,8,0:0:0:0:
396,297,388087,1,0,0:0:0:0:
396,297,388287,1,0,0:0:0:0:
396,297,388487,1,8,0:0:0:0:
396,297,388687,1,0,0:0:0:0:
396,297,388787,1,0,0:0:0:0:
396,297,388887,1,8,0:0:0:0:
431,334,388987,1,8,0:0:0:0:
431,334,389087,1,0,0:0:0:0:
431,334,389287,1,8,0:0:0:0:
357,282,389687,1,8,0:0:0:0:
416,326,389887,1,8,0:0:0:0:
416,326,390087,1,0,0:0:0:0:
416,326,390287,1,0,0:0:0:0:
308,289,390487,1,8,0:0:0:0:
398,316,390687,1,0,0:0:0:0:
398,316,390787,1,0,0:0:0:0:
398,316,390887,1,8,0:0:0:0:
398,316,391087,1,8,0:0:0:0:
398,316,391287,1,0,0:0:0:0:
453,333,391487,1,0,0:0:0:0:
420,325,391687,1,8,0:0:0:0:
420,331,391887,1,8,0:0:0:0:
420,331,392087,1,0,0:0:0:0:
393,313,392287,1,8,0:0:0:0:
393,313,392487,1,0,0:0:0:0:
383,288,392687,1,8,0:0:0:0:
398,316,392787,1,0,0:0:0:0:
398,316,392887,1,8,0:0:0:0:
422,322,393087,1,8,0:0:0:0:
422,322,393187,1,8,0:0:0:0:
422,322,393287,1,0,0:0:0:0:
378,342,393487,1,8,0:0:0:0:
378,342,393687,1,8,0:0:0:0:
378,342,393887,1,0,0:0:0:0:
405,340,394087,1,0,0:0:0:0:
410,328,394287,1,8,0:0:0:0:
406,315,394487,1,0,0:0:0:0:
406,315,394687,1,8,0:0:0:0:
406,315,394787,1,0,0:0:0:0:
406,315,394887,1,8,0:0:0:0:
388,312,395087,1,8,0:0:0:0:
388,312,395287,1,0,0:0:0:0:
337,335,395487,1,0,0:0:0:0:
337,335,395687,1,8,0:0:0:0:
426,324,395887,1,8,0:0:0:0:
426,324,396087,1,0,0:0:0:0:
426,324,396287,1,0,0:0:0:0:
374,284,396487,1,0,0:0:0:0:
373,275,396687,1,8,0:0:0:0:
373,275,396787,1,0,0:0:0:0:
373,275,396887,1,8,0:0:0:0:
393,322,397087,1,8,0:0:0:0:
393,322,397187,1,8,0:0:0:0:
393,322,397287,1,0,0:0:0:0:
393,322,397387,1,0,0:0:0:0:
393,322,397487,1,8,0:0:0:0:
393,322,397587,1,0,0:0:0:0:
393,322,397687,1,8,0:0:0:0:
393,322,397787,1,0,0:0:0:0:
393,322,397887,1,8,0:0:0:0:
393,322,397987,1,8,0:0:0:0:
393,322,398087,1,8,0:0:0:0:
393,322,398187,1,8,0:0:0:0:
393,322,398287,1,4,0:0:0:0:
434,326,398687,1,0,0:0:0:0:
434,326,398887,1,8,0:0:0:0:
434,326,399087,1,8,0:0:0:0:
434,326,399287,1,0,0:0:0:0:
413,275,399687,1,8,0:0:0:0:
438,289,399887,1,8,0:0:0:0:
383,286,399987,1,8,0:0:0:0:
436,294,400087,1,0,0:0:0:0:
436,294,400287,1,8,0:0:0:0:
414,333,400487,1,0,0:0:0:0:
409,304,400687,1,0,0:0:0:0:
409,304,400787,1,0,0:0:0:0:
409,304,400887,1,8,0:0:0:0:
398,266,400987,1,0,0:0:0:0:
405,316,401087,1,8,0:0:0:0:
405,316,401187,1,8,0:0:0:0:
405,316,401287,1,0,0:0:0:0:
423,323,401687,1,8,0:0:0:0:
425,338,401887,1,0,0:0:0:0:
386,279,401987,1,0,0:0:0:0:
425,338,402087,1,0,0:0:0:0:
425,338,402287,1,0,0:0:0:0:
402,296,402487,1,8,0:0:0:0:
402,296,402587,1,8,0:0:0:0:
402,296,402687,1,0,0:0:0:0:
402,296,402787,1,0,0:0:0:0:
402,296,402887,1,8,0:0:0:0:
439,331,403087,1,8,0:0:0:0:
439,331,403287,1,0,0:0:0:0:
408,304,403687,1,8,0:0:0:0:
407,289,403887,1,8,0:0:0:0:
407,289,403987,1,8,0:0:0:0:
407,289,404087,1,0,0:0:0:0:
407,289,404287,1,0,0:0:0:0:
407,289,404487,1,8,0:0:0:0:
407,289,404687,1,0,0:0:0:0:
407,289,404787,1,0,0:0:0:0:
407,289,404887,1,8,0:0:0:0:
442,318,404987,1,8,0:0:0:0:
442,318,405087,1,0,0:0:0:0:
442,318,405287,1,0,0:0:0:0:
396,259,405687,1,8,0:0:0:0:
393,304,405887,1,8,0:0:0:0:
376,268,405987,1,8,0:0:0:0:
393,304,406087,1,0,0:0:0:0:
358,266,406287,1,8,0:0:0:0:
410,292,406487,1,8,0:0:0:0:
340,211,406587,1,0,0:0:0:0:
410,292,406687,1,0,0:0:0:0:
379,311,406787,1,0,0:0:0:0:
344,290,406887,1,8,0:0:0:0:
344,290,407087,1,0,0:0:0:0:
344,290,407287,1,0,0:0:0:0:
424,315,407687,1,8,0:0:0:0:
352,284,407887,1,8,0:0:0:0:
352,284,407987,1,8,0:0:0:0:
352,284,408087,1,0,0:0:0:0:
352,284,408287,1,0,0:0:0:0:
365,321,408487,1,8,0:0:0:0:
373,325,408687,1,0,0:0:0:0:
373,325,408787,1,8,0:0:0:0:
373,325,408887,1,0,0:0:0:0:
373,325,408987,1,0,0:0:0:0:
373,325,409087,1,8,0:0:0:0:
373,325,409187,1,8,0:0:0:0:
373,325,409287,1,0,0:0:0:0:
477,337,409687,1,8,0:0:0:0:
452,331,409887,1,0,0:0:0:0:
452,331,409987,1,0,0:0:0:0:
452,331,410087,1,0,0:0:0:0:
452,331,410287,1,0,0:0:0:0:
406,308,410487,1,8,0:0:0:0:
430,328,410687,1,0,0:0:0:0:
430,328,410787,1,0,0:0:0:0:
430,328,410887,1,8,0:0:0:0:
426,309,410987,1,8,0:0:0:0:
430,328,411087,1,0,0:0:0:0:
421,309,411287,1,0,0:0:0:0:
431,283,411687,1,8,0:0:0:0:
409,316,411887,1,8,0:0:0:0:
409,316,411987,1,8,0:0:0:0:
409,316,412087,1,0,0:0:0:0:
409,316,412287,1,0,0:0:0:0:
441,325,412487,1,8,0:0:0:0:
377,269,412687,1,0,0:0:0:0:
404,288,412787,1,8,0:0:0:0:
404,288,412887,1,8,0:0:0:0:
404,293,412987,1,8,0:0:0:0:
404,293,413087,1,0,0:0:0:0:
332,287,413187,1,0,0:0:0:0:
412,314,413287,1,8,0:0:0:0:
432,333,413487,1,0,0:0:0:0:
432,333,413687,1,8,0:0:0:0:
457,340,413887,1,8,0:0:0:0:
457,340,413987,1,8,0:0:0:0:
457,340,414087,1,0,0:0:0:0:
457,340,414187,1,0,0:0:0:0:
457,340,414287,1,12,0:0:0:0:
350,280,414687,1,0,0:0:0:0:
350,280,414887,1,8,0:0:0:0:
350,280,415087,1,8,0:0:0:0:
350,280,415187,1,8,0:0:0:0:
350,280,415287,1,0,0:0:0:0:
393,322,415487,1,0,0:0:0:0:
350,280,415687,1,8,0:0:0:0:
441,294,416087,1,0,0:0:0:0:
441,294,416287,1,0,0:0:0:0:
408,254,416487,1,8,0:0:0:0:
408,254,416587,1,8,0:0:0:0:
408,254,416687,1,0,0:0:0:0:
385,282,416787,1,8,0:0:0:0:
385,282,416887,1,0,0:0:0:0:
397,287,417087,1,8,0:0:0:0:
397,287,417187,1,8,0:0:0:0:
397,287,417287,1,0,0:0:0:0:
365,276,417687,1,8,0:0:0:0:
357,284,417887,1,0,0:0:0:0:
357,284,417987,1,0,0:0:0:0:
357,284,418087,1,0,0:0:0:0:
357,284,418287,1,0,0:0:0:0:
320,327,418487,1,8,0:0:0:0:
320,327,418687,1,0,0:0:0:0:
320,327,418787,1,0,0:0:0:0:
320,327,418887,1,8,0:0:0:0:
352,318,419087,1,0,0:0:0:0:
352,318,419287,1,0,0:0:0:0:
431,338,419687,1,8,0:0:0:0:
332,290,419887,1,8,0:0:0:0:
332,290,419987,1,8,0:0:0:0:
332,290,420087,1,0,0:0:0:0:
332,290,420287,1,0,0:0:0:0:
368,288,420487,1,8,0:0:0:0:
368,288,420687,1,0,0:0:0:0:
368,288,420787,1,0,0:0:0:0:
368,288,420887,1,8,0:0:0:0:
368,288,420987,1,8,0:0:0:0:
368,288,421087,1,0,0:0:0:0:
368,288,421287,1,0,0:0:0:0:
370,288,421687,1,8,0:0:0:0:
451,336,421887,1,8,0:0:0:0:
451,336,421987,1,8,0:0:0:0:
451,336,422087,1,0,0:0:0:0:
451,336,422287,1,0,0:0:0:0:
348,304,422487,1,8,0:0:0:0:
348,304,422587,1,8,0:0:0:0:
348,304,422687,1,0,0:0:0:0:
348,304,422787,1,0,0:0:0:0:
348,304,422887,1,8,0:0:0:0:
348,304,423087,1,0,0:0:0:0:
348,304,423287,1,0,0:0:0:0:
348,304,423687,1,8,0:0:0:0:
436,301,423887,1,8,0:0:0:0:
436,301,423987,1,8,0:0:0:0:
436,301,424087,1,0,0:0:0:0:
436,301,424287,1,0,0:0:0:0:
337,217,424487,1,8,0:0:0:0:
337,217,424687,1,0,0:0:0:0:
337,217,424787,1,0,0:0:0:0:
337,217,424887,1,8,0:0:0:0:
386,340,424987,1,0,0:0:0:0:
386,340,425087,1,8,0:0:0:0:
386,340,425187,1,8,0:0:0:0:
386,340,425287,1,0,0:0:0:0:
358,314,425687,1,8,0:0:0:0:
398,343,425887,1,0,0:0:0:0:
398,343,425987,1,0,0:0:0:0:
398,343,426087,1,0,0:0:0:0:
398,343,426287,1,0,0:0:0:0:
359,287,426487,1,8,0:0:0:0:
461,314,426687,1,0,0:0:0:0:
452,312,426787,1,0,0:0:0:0:
452,312,426887,1,8,0:0:0:0:
404,332,427087,1,0,0:0:0:0:
404,332,427287,1,0,0:0:0:0:
462,319,427687,1,8,0:0:0:0:
443,337,427887,1,8,0:0:0:0:
443,337,427987,1,8,0:0:0:0:
443,337,428087,1,0,0:0:0:0:
443,337,428287,1,0,0:0:0:0:
470,323,428487,1,8,0:0:0:0:
470,323,428587,1,0,0:0:0:0:
456,335,428687,1,0,0:0:0:0:
456,335,428787,1,0,0:0:0:0:
443,338,428887,1,8,0:0:0:0:
443,338,428987,1,8,0:0:0:0:
443,338,429087,1,0,0:0:0:0:
456,326,429287,1,0,0:0:0:0:
469,319,429487,1,0,0:0:0:0:
475,314,429587,1,0,0:0:0:0:
469,319,429687,1,8,0:0:0:0:
370,285,429887,1,8,0:0:0:0:
370,285,430087,1,0,0:0:0:0:
