osu file format v14

[General]
AudioFilename: audio.mp3
AudioLeadIn: 0
PreviewTime: 72257
Countdown: 1
SampleSet: None
StackLeniency: 0.7
Mode: 1
LetterboxInBreaks: 0
WidescreenStoryboard: 1

[Editor]
Bookmarks: 101648
DistanceSpacing: 1
BeatDivisor: 4
GridSize: 32
TimelineZoom: 1.8

[Metadata]
Title:Suiu no inori
TitleUnicode:翠雨の祷
Artist:Cororo feat.Yuria Miyazono
ArtistUnicode:Cororo feat.Yuria Miyazono
Creator:L y s
Version:Oni
Source:SOUND VOLTEX VIVID WAVE
Tags:The 8th KACオリジナル楽曲コンテスト
BeatmapID:2274796
BeatmapSetID:967665

[Difficulty]
HPDrainRate:5.5
CircleSize:5.5
OverallDifficulty:5.5
ApproachRate:5.5
SliderMultiplier:1.4
SliderTickRate:1

[Events]
//Background and Video events
0,0,"翠雨の祷.png",0,0
//Break Periods
//Storyboard Layer 0 (Background)
//Storyboard Layer 1 (Fail)
//Storyboard Layer 2 (Pass)
//Storyboard Layer 3 (Foreground)
//Storyboard Layer 4 (Overlay)
//Storyboard Sound Samples

[TimingPoints]
1750,304.568527918782,4,2,0,100,1,0
11496,-100,4,2,0,100,0,1
21242,-100,4,2,0,100,0,0
40734,-100,4,2,0,100,0,1
50480,-100,4,2,0,100,0,0
72409,-100,4,2,0,100,0,1
91902,-100,4,2,0,100,0,0
106521,-100,4,2,0,100,0,1
111394,-100,4,2,0,100,0,0

[HitObjects]
256,192,1750,5,4,0:0:0:0:
256,192,2663,1,8,0:0:0:0:
256,192,2815,1,8,0:0:0:0:
256,192,3120,1,0,0:0:0:0:
256,192,3272,1,8,0:0:0:0:
256,192,3577,1,8,0:0:0:0:
256,192,3729,1,8,0:0:0:0:
256,192,3881,1,0,0:0:0:0:
256,192,4034,1,0,0:0:0:0:
256,192,4186,1,8,0:0:0:0:
256,192,4338,1,8,0:0:0:0:
256,192,4491,1,0,0:0:0:0:
256,192,5100,1,0,0:0:0:0:
256,192,5252,1,8,0:0:0:0:
256,192,5557,1,8,0:0:0:0:
256,192,5709,1,0,0:0:0:0:
256,192,6013,1,8,0:0:0:0:
256,192,6166,1,8,0:0:0:0:
256,192,6318,1,0,0:0:0:0:
256,192,6623,1,8,0:0:0:0:
256,192,7536,1,8,0:0:0:0:
256,192,7689,1,8,0:0:0:0:
256,192,7993,1,0,0:0:0:0:
256,192,8145,1,8,0:0:0:0:
256,192,8450,1,8,0:0:0:0:
256,192,8602,1,8,0:0:0:0:
256,192,8755,1,8,0:0:0:0:
256,192,8907,1,8,0:0:0:0:
256,192,9059,1,0,0:0:0:0:
256,192,9211,1,8,0:0:0:0:
256,192,9364,1,8,0:0:0:0:
256,192,9973,1,0,0:0:0:0:
256,192,10125,1,8,0:0:0:0:
256,192,10430,1,8,0:0:0:0:
256,192,10582,1,8,0:0:0:0:
256,192,10887,1,8,0:0:0:0:
256,192,11191,1,0,0:0:0:0:
256,192,11496,1,4,0:0:0:0:
256,192,11953,1,0,0:0:0:0:
256,192,12409,1,0,0:0:0:0:
256,192,12562,1,0,0:0:0:0:
256,192,12638,1,0,0:0:0:0:
256,192,12714,1,0,0:0:0:0:
256,192,13171,1,0,0:0:0:0:
256,192,13475,1,0,0:0:0:0:
256,192,13628,1,0,0:0:0:0:
256,192,13704,1,0,0:0:0:0:
256,192,13780,1,0,0:0:0:0:
256,192,13932,1,0,0:0:0:0:
256,192,14237,1,0,0:0:0:0:
256,192,14313,1,0,0:0:0:0:
256,192,14389,1,0,0:0:0:0:
256,192,14541,1,0,0:0:0:0:
256,192,14618,1,0,0:0:0:0:
256,192,14694,1,8,0:0:0:0:
256,192,14846,1,0,0:0:0:0:
256,192,14922,1,8,0:0:0:0:
256,192,14998,1,8,0:0:0:0:
256,192,15151,1,8,0:0:0:0:
256,192,15455,1,8,0:0:0:0:
256,192,15531,1,8,0:0:0:0:
256,192,15607,1,8,0:0:0:0:
256,192,15760,1,8,0:0:0:0:
256,192,15836,1,8,0:0:0:0:
256,192,15912,1,0,0:0:0:0:
256,192,16064,1,8,0:0:0:0:
256,192,16140,1,0,0:0:0:0:
256,192,16217,1,0,0:0:0:0:
256,192,16369,1,4,0:0:0:0:
256,192,16826,1,0,0:0:0:0:
256,192,17282,1,0,0:0:0:0:
256,192,17435,1,0,0:0:0:0:
256,192,17511,1,0,0:0:0:0:
256,192,17587,1,0,0:0:0:0:
256,192,18044,1,0,0:0:0:0:
256,192,18348,1,0,0:0:0:0:
256,192,18501,1,0,0:0:0:0:
256,192,18577,1,0,0:0:0:0:
256,192,18653,1,0,0:0:0:0:
256,192,18805,1,0,0:0:0:0:
256,192,19110,1,0,0:0:0:0:
256,192,19186,1,0,0:0:0:0:
256,192,19262,1,0,0:0:0:0:
256,192,19414,1,0,0:0:0:0:
256,192,19491,1,0,0:0:0:0:
256,192,19567,1,8,0:0:0:0:
256,192,19719,1,0,0:0:0:0:
256,192,19795,1,8,0:0:0:0:
256,192,19871,1,8,0:0:0:0:
256,192,20024,1,8,0:0:0:0:
256,192,20328,1,8,0:0:0:0:
256,192,20404,1,8,0:0:0:0:
256,192,20480,1,8,0:0:0:0:
256,192,20633,1,8,0:0:0:0:
256,192,20709,1,8,0:0:0:0:
256,192,20785,1,0,0:0:0:0:
256,192,20937,1,8,0:0:0:0:
256,192,21013,1,0,0:0:0:0:
256,192,21090,1,0,0:0:0:0:
256,192,21242,1,0,0:0:0:0:
256,192,21546,1,0,0:0:0:0:
256,192,21699,1,0,0:0:0:0:
256,192,21775,1,0,0:0:0:0:
256,192,21851,1,8,0:0:0:0:
256,192,22156,1,0,0:0:0:0:
256,192,22308,1,0,0:0:0:0:
256,192,22384,1,0,0:0:0:0:
256,192,22460,1,8,0:0:0:0:
256,192,22765,1,0,0:0:0:0:
256,192,22917,1,0,0:0:0:0:
256,192,22993,1,0,0:0:0:0:
256,192,23069,1,8,0:0:0:0:
256,192,23374,1,0,0:0:0:0:
256,192,23450,1,0,0:0:0:0:
256,192,23526,1,0,0:0:0:0:
256,192,23602,1,0,0:0:0:0:
256,192,23678,1,8,0:0:0:0:
256,192,23983,1,0,0:0:0:0:
256,192,24135,1,0,0:0:0:0:
256,192,24211,1,0,0:0:0:0:
256,192,24288,1,8,0:0:0:0:
256,192,24592,1,0,0:0:0:0:
256,192,24744,1,0,0:0:0:0:
256,192,24821,1,0,0:0:0:0:
256,192,24897,1,8,0:0:0:0:
256,192,25201,1,0,0:0:0:0:
256,192,25354,1,8,0:0:0:0:
256,192,25430,1,8,0:0:0:0:
256,192,25506,1,0,0:0:0:0:
256,192,25810,1,0,0:0:0:0:
256,192,25887,1,0,0:0:0:0:
256,192,25963,1,0,0:0:0:0:
256,192,26039,1,0,0:0:0:0:
256,192,26115,1,8,0:0:0:0:
256,192,26420,1,0,0:0:0:0:
256,192,26572,1,8,0:0:0:0:
256,192,26724,1,0,0:0:0:0:
256,192,27029,1,0,0:0:0:0:
256,192,27105,1,0,0:0:0:0:
256,192,27181,1,0,0:0:0:0:
256,192,27257,1,0,0:0:0:0:
256,192,27333,1,8,0:0:0:0:
256,192,27638,1,0,0:0:0:0:
256,192,27790,1,0,0:0:0:0:
256,192,27942,1,8,0:0:0:0:
256,192,28247,1,8,0:0:0:0:
256,192,28323,1,8,0:0:0:0:
256,192,28399,1,0,0:0:0:0:
256,192,28475,1,0,0:0:0:0:
256,192,28552,1,0,0:0:0:0:
256,192,29059,1,8,0:0:0:0:
256,192,29161,1,8,0:0:0:0:
256,192,29465,1,0,0:0:0:0:
256,192,29541,1,0,0:0:0:0:
256,192,29618,1,0,0:0:0:0:
256,192,29694,1,0,0:0:0:0:
256,192,29770,1,8,0:0:0:0:
256,192,30227,1,0,0:0:0:0:
256,192,30303,1,8,0:0:0:0:
256,192,30379,1,8,0:0:0:0:
256,192,30684,1,4,0:0:0:0:
256,192,30988,1,0,0:0:0:0:
256,192,31445,1,0,0:0:0:0:
256,192,31750,1,0,0:0:0:0:
256,192,31902,1,8,0:0:0:0:
256,192,32054,1,0,0:0:0:0:
256,192,32359,1,8,0:0:0:0:
256,192,32511,1,0,0:0:0:0:
256,192,32815,1,8,0:0:0:0:
256,192,32892,1,8,0:0:0:0:
256,192,32968,1,8,0:0:0:0:
256,192,33044,1,8,0:0:0:0:
256,192,33120,1,0,0:0:0:0:
256,192,33196,1,0,0:0:0:0:
256,192,33272,1,8,0:0:0:0:
256,192,33348,1,8,0:0:0:0:
256,192,33425,1,0,0:0:0:0:
256,192,33881,1,0,0:0:0:0:
256,192,34186,1,0,0:0:0:0:
256,192,34338,1,8,0:0:0:0:
256,192,34491,1,0,0:0:0:0:
256,192,34947,1,0,0:0:0:0:
256,192,35252,1,8,0:0:0:0:
256,192,35328,1,8,0:0:0:0:
256,192,35404,1,0,0:0:0:0:
256,192,35480,1,0,0:0:0:0:
256,192,35557,1,8,0:0:0:0:
256,192,35633,1,8,0:0:0:0:
256,192,35709,1,8,0:0:0:0:
256,192,35785,1,8,0:0:0:0:
256,192,35861,1,0,0:0:0:0:
256,192,36318,1,0,0:0:0:0:
256,192,36623,1,0,0:0:0:0:
256,192,36775,1,8,0:0:0:0:
256,192,36927,1,0,0:0:0:0:
256,192,37232,1,8,0:0:0:0:
256,192,37384,1,0,0:0:0:0:
256,192,37689,1,8,0:0:0:0:
256,192,37765,1,8,0:0:0:0:
256,192,37841,1,8,0:0:0:0:
256,192,37917,1,8,0:0:0:0:
256,192,37993,1,0,0:0:0:0:
256,192,38069,1,0,0:0:0:0:
256,192,38145,1,8,0:0:0:0:
256,192,38222,1,0,0:0:0:0:
256,192,38298,1,0,0:0:0:0:
256,192,38755,1,0,0:0:0:0:
256,192,39059,1,0,0:0:0:0:
256,192,39211,1,8,0:0:0:0:
256,192,39364,1,0,0:0:0:0:
256,192,39516,1,0,0:0:0:0:
256,192,39744,1,8,0:0:0:0:
256,192,39821,1,0,0:0:0:0:
256,192,40125,1,8,0:0:0:0:
256,192,40201,1,0,0:0:0:0:
256,192,40277,1,0,0:0:0:0:
256,192,40354,1,0,0:0:0:0:
256,192,40430,1,8,0:0:0:0:
256,192,40506,1,8,0:0:0:0:
256,192,40582,1,8,0:0:0:0:
256,192,40658,1,8,0:0:0:0:
256,192,40734,1,0,0:0:0:0:
256,192,41039,1,0,0:0:0:0:
256,192,41191,1,0,0:0:0:0:
256,192,41343,1,8,0:0:0:0:
256,192,41496,1,0,0:0:0:0:
256,192,41648,1,0,0:0:0:0:
256,192,41953,1,0,0:0:0:0:
256,192,42257,1,0,0:0:0:0:
256,192,42409,1,0,0:0:0:0:
256,192,42562,1,8,0:0:0:0:
256,192,42714,1,0,0:0:0:0:
256,192,42866,1,8,0:0:0:0:
256,192,43019,1,0,0:0:0:0:
256,192,43095,1,0,0:0:0:0:
256,192,43171,1,8,0:0:0:0:
256,192,43323,1,0,0:0:0:0:
256,192,43475,1,8,0:0:0:0:
256,192,43628,1,0,0:0:0:0:
256,192,43704,1,0,0:0:0:0:
256,192,43780,1,8,0:0:0:0:
256,192,43932,1,0,0:0:0:0:
256,192,44008,1,0,0:0:0:0:
256,192,44085,1,8,0:0:0:0:
256,192,44237,1,0,0:0:0:0:
256,192,44389,1,8,0:0:0:0:
256,192,44465,1,8,0:0:0:0:
256,192,44541,1,8,0:0:0:0:
256,192,44694,1,0,0:0:0:0:
256,192,44770,1,0,0:0:0:0:
256,192,44846,1,0,0:0:0:0:
256,192,44998,1,8,0:0:0:0:
256,192,45074,1,8,0:0:0:0:
256,192,45151,1,8,0:0:0:0:
256,192,45303,1,0,0:0:0:0:
256,192,45455,1,8,0:0:0:0:
256,192,45607,1,8,0:0:0:0:
256,192,45684,1,8,0:0:0:0:
256,192,45760,1,8,0:0:0:0:
256,192,45912,1,0,0:0:0:0:
256,192,45988,1,0,0:0:0:0:
256,192,46064,1,0,0:0:0:0:
256,192,46217,1,8,0:0:0:0:
256,192,46293,1,8,0:0:0:0:
256,192,46369,1,8,0:0:0:0:
256,192,46521,1,0,0:0:0:0:
256,192,46673,1,8,0:0:0:0:
256,192,46826,1,8,0:0:0:0:
256,192,46902,1,8,0:0:0:0:
256,192,46978,1,8,0:0:0:0:
256,192,47130,1,0,0:0:0:0:
256,192,47206,1,0,0:0:0:0:
256,192,47282,1,0,0:0:0:0:
256,192,47435,1,8,0:0:0:0:
256,192,47511,1,8,0:0:0:0:
256,192,47587,1,8,0:0:0:0:
256,192,47739,1,0,0:0:0:0:
256,192,47892,1,8,0:0:0:0:
256,192,48044,1,8,0:0:0:0:
256,192,48120,1,8,0:0:0:0:
256,192,48196,1,8,0:0:0:0:
256,192,48348,1,0,0:0:0:0:
256,192,48425,1,0,0:0:0:0:
256,192,48501,1,0,0:0:0:0:
256,192,48653,1,8,0:0:0:0:
256,192,48729,1,8,0:0:0:0:
256,192,48805,1,8,0:0:0:0:
256,192,48958,1,0,0:0:0:0:
256,192,49110,1,8,0:0:0:0:
256,192,49262,1,8,0:0:0:0:
256,192,49338,1,8,0:0:0:0:
256,192,49414,1,8,0:0:0:0:
256,192,49567,1,8,0:0:0:0:
256,192,49643,1,8,0:0:0:0:
256,192,49719,1,8,0:0:0:0:
256,192,49871,1,8,0:0:0:0:
256,192,49947,1,8,0:0:0:0:
256,192,50024,1,8,0:0:0:0:
256,192,50176,1,4,0:0:0:0:
256,192,50480,1,0,0:0:0:0:
256,192,50557,1,0,0:0:0:0:
256,192,50633,1,0,0:0:0:0:
256,192,50785,1,0,0:0:0:0:
256,192,50937,1,0,0:0:0:0:
256,192,51013,1,0,0:0:0:0:
256,192,51090,1,0,0:0:0:0:
256,192,51242,1,0,0:0:0:0:
256,192,51394,1,0,0:0:0:0:
256,192,51470,1,0,0:0:0:0:
256,192,51546,1,0,0:0:0:0:
256,192,51699,1,0,0:0:0:0:
256,192,51851,1,0,0:0:0:0:
256,192,52003,1,0,0:0:0:0:
256,192,52156,1,0,0:0:0:0:
256,192,52308,1,0,0:0:0:0:
256,192,52384,1,0,0:0:0:0:
256,192,52460,1,0,0:0:0:0:
256,192,52612,1,12,0:0:0:0:
256,192,52917,1,0,0:0:0:0:
256,192,53222,1,0,0:0:0:0:
256,192,53374,1,0,0:0:0:0:
256,192,53526,1,8,0:0:0:0:
256,192,53831,1,0,0:0:0:0:
256,192,54135,1,8,0:0:0:0:
256,192,54744,1,0,0:0:0:0:
256,192,55049,1,8,0:0:0:0:
256,192,55354,1,0,0:0:0:0:
256,192,55658,1,0,0:0:0:0:
256,192,55734,1,0,0:0:0:0:
256,192,55810,1,0,0:0:0:0:
256,192,55963,1,0,0:0:0:0:
256,192,56039,1,0,0:0:0:0:
256,192,56115,1,0,0:0:0:0:
256,192,56267,1,0,0:0:0:0:
256,192,56420,1,8,0:0:0:0:
256,192,56572,1,8,0:0:0:0:
256,192,56648,1,8,0:0:0:0:
256,192,56724,1,8,0:0:0:0:
256,192,56876,1,8,0:0:0:0:
256,192,56953,1,8,0:0:0:0:
256,192,57029,1,8,0:0:0:0:
256,192,57181,1,8,0:0:0:0:
256,192,57257,1,8,0:0:0:0:
256,192,57333,1,8,0:0:0:0:
256,192,57486,1,8,0:0:0:0:
256,192,57562,1,8,0:0:0:0:
256,192,57638,1,8,0:0:0:0:
256,192,57790,1,0,0:0:0:0:
256,192,58095,1,0,0:0:0:0:
256,192,58247,1,0,0:0:0:0:
256,192,58399,1,8,0:0:0:0:
256,192,58704,1,0,0:0:0:0:
256,192,59008,1,8,0:0:0:0:
256,192,59313,1,0,0:0:0:0:
256,192,59618,1,8,0:0:0:0:
256,192,59922,1,0,0:0:0:0:
256,192,60227,1,0,0:0:0:0:
256,192,60531,1,8,0:0:0:0:
256,192,60684,1,0,0:0:0:0:
256,192,60988,1,8,0:0:0:0:
256,192,61140,1,0,0:0:0:0:
256,192,61445,1,0,0:0:0:0:
256,192,61597,1,8,0:0:0:0:
256,192,61750,1,8,0:0:0:0:
256,192,62054,1,8,0:0:0:0:
256,192,62206,1,8,0:0:0:0:
256,192,62282,1,8,0:0:0:0:
256,192,62359,1,0,0:0:0:0:
256,192,62663,1,12,0:0:0:0:
256,192,63577,1,8,0:0:0:0:
256,192,63729,1,8,0:0:0:0:
256,192,64034,1,8,0:0:0:0:
256,192,64186,1,8,0:0:0:0:
256,192,64491,1,8,0:0:0:0:
256,192,64795,1,8,0:0:0:0:
256,192,65100,1,0,0:0:0:0:
256,192,65557,1,0,0:0:0:0:
256,192,66013,1,0,0:0:0:0:
256,192,66927,1,8,0:0:0:0:
256,192,67079,1,8,0:0:0:0:
256,192,67156,1,8,0:0:0:0:
256,192,67232,1,0,0:0:0:0:
256,192,67536,1,4,0:0:0:0:
256,192,68145,1,0,0:0:0:0:
256,192,68450,1,8,0:0:0:0:
256,192,68602,1,0,0:0:0:0:
256,192,68907,1,8,0:0:0:0:
256,192,69059,1,0,0:0:0:0:
256,192,69364,1,8,0:0:0:0:
256,192,69668,1,0,0:0:0:0:
256,192,69821,1,0,0:0:0:0:
256,192,69973,1,0,0:0:0:0:
256,192,71039,1,4,0:0:0:0:
256,192,71343,1,4,0:0:0:0:
256,192,71648,1,4,0:0:0:0:
256,192,72105,1,0,0:0:0:0:
256,192,72181,1,0,0:0:0:0:
256,192,72257,1,0,0:0:0:0:
256,192,72333,1,0,0:0:0:0:
256,192,72409,1,0,0:0:0:0:
256,192,72714,1,0,0:0:0:0:
256,192,72866,1,0,0:0:0:0:
256,192,72942,1,0,0:0:0:0:
256,192,73019,1,8,0:0:0:0:
256,192,73171,1,8,0:0:0:0:
256,192,73247,1,8,0:0:0:0:
256,192,73323,1,0,0:0:0:0:
256,192,73475,1,0,0:0:0:0:
256,192,73628,1,8,0:0:0:0:
256,192,73932,1,0,0:0:0:0:
256,192,74085,1,0,0:0:0:0:
256,192,74161,1,0,0:0:0:0:
256,192,74237,1,8,0:0:0:0:
256,192,74389,1,8,0:0:0:0:
256,192,74465,1,8,0:0:0:0:
256,192,74541,1,0,0:0:0:0:
256,192,74694,1,0,0:0:0:0:
256,192,74846,1,8,0:0:0:0:
256,192,75151,1,0,0:0:0:0:
256,192,75303,1,0,0:0:0:0:
256,192,75379,1,0,0:0:0:0:
256,192,75455,1,8,0:0:0:0:
256,192,75607,1,8,0:0:0:0:
256,192,75684,1,8,0:0:0:0:
256,192,75760,1,0,0:0:0:0:
256,192,75912,1,8,0:0:0:0:
256,192,76064,1,0,0:0:0:0:
256,192,76369,1,8,0:0:0:0:
256,192,76521,1,8,0:0:0:0:
256,192,76673,1,8,0:0:0:0:
256,192,76826,1,8,0:0:0:0:
256,192,76978,1,8,0:0:0:0:
256,192,77054,1,8,0:0:0:0:
256,192,77130,1,8,0:0:0:0:
256,192,77282,1,0,0:0:0:0:
256,192,77359,1,0,0:0:0:0:
256,192,77435,1,0,0:0:0:0:
256,192,77587,1,8,0:0:0:0:
256,192,77739,1,0,0:0:0:0:
256,192,77815,1,0,0:0:0:0:
256,192,77892,1,0,0:0:0:0:
256,192,78044,1,8,0:0:0:0:
256,192,78196,1,0,0:0:0:0:
256,192,78272,1,0,0:0:0:0:
256,192,78348,1,0,0:0:0:0:
256,192,78501,1,8,0:0:0:0:
256,192,78653,1,0,0:0:0:0:
256,192,78729,1,0,0:0:0:0:
256,192,78805,1,8,0:0:0:0:
256,192,78958,1,8,0:0:0:0:
256,192,79110,1,0,0:0:0:0:
256,192,79186,1,0,0:0:0:0:
256,192,79262,1,8,0:0:0:0:
256,192,79414,1,0,0:0:0:0:
256,192,79567,1,8,0:0:0:0:
256,192,79719,1,0,0:0:0:0:
256,192,79795,1,0,0:0:0:0:
256,192,79871,1,0,0:0:0:0:
256,192,80024,1,8,0:0:0:0:
256,192,80176,1,0,0:0:0:0:
256,192,80252,1,0,0:0:0:0:
256,192,80328,1,0,0:0:0:0:
256,192,80480,1,8,0:0:0:0:
256,192,80633,1,0,0:0:0:0:
256,192,80709,1,0,0:0:0:0:
256,192,80785,1,8,0:0:0:0:
256,192,80937,1,0,0:0:0:0:
256,192,81242,1,8,0:0:0:0:
256,192,81394,1,8,0:0:0:0:
256,192,81546,1,0,0:0:0:0:
256,192,81699,1,0,0:0:0:0:
256,192,81851,1,0,0:0:0:0:
256,192,81927,1,0,0:0:0:0:
256,192,82003,1,0,0:0:0:0:
256,192,82156,1,4,0:0:0:0:
256,192,82460,1,0,0:0:0:0:
256,192,82612,1,0,0:0:0:0:
256,192,82689,1,0,0:0:0:0:
256,192,82765,1,8,0:0:0:0:
256,192,82917,1,8,0:0:0:0:
256,192,82993,1,8,0:0:0:0:
256,192,83069,1,0,0:0:0:0:
256,192,83222,1,0,0:0:0:0:
256,192,83374,1,8,0:0:0:0:
256,192,83678,1,0,0:0:0:0:
256,192,83831,1,0,0:0:0:0:
256,192,83907,1,0,0:0:0:0:
256,192,83983,1,8,0:0:0:0:
256,192,84135,1,8,0:0:0:0:
256,192,84211,1,8,0:0:0:0:
256,192,84288,1,0,0:0:0:0:
256,192,84440,1,0,0:0:0:0:
256,192,84592,1,8,0:0:0:0:
256,192,84897,1,0,0:0:0:0:
256,192,85049,1,0,0:0:0:0:
256,192,85125,1,0,0:0:0:0:
256,192,85201,1,8,0:0:0:0:
256,192,85354,1,8,0:0:0:0:
256,192,85430,1,8,0:0:0:0:
256,192,85506,1,0,0:0:0:0:
256,192,85658,1,8,0:0:0:0:
256,192,85810,1,0,0:0:0:0:
256,192,86115,1,8,0:0:0:0:
256,192,86267,1,8,0:0:0:0:
256,192,86420,1,8,0:0:0:0:
256,192,86572,1,8,0:0:0:0:
256,192,86724,1,8,0:0:0:0:
256,192,86800,1,8,0:0:0:0:
256,192,86876,1,8,0:0:0:0:
256,192,87029,1,0,0:0:0:0:
256,192,87105,1,0,0:0:0:0:
256,192,87181,1,0,0:0:0:0:
256,192,87333,1,8,0:0:0:0:
256,192,87486,1,0,0:0:0:0:
256,192,87562,1,0,0:0:0:0:
256,192,87638,1,0,0:0:0:0:
256,192,87790,1,8,0:0:0:0:
256,192,87942,1,0,0:0:0:0:
256,192,88019,1,0,0:0:0:0:
256,192,88095,1,0,0:0:0:0:
256,192,88247,1,8,0:0:0:0:
256,192,88399,1,0,0:0:0:0:
256,192,88475,1,0,0:0:0:0:
256,192,88552,1,8,0:0:0:0:
256,192,88704,1,8,0:0:0:0:
256,192,88856,1,0,0:0:0:0:
256,192,88932,1,0,0:0:0:0:
256,192,89008,1,8,0:0:0:0:
256,192,89161,1,0,0:0:0:0:
256,192,89313,1,8,0:0:0:0:
256,192,89465,1,0,0:0:0:0:
256,192,89541,1,0,0:0:0:0:
256,192,89618,1,0,0:0:0:0:
256,192,89770,1,8,0:0:0:0:
256,192,89922,1,0,0:0:0:0:
256,192,89998,1,0,0:0:0:0:
256,192,90074,1,0,0:0:0:0:
256,192,90227,1,8,0:0:0:0:
256,192,90379,1,0,0:0:0:0:
256,192,90455,1,0,0:0:0:0:
256,192,90531,1,8,0:0:0:0:
256,192,90684,1,0,0:0:0:0:
256,192,90988,1,8,0:0:0:0:
256,192,91140,1,8,0:0:0:0:
256,192,91293,1,0,0:0:0:0:
256,192,91445,1,0,0:0:0:0:
256,192,91597,1,0,0:0:0:0:
256,192,91673,1,0,0:0:0:0:
256,192,91750,1,0,0:0:0:0:
256,192,91902,1,12,0:0:0:0:
256,192,92206,1,8,0:0:0:0:
256,192,92359,1,8,0:0:0:0:
256,192,92511,1,0,0:0:0:0:
256,192,92663,1,0,0:0:0:0:
256,192,92815,1,8,0:0:0:0:
256,192,92968,1,8,0:0:0:0:
256,192,93120,1,0,0:0:0:0:
256,192,93272,1,0,0:0:0:0:
256,192,93425,1,8,0:0:0:0:
256,192,93577,1,0,0:0:0:0:
256,192,93729,1,0,0:0:0:0:
256,192,93881,1,0,0:0:0:0:
256,192,94034,1,8,0:0:0:0:
256,192,94186,1,0,0:0:0:0:
256,192,94338,1,12,0:0:0:0:
256,192,94643,1,8,0:0:0:0:
256,192,94795,1,8,0:0:0:0:
256,192,94947,1,0,0:0:0:0:
256,192,95100,1,0,0:0:0:0:
256,192,95252,1,8,0:0:0:0:
256,192,95404,1,8,0:0:0:0:
256,192,95557,1,0,0:0:0:0:
256,192,95709,1,0,0:0:0:0:
256,192,95861,1,8,0:0:0:0:
256,192,96166,1,8,0:0:0:0:
256,192,96318,1,8,0:0:0:0:
256,192,96470,1,0,0:0:0:0:
256,192,96623,1,8,0:0:0:0:
256,192,96775,1,12,0:0:0:0:
256,192,97079,1,8,0:0:0:0:
256,192,97232,1,8,0:0:0:0:
256,192,97384,1,0,0:0:0:0:
256,192,97536,1,0,0:0:0:0:
256,192,97689,1,8,0:0:0:0:
256,192,97841,1,0,0:0:0:0:
256,192,97993,1,0,0:0:0:0:
256,192,98145,1,0,0:0:0:0:
256,192,98298,1,8,0:0:0:0:
256,192,98450,1,0,0:0:0:0:
256,192,98602,1,0,0:0:0:0:
256,192,98755,1,0,0:0:0:0:
256,192,98907,1,8,0:0:0:0:
256,192,99059,1,0,0:0:0:0:
256,192,99211,1,12,0:0:0:0:
256,192,99516,1,8,0:0:0:0:
256,192,99668,1,8,0:0:0:0:
256,192,99821,1,4,0:0:0:0:
256,192,100125,1,8,0:0:0:0:
256,192,100277,1,0,0:0:0:0:
256,192,100430,1,0,0:0:0:0:
256,192,100506,1,0,0:0:0:0:
256,192,100582,1,0,0:0:0:0:
256,192,100734,1,0,0:0:0:0:
256,192,100810,1,0,0:0:0:0:
256,192,100887,1,0,0:0:0:0:
256,192,101039,1,8,0:0:0:0:
256,192,101115,1,8,0:0:0:0:
256,192,101191,1,8,0:0:0:0:
256,192,101267,1,8,0:0:0:0:
256,192,101343,1,0,0:0:0:0:
256,192,101648,1,4,0:0:0:0:
256,192,101953,1,8,0:0:0:0:
256,192,102105,1,0,0:0:0:0:
256,192,102409,1,0,0:0:0:0:
256,192,102562,1,8,0:0:0:0:
256,192,102714,1,0,0:0:0:0:
256,192,103019,1,0,0:0:0:0:
256,192,103171,1,8,0:0:0:0:
256,192,103475,1,8,0:0:0:0:
256,192,103628,1,8,0:0:0:0:
256,192,103780,1,0,0:0:0:0:
256,192,103932,1,8,0:0:0:0:
256,192,104237,1,8,0:0:0:0:
256,192,104389,1,0,0:0:0:0:
256,192,104694,1,8,0:0:0:0:
256,192,104998,1,0,0:0:0:0:
256,192,105151,1,8,0:0:0:0:
256,192,105455,1,8,0:0:0:0:
256,192,105607,1,0,0:0:0:0:
256,192,105760,1,8,0:0:0:0:
256,192,105836,1,8,0:0:0:0:
256,192,105912,1,0,0:0:0:0:
256,192,106217,1,0,0:0:0:0:
256,192,106293,1,0,0:0:0:0:
256,192,106369,1,0,0:0:0:0:
256,192,106521,1,8,0:0:0:0:
256,192,106826,1,0,0:0:0:0:
256,192,106978,1,0,0:0:0:0:
256,192,107130,1,8,0:0:0:0:
256,192,107435,1,8,0:0:0:0:
256,192,107587,1,0,0:0:0:0:
256,192,107892,1,0,0:0:0:0:
256,192,108044,1,8,0:0:0:0:
256,192,108348,1,8,0:0:0:0:
256,192,108500,1,8,0:0:0:0:
256,192,108653,1,0,0:0:0:0:
256,192,108805,1,8,0:0:0:0:
256,192,109110,1,8,0:0:0:0:
256,192,109262,1,8,0:0:0:0:
256,192,109567,1,8,0:0:0:0:
256,192,109871,1,0,0:0:0:0:
256,192,110024,1,8,0:0:0:0:
256,192,110176,1,0,0:0:0:0:
256,192,110252,1,0,0:0:0:0:
256,192,110328,1,0,0:0:0:0:
256,192,110480,1,0,0:0:0:0:
256,192,110633,1,8,0:0:0:0:
256,192,110709,1,8,0:0:0:0:
256,192,110785,1,0,0:0:0:0:
256,192,111090,1,0,0:0:0:0:
256,192,111166,1,0,0:0:0:0:
256,192,111242,1,0,0:0:0:0:
256,192,111394,1,8,0:0:0:0:
256,192,111699,1,8,0:0:0:0:
256,192,111851,1,8,0:0:0:0:
256,192,112003,1,0,0:0:0:0:
256,192,112156,1,0,0:0:0:0:
256,192,112308,1,8,0:0:0:0:
256,192,112460,1,0,0:0:0:0:
256,192,112612,1,0,0:0:0:0:
256,192,112765,1,0,0:0:0:0:
256,192,112917,1,8,0:0:0:0:
256,192,113069,1,8,0:0:0:0:
256,192,113222,1,0,0:0:0:0:
256,192,113374,1,0,0:0:0:0:
256,192,113526,1,8,0:0:0:0:
256,192,113678,1,0,0:0:0:0:
256,192,113831,1,0,0:0:0:0:
