osu file format v14

[General]
AudioFilename: audio.ogg
AudioLeadIn: 0
PreviewTime: 69719
Countdown: 0
SampleSet: Drum
StackLeniency: 0.7
Mode: 3
LetterboxInBreaks: 0
SpecialStyle: 0
WidescreenStoryboard: 1

[Editor]
DistanceSpacing: 0.8
BeatDivisor: 4
GridSize: 4
TimelineZoom: 2.1

[Metadata]
Title:Hikari Sasu Mio no Yuzuriha
TitleUnicode:光射す澪のユズリハ
Artist:Cororo feat. Yuria Miyazono
ArtistUnicode:Cororo feat. Yuria Miyazono
Creator:Nicknem_
Version:EXHAUST
Source:SOUND VOLTEX IV HEAVENLY HAVEN
Tags:instrumental electronic video game sdvx 4 Ω omega Dimension
BeatmapID:4011882
BeatmapSetID:1940331

[Difficulty]
HPDrainRate:8
CircleSize:7
OverallDifficulty:8
ApproachRate:5
SliderMultiplier:1.4
SliderTickRate:1

[Events]
//Background and Video events
0,0,"iGHyrL4.jpg",0,0
//Break Periods
//Storyboard Layer 0 (Background)
//Storyboard Layer 1 (Fail)
//Storyboard Layer 2 (Pass)
//Storyboard Layer 3 (Foreground)
//Storyboard Layer 4 (Overlay)
//Storyboard Sound Samples

[TimingPoints]
562,315.789473684211,3,3,1,40,1,0
69719,-100,3,3,1,40,0,1
84877,-100,3,3,1,40,0,0

[HitObjects]
36,192,562,5,0,0:0:0:0:
182,192,562,1,0,0:0:0:0:
256,192,877,1,0,0:0:0:0:
329,192,1035,1,0,0:0:0:0:
402,192,1193,1,0,0:0:0:0:
475,192,1351,1,0,0:0:0:0:
36,192,1509,1,0,0:0:0:0:
256,192,1509,1,0,0:0:0:0:
182,192,1667,1,0,0:0:0:0:
329,192,1825,1,0,0:0:0:0:
475,192,1825,1,0,0:0:0:0:
256,192,1983,1,0,0:0:0:0:
36,192,2140,1,0,0:0:0:0:
109,192,2140,1,0,0:0:0:0:
329,192,2298,1,0,0:0:0:0:
475,192,2456,128,0,2772:0:0:0:0:
182,192,2456,128,0,2772:0:0:0:0:
36,192,2772,1,0,0:0:0:0:
329,192,2851,1,0,0:0:0:0:
36,192,2930,1,0,0:0:0:0:
256,192,3088,1,0,0:0:0:0:
109,192,3246,1,0,0:0:0:0:
36,192,3404,128,0,3719:0:0:0:0:
329,192,3404,128,0,3719:0:0:0:0:
475,192,3719,1,0,0:0:0:0:
182,192,3798,1,0,0:0:0:0:
475,192,3877,1,0,0:0:0:0:
329,192,4035,1,0,0:0:0:0:
256,192,4193,1,0,0:0:0:0:
475,192,4351,5,0,0:0:0:0:
329,192,4351,1,0,0:0:0:0:
256,192,4667,1,0,0:0:0:0:
182,192,4825,1,0,0:0:0:0:
109,192,4983,1,0,0:0:0:0:
36,192,5140,1,0,0:0:0:0:
475,192,5298,1,0,0:0:0:0:
256,192,5298,1,0,0:0:0:0:
329,192,5456,1,0,0:0:0:0:
182,192,5614,1,0,0:0:0:0:
36,192,5614,1,0,0:0:0:0:
256,192,5772,1,0,0:0:0:0:
475,192,5930,1,0,0:0:0:0:
402,192,5930,1,0,0:0:0:0:
182,192,6088,1,0,0:0:0:0:
36,192,6246,128,0,6562:0:0:0:0:
329,192,6246,128,0,6562:0:0:0:0:
475,192,6562,1,0,0:0:0:0:
182,192,6640,1,0,0:0:0:0:
475,192,6719,1,0,0:0:0:0:
256,192,6877,1,0,0:0:0:0:
402,192,7035,1,0,0:0:0:0:
475,192,7193,128,0,7509:0:0:0:0:
182,192,7193,128,0,7509:0:0:0:0:
36,192,7509,1,0,0:0:0:0:
329,192,7588,1,0,0:0:0:0:
36,192,7667,1,0,0:0:0:0:
182,192,7825,1,0,0:0:0:0:
256,192,7983,1,0,0:0:0:0:
109,192,8140,1,0,0:0:0:0:
36,192,8140,1,0,0:0:0:0:
182,192,8140,1,0,0:0:0:0:
36,192,8298,1,0,0:0:0:0:
402,192,8456,1,0,0:0:0:0:
475,192,8456,1,0,0:0:0:0:
329,192,8456,1,0,0:0:0:0:
475,192,8614,1,0,0:0:0:0:
182,192,8772,1,0,0:0:0:0:
109,192,8772,1,0,0:0:0:0:
256,192,8772,1,0,0:0:0:0:
256,192,8930,1,0,0:0:0:0:
402,192,9088,1,0,0:0:0:0:
475,192,9088,1,0,0:0:0:0:
329,192,9088,1,0,0:0:0:0:
329,192,9246,1,0,0:0:0:0:
36,192,9404,1,0,0:0:0:0:
109,192,9404,1,0,0:0:0:0:
475,192,9404,1,0,0:0:0:0:
182,192,9483,1,0,0:0:0:0:
256,192,9562,1,0,0:0:0:0:
329,192,9640,1,0,0:0:0:0:
109,192,9719,1,0,0:0:0:0:
36,192,9719,1,0,0:0:0:0:
402,192,9719,1,0,0:0:0:0:
329,192,9798,1,0,0:0:0:0:
256,192,9877,1,0,0:0:0:0:
182,192,9956,1,0,0:0:0:0:
402,192,10035,1,0,0:0:0:0:
475,192,10035,1,0,0:0:0:0:
36,192,10035,1,0,0:0:0:0:
402,192,10193,1,0,0:0:0:0:
109,192,10351,1,0,0:0:0:0:
36,192,10351,1,0,0:0:0:0:
329,192,10351,1,0,0:0:0:0:
182,192,10430,1,0,0:0:0:0:
256,192,10509,1,0,0:0:0:0:
329,192,10588,1,0,0:0:0:0:
402,192,10667,1,0,0:0:0:0:
475,192,10667,1,0,0:0:0:0:
36,192,10667,1,0,0:0:0:0:
256,192,10746,1,0,0:0:0:0:
182,192,10825,1,0,0:0:0:0:
109,192,10904,1,0,0:0:0:0:
402,192,10983,1,0,0:0:0:0:
475,192,10983,1,0,0:0:0:0:
36,192,10983,1,0,0:0:0:0:
475,192,11140,1,0,0:0:0:0:
109,192,11298,1,0,0:0:0:0:
182,192,11298,1,0,0:0:0:0:
36,192,11298,1,0,0:0:0:0:
256,192,11377,1,0,0:0:0:0:
329,192,11456,1,0,0:0:0:0:
402,192,11535,1,0,0:0:0:0:
475,192,11614,1,0,0:0:0:0:
36,192,11614,1,0,0:0:0:0:
109,192,11614,1,0,0:0:0:0:
182,192,11693,1,0,0:0:0:0:
256,192,11772,1,0,0:0:0:0:
329,192,11851,1,0,0:0:0:0:
402,192,11930,1,0,0:0:0:0:
475,192,11930,1,0,0:0:0:0:
36,192,11930,1,0,0:0:0:0:
329,192,12009,1,0,0:0:0:0:
256,192,12088,1,0,0:0:0:0:
182,192,12167,1,0,0:0:0:0:
109,192,12246,1,0,0:0:0:0:
475,192,12246,1,0,0:0:0:0:
402,192,12246,1,0,0:0:0:0:
109,192,12404,1,0,0:0:0:0:
402,192,12562,1,0,0:0:0:0:
475,192,12562,1,0,0:0:0:0:
256,192,12562,1,0,0:0:0:0:
402,192,12719,1,0,0:0:0:0:
109,192,12877,1,0,0:0:0:0:
182,192,12877,1,0,0:0:0:0:
36,192,12877,1,0,0:0:0:0:
36,192,13035,1,0,0:0:0:0:
329,192,13193,1,0,0:0:0:0:
402,192,13193,1,0,0:0:0:0:
475,192,13193,1,0,0:0:0:0:
256,192,13272,1,0,0:0:0:0:
182,192,13351,1,0,0:0:0:0:
109,192,13430,1,0,0:0:0:0:
475,192,13509,1,0,0:0:0:0:
36,192,13509,1,0,0:0:0:0:
256,192,13509,1,0,0:0:0:0:
402,192,13588,1,0,0:0:0:0:
329,192,13667,1,0,0:0:0:0:
256,192,13746,1,0,0:0:0:0:
182,192,13825,1,0,0:0:0:0:
36,192,13825,1,0,0:0:0:0:
475,192,13825,1,0,0:0:0:0:
329,192,13983,1,0,0:0:0:0:
109,192,14140,1,0,0:0:0:0:
36,192,14140,1,0,0:0:0:0:
475,192,14140,1,0,0:0:0:0:
182,192,14219,1,0,0:0:0:0:
256,192,14298,1,0,0:0:0:0:
329,192,14377,1,0,0:0:0:0:
109,192,14456,1,0,0:0:0:0:
36,192,14456,1,0,0:0:0:0:
402,192,14456,1,0,0:0:0:0:
182,192,14535,1,0,0:0:0:0:
475,192,14614,1,0,0:0:0:0:
402,192,14614,1,0,0:0:0:0:
329,192,14693,1,0,0:0:0:0:
182,192,14772,1,0,0:0:0:0:
109,192,14772,1,0,0:0:0:0:
36,192,14772,1,0,0:0:0:0:
256,192,14851,1,0,0:0:0:0:
475,192,14930,1,0,0:0:0:0:
402,192,14930,1,0,0:0:0:0:
329,192,15009,1,0,0:0:0:0:
36,192,15088,1,0,0:0:0:0:
109,192,15088,1,0,0:0:0:0:
182,192,15088,1,0,0:0:0:0:
256,192,15167,1,0,0:0:0:0:
402,192,15246,1,0,0:0:0:0:
329,192,15246,1,0,0:0:0:0:
475,192,15404,1,0,0:0:0:0:
402,192,15404,1,0,0:0:0:0:
329,192,15404,1,0,0:0:0:0:
256,192,15483,1,0,0:0:0:0:
109,192,15562,1,0,0:0:0:0:
182,192,15562,1,0,0:0:0:0:
36,192,15640,1,0,0:0:0:0:
329,192,15719,1,0,0:0:0:0:
402,192,16193,1,0,0:0:0:0:
475,192,16983,1,0,0:0:0:0:
402,192,17062,1,0,0:0:0:0:
329,192,17140,1,0,0:0:0:0:
256,192,17219,1,0,0:0:0:0:
402,192,17298,1,0,0:0:0:0:
329,192,17377,1,0,0:0:0:0:
256,192,17456,1,0,0:0:0:0:
182,192,17535,1,0,0:0:0:0:
109,192,17614,1,0,0:0:0:0:
36,192,17614,128,0,18088:0:0:0:0:
475,192,17614,1,0,0:0:0:0:
182,192,18088,1,0,0:0:0:0:
256,192,18088,1,0,0:0:0:0:
475,192,18246,128,0,18562:0:0:0:0:
402,192,18246,1,0,0:0:0:0:
109,192,18246,1,0,0:0:0:0:
256,192,18404,1,0,0:0:0:0:
109,192,18562,128,0,18877:0:0:0:0:
36,192,18562,1,0,0:0:0:0:
329,192,18877,128,0,19193:0:0:0:0:
402,192,18877,1,0,0:0:0:0:
256,192,18877,1,0,0:0:0:0:
182,192,19193,128,0,19509:0:0:0:0:
109,192,19193,1,0,0:0:0:0:
475,192,19193,1,0,0:0:0:0:
256,192,19509,128,0,19825:0:0:0:0:
329,192,19509,1,0,0:0:0:0:
109,192,19667,1,0,0:0:0:0:
402,192,19825,128,0,20140:0:0:0:0:
256,192,19983,1,0,0:0:0:0:
109,192,20140,128,0,20456:0:0:0:0:
36,192,20140,1,0,0:0:0:0:
182,192,20219,1,0,0:0:0:0:
256,192,20298,1,0,0:0:0:0:
402,192,20456,1,0,0:0:0:0:
475,192,20456,1,0,0:0:0:0:
329,192,20535,1,0,0:0:0:0:
256,192,20614,1,0,0:0:0:0:
182,192,20772,1,0,0:0:0:0:
109,192,20772,1,0,0:0:0:0:
36,192,20772,1,0,0:0:0:0:
402,192,20930,1,0,0:0:0:0:
36,192,21088,128,0,21246:0:0:0:0:
109,192,21088,1,0,0:0:0:0:
329,192,21088,1,0,0:0:0:0:
182,192,21246,128,0,21404:0:0:0:0:
256,192,21246,1,0,0:0:0:0:
402,192,21404,128,0,21719:0:0:0:0:
475,192,21404,1,0,0:0:0:0:
36,192,21404,1,0,0:0:0:0:
256,192,21719,128,0,22035:0:0:0:0:
329,192,21877,1,0,0:0:0:0:
109,192,22035,128,0,22351:0:0:0:0:
36,192,22035,1,0,0:0:0:0:
475,192,22035,1,0,0:0:0:0:
182,192,22193,1,0,0:0:0:0:
329,192,22351,128,0,22667:0:0:0:0:
402,192,22351,1,0,0:0:0:0:
475,192,22351,1,0,0:0:0:0:
182,192,22667,128,0,22983:0:0:0:0:
256,192,22667,1,0,0:0:0:0:
109,192,22667,1,0,0:0:0:0:
36,192,22983,128,0,23298:0:0:0:0:
475,192,22983,1,0,0:0:0:0:
402,192,22983,1,0,0:0:0:0:
256,192,23140,1,0,0:0:0:0:
329,192,23219,1,0,0:0:0:0:
109,192,23298,1,0,0:0:0:0:
402,192,23298,1,0,0:0:0:0:
182,192,23298,1,0,0:0:0:0:
182,192,23614,1,0,0:0:0:0:
109,192,23614,1,0,0:0:0:0:
329,192,23614,1,0,0:0:0:0:
402,192,23614,1,0,0:0:0:0:
36,192,23930,1,0,0:0:0:0:
256,192,23930,1,0,0:0:0:0:
475,192,23930,1,0,0:0:0:0:
182,192,23930,1,0,0:0:0:0:
402,192,24009,1,0,0:0:0:0:
329,192,24088,1,0,0:0:0:0:
256,192,24167,1,0,0:0:0:0:
36,192,24246,5,0,0:0:0:0:
475,192,24246,1,0,0:0:0:0:
109,192,24246,1,0,0:0:0:0:
402,192,24246,1,0,0:0:0:0:
402,192,24562,1,0,0:0:0:0:
256,192,24719,1,0,0:0:0:0:
329,192,24719,1,0,0:0:0:0:
182,192,24877,1,0,0:0:0:0:
475,192,24877,1,0,0:0:0:0:
109,192,24877,1,0,0:0:0:0:
402,192,25035,1,0,0:0:0:0:
36,192,25193,1,0,0:0:0:0:
109,192,25193,1,0,0:0:0:0:
329,192,25193,1,0,0:0:0:0:
182,192,25351,1,0,0:0:0:0:
329,192,25509,1,0,0:0:0:0:
402,192,25509,1,0,0:0:0:0:
475,192,25509,1,0,0:0:0:0:
256,192,25667,1,0,0:0:0:0:
475,192,25825,1,0,0:0:0:0:
402,192,25825,1,0,0:0:0:0:
36,192,25825,1,0,0:0:0:0:
256,192,25983,1,0,0:0:0:0:
109,192,26140,128,0,26456:0:0:0:0:
36,192,26140,1,0,0:0:0:0:
475,192,26140,1,0,0:0:0:0:
402,192,26298,1,0,0:0:0:0:
256,192,26298,1,0,0:0:0:0:
329,192,26456,1,0,0:0:0:0:
182,192,26535,1,0,0:0:0:0:
329,192,26614,1,0,0:0:0:0:
256,192,26772,1,0,0:0:0:0:
36,192,26772,1,0,0:0:0:0:
475,192,26772,1,0,0:0:0:0:
109,192,26930,1,0,0:0:0:0:
475,192,27088,128,0,27404:0:0:0:0:
402,192,27088,1,0,0:0:0:0:
329,192,27088,1,0,0:0:0:0:
256,192,27167,1,0,0:0:0:0:
182,192,27246,1,0,0:0:0:0:
36,192,27404,1,0,0:0:0:0:
182,192,27483,1,0,0:0:0:0:
109,192,27562,1,0,0:0:0:0:
256,192,27719,1,0,0:0:0:0:
402,192,27719,1,0,0:0:0:0:
475,192,27719,1,0,0:0:0:0:
182,192,27877,1,0,0:0:0:0:
475,192,28035,1,0,0:0:0:0:
36,192,28035,1,0,0:0:0:0:
329,192,28035,1,0,0:0:0:0:
402,192,28193,1,0,0:0:0:0:
109,192,28193,1,0,0:0:0:0:
256,192,28351,1,0,0:0:0:0:
182,192,28509,1,0,0:0:0:0:
36,192,28509,1,0,0:0:0:0:
402,192,28667,1,0,0:0:0:0:
475,192,28667,1,0,0:0:0:0:
329,192,28667,1,0,0:0:0:0:
256,192,28825,1,0,0:0:0:0:
109,192,28983,1,0,0:0:0:0:
36,192,28983,1,0,0:0:0:0:
475,192,28983,1,0,0:0:0:0:
182,192,29140,1,0,0:0:0:0:
402,192,29298,1,0,0:0:0:0:
329,192,29298,1,0,0:0:0:0:
36,192,29298,1,0,0:0:0:0:
256,192,29377,1,0,0:0:0:0:
182,192,29456,1,0,0:0:0:0:
475,192,29614,1,0,0:0:0:0:
402,192,29614,1,0,0:0:0:0:
109,192,29614,1,0,0:0:0:0:
329,192,29772,1,0,0:0:0:0:
256,192,29772,1,0,0:0:0:0:
402,192,29851,1,0,0:0:0:0:
109,192,29930,1,0,0:0:0:0:
36,192,29930,128,0,30246:0:0:0:0:
182,192,29930,1,0,0:0:0:0:
402,192,30088,1,0,0:0:0:0:
475,192,30088,1,0,0:0:0:0:
256,192,30246,1,0,0:0:0:0:
329,192,30404,1,0,0:0:0:0:
182,192,30404,1,0,0:0:0:0:
402,192,30562,1,0,0:0:0:0:
109,192,30562,1,0,0:0:0:0:
256,192,30562,1,0,0:0:0:0:
475,192,30719,1,0,0:0:0:0:
329,192,30798,1,0,0:0:0:0:
109,192,30877,128,0,31193:0:0:0:0:
36,192,30877,1,0,0:0:0:0:
182,192,30877,1,0,0:0:0:0:
256,192,31035,1,0,0:0:0:0:
329,192,31035,1,0,0:0:0:0:
475,192,31193,1,0,0:0:0:0:
402,192,31193,1,0,0:0:0:0:
36,192,31193,1,0,0:0:0:0:
182,192,31272,1,0,0:0:0:0:
256,192,31351,1,0,0:0:0:0:
329,192,31351,1,0,0:0:0:0:
109,192,31430,1,0,0:0:0:0:
36,192,31509,1,0,0:0:0:0:
402,192,31667,1,0,0:0:0:0:
256,192,31825,1,0,0:0:0:0:
109,192,31825,1,0,0:0:0:0:
475,192,31825,1,0,0:0:0:0:
182,192,31983,1,0,0:0:0:0:
402,192,32140,1,0,0:0:0:0:
329,192,32298,1,0,0:0:0:0:
256,192,32298,1,0,0:0:0:0:
109,192,32298,1,0,0:0:0:0:
402,192,32456,1,0,0:0:0:0:
182,192,32614,1,0,0:0:0:0:
475,192,32772,1,0,0:0:0:0:
36,192,32772,1,0,0:0:0:0:
329,192,32772,1,0,0:0:0:0:
182,192,33088,1,0,0:0:0:0:
402,192,33088,1,0,0:0:0:0:
329,192,33193,1,0,0:0:0:0:
109,192,33193,1,0,0:0:0:0:
36,192,33298,1,0,0:0:0:0:
256,192,33298,1,0,0:0:0:0:
182,192,33404,1,0,0:0:0:0:
475,192,33404,1,0,0:0:0:0:
109,192,33509,1,0,0:0:0:0:
402,192,33509,1,0,0:0:0:0:
329,192,33614,1,0,0:0:0:0:
36,192,33614,1,0,0:0:0:0:
475,192,33719,1,0,0:0:0:0:
182,192,33719,1,0,0:0:0:0:
256,192,33719,1,0,0:0:0:0:
109,192,33877,1,0,0:0:0:0:
402,192,34035,1,0,0:0:0:0:
475,192,34035,1,0,0:0:0:0:
182,192,34193,1,0,0:0:0:0:
109,192,34193,1,0,0:0:0:0:
36,192,34193,1,0,0:0:0:0:
256,192,34351,1,0,0:0:0:0:
329,192,34509,1,0,0:0:0:0:
402,192,34667,1,0,0:0:0:0:
109,192,34667,1,0,0:0:0:0:
475,192,34667,1,0,0:0:0:0:
256,192,34825,1,0,0:0:0:0:
36,192,34983,1,0,0:0:0:0:
109,192,34983,1,0,0:0:0:0:
329,192,35140,1,0,0:0:0:0:
475,192,35140,1,0,0:0:0:0:
182,192,35140,1,0,0:0:0:0:
256,192,35298,1,0,0:0:0:0:
109,192,35456,1,0,0:0:0:0:
182,192,35456,1,0,0:0:0:0:
256,192,35535,1,0,0:0:0:0:
475,192,35614,1,0,0:0:0:0:
402,192,35614,1,0,0:0:0:0:
36,192,35614,1,0,0:0:0:0:
329,192,35772,1,0,0:0:0:0:
109,192,35930,1,0,0:0:0:0:
182,192,36088,1,0,0:0:0:0:
256,192,36088,1,0,0:0:0:0:
36,192,36088,1,0,0:0:0:0:
402,192,36246,1,0,0:0:0:0:
329,192,36404,1,0,0:0:0:0:
36,192,36562,1,0,0:0:0:0:
475,192,36562,1,0,0:0:0:0:
109,192,36562,1,0,0:0:0:0:
109,192,36877,1,0,0:0:0:0:
329,192,36877,1,0,0:0:0:0:
182,192,36983,1,0,0:0:0:0:
402,192,36983,1,0,0:0:0:0:
475,192,37088,1,0,0:0:0:0:
256,192,37088,1,0,0:0:0:0:
329,192,37193,1,0,0:0:0:0:
36,192,37193,1,0,0:0:0:0:
109,192,37298,1,0,0:0:0:0:
402,192,37298,1,0,0:0:0:0:
182,192,37404,1,0,0:0:0:0:
475,192,37404,1,0,0:0:0:0:
329,192,37509,1,0,0:0:0:0:
36,192,37509,1,0,0:0:0:0:
256,192,37509,1,0,0:0:0:0:
402,192,37667,1,0,0:0:0:0:
109,192,37825,1,0,0:0:0:0:
36,192,37825,1,0,0:0:0:0:
329,192,37983,1,0,0:0:0:0:
402,192,37983,1,0,0:0:0:0:
475,192,37983,1,0,0:0:0:0:
256,192,38140,1,0,0:0:0:0:
182,192,38298,1,0,0:0:0:0:
109,192,38456,1,0,0:0:0:0:
402,192,38456,1,0,0:0:0:0:
36,192,38456,1,0,0:0:0:0:
256,192,38614,1,0,0:0:0:0:
182,192,38614,1,0,0:0:0:0:
475,192,38772,1,0,0:0:0:0:
402,192,38772,1,0,0:0:0:0:
109,192,38851,1,0,0:0:0:0:
475,192,38930,1,0,0:0:0:0:
402,192,38930,1,0,0:0:0:0:
109,192,39009,1,0,0:0:0:0:
475,192,39088,1,0,0:0:0:0:
402,192,39088,1,0,0:0:0:0:
109,192,39167,1,0,0:0:0:0:
475,192,39246,1,0,0:0:0:0:
402,192,39246,1,0,0:0:0:0:
109,192,39325,1,0,0:0:0:0:
329,192,39404,1,0,0:0:0:0:
256,192,39877,1,0,0:0:0:0:
182,192,40035,1,0,0:0:0:0:
36,192,40351,1,0,0:0:0:0:
329,192,41298,1,0,0:0:0:0:
109,192,41772,1,0,0:0:0:0:
182,192,42246,1,0,0:0:0:0:
329,192,42562,1,0,0:0:0:0:
475,192,42877,1,0,0:0:0:0:
109,192,43035,1,0,0:0:0:0:
182,192,43035,1,0,0:0:0:0:
329,192,43114,1,0,0:0:0:0:
402,192,43114,1,0,0:0:0:0:
109,192,43193,1,0,0:0:0:0:
182,192,43193,1,0,0:0:0:0:
36,192,43193,1,0,0:0:0:0:
256,192,43509,1,0,0:0:0:0:
329,192,43667,1,0,0:0:0:0:
182,192,43667,1,0,0:0:0:0:
109,192,43825,1,0,0:0:0:0:
402,192,43825,1,0,0:0:0:0:
256,192,43825,1,0,0:0:0:0:
36,192,44140,1,0,0:0:0:0:
182,192,44140,1,0,0:0:0:0:
36,192,44456,1,0,0:0:0:0:
109,192,44456,1,0,0:0:0:0:
402,192,44772,1,0,0:0:0:0:
475,192,44772,1,0,0:0:0:0:
329,192,44772,1,0,0:0:0:0:
256,192,45088,1,0,0:0:0:0:
109,192,45088,1,0,0:0:0:0:
182,192,45404,1,0,0:0:0:0:
109,192,45562,1,0,0:0:0:0:
36,192,45562,1,0,0:0:0:0:
402,192,45719,1,0,0:0:0:0:
475,192,45719,1,0,0:0:0:0:
329,192,45719,1,0,0:0:0:0:
109,192,46035,1,0,0:0:0:0:
329,192,46035,1,0,0:0:0:0:
36,192,46035,1,0,0:0:0:0:
182,192,46351,1,0,0:0:0:0:
402,192,46351,1,0,0:0:0:0:
109,192,46351,1,0,0:0:0:0:
475,192,46667,1,0,0:0:0:0:
402,192,46667,1,0,0:0:0:0:
256,192,46667,1,0,0:0:0:0:
182,192,46825,1,0,0:0:0:0:
109,192,46904,1,0,0:0:0:0:
36,192,46983,1,0,0:0:0:0:
402,192,46983,1,0,0:0:0:0:
329,192,46983,1,0,0:0:0:0:
256,192,47298,1,0,0:0:0:0:
182,192,47456,1,0,0:0:0:0:
109,192,47456,1,0,0:0:0:0:
329,192,47614,1,0,0:0:0:0:
402,192,47614,1,0,0:0:0:0:
475,192,47614,1,0,0:0:0:0:
36,192,47930,1,0,0:0:0:0:
182,192,47930,1,0,0:0:0:0:
36,192,48167,1,0,0:0:0:0:
182,192,48167,1,0,0:0:0:0:
329,192,48246,1,0,0:0:0:0:
402,192,48325,1,0,0:0:0:0:
329,192,48404,1,0,0:0:0:0:
109,192,48404,1,0,0:0:0:0:
256,192,48483,1,0,0:0:0:0:
182,192,48562,1,0,0:0:0:0:
402,192,48562,1,0,0:0:0:0:
475,192,48562,1,0,0:0:0:0:
109,192,48877,1,0,0:0:0:0:
256,192,48877,1,0,0:0:0:0:
402,192,49193,1,0,0:0:0:0:
182,192,49351,1,0,0:0:0:0:
329,192,49351,1,0,0:0:0:0:
402,192,49509,1,0,0:0:0:0:
475,192,49509,1,0,0:0:0:0:
109,192,49509,1,0,0:0:0:0:
36,192,49825,1,0,0:0:0:0:
109,192,49825,1,0,0:0:0:0:
109,192,50140,1,0,0:0:0:0:
182,192,50140,1,0,0:0:0:0:
256,192,50219,1,0,0:0:0:0:
329,192,50298,1,0,0:0:0:0:
402,192,50377,1,0,0:0:0:0:
109,192,50456,1,0,0:0:0:0:
36,192,50456,1,0,0:0:0:0:
475,192,50456,1,0,0:0:0:0:
402,192,50614,1,0,0:0:0:0:
475,192,50614,1,0,0:0:0:0:
329,192,50693,1,0,0:0:0:0:
109,192,50772,128,0,51088:0:0:0:0:
182,192,50772,1,0,0:0:0:0:
256,192,50772,1,0,0:0:0:0:
475,192,51088,1,0,0:0:0:0:
256,192,51246,128,0,51562:0:0:0:0:
329,192,51246,1,0,0:0:0:0:
36,192,51404,1,0,0:0:0:0:
109,192,51404,1,0,0:0:0:0:
182,192,51404,1,0,0:0:0:0:
402,192,51719,128,0,52035:0:0:0:0:
475,192,51719,1,0,0:0:0:0:
36,192,51719,1,0,0:0:0:0:
256,192,51956,1,0,0:0:0:0:
329,192,51956,1,0,0:0:0:0:
182,192,52035,1,0,0:0:0:0:
36,192,52114,1,0,0:0:0:0:
402,192,52193,1,0,0:0:0:0:
475,192,52193,1,0,0:0:0:0:
329,192,52272,1,0,0:0:0:0:
256,192,52351,1,0,0:0:0:0:
109,192,52351,1,0,0:0:0:0:
475,192,52351,1,0,0:0:0:0:
36,192,52430,1,0,0:0:0:0:
182,192,52509,1,0,0:0:0:0:
329,192,52588,1,0,0:0:0:0:
475,192,52667,128,0,52983:0:0:0:0:
402,192,52667,1,0,0:0:0:0:
329,192,52983,1,0,0:0:0:0:
109,192,53140,128,0,53298:0:0:0:0:
36,192,53140,1,0,0:0:0:0:
182,192,53298,128,0,53614:0:0:0:0:
256,192,53298,1,0,0:0:0:0:
329,192,53298,1,0,0:0:0:0:
402,192,53614,128,0,53930:0:0:0:0:
475,192,53614,1,0,0:0:0:0:
329,192,53614,1,0,0:0:0:0:
329,192,53851,1,0,0:0:0:0:
256,192,53930,128,0,54246:0:0:0:0:
182,192,53930,1,0,0:0:0:0:
109,192,53930,1,0,0:0:0:0:
36,192,54088,1,0,0:0:0:0:
402,192,54246,1,0,0:0:0:0:
182,192,54246,1,0,0:0:0:0:
329,192,54325,1,0,0:0:0:0:
256,192,54404,1,0,0:0:0:0:
182,192,54483,1,0,0:0:0:0:
109,192,54562,1,0,0:0:0:0:
475,192,54562,1,0,0:0:0:0:
402,192,54562,1,0,0:0:0:0:
36,192,54877,128,0,54956:0:0:0:0:
329,192,54877,1,0,0:0:0:0:
109,192,54956,128,0,55035:0:0:0:0:
182,192,55035,128,0,55114:0:0:0:0:
256,192,55035,1,0,0:0:0:0:
475,192,55193,128,0,55272:0:0:0:0:
36,192,55193,1,0,0:0:0:0:
109,192,55193,1,0,0:0:0:0:
402,192,55272,128,0,55351:0:0:0:0:
182,192,55351,1,0,0:0:0:0:
329,192,55351,128,0,55430:0:0:0:0:
109,192,55509,1,0,0:0:0:0:
36,192,55509,1,0,0:0:0:0:
475,192,55509,1,0,0:0:0:0:
402,192,55509,1,0,0:0:0:0:
329,192,55667,1,0,0:0:0:0:
182,192,55825,1,0,0:0:0:0:
329,192,55825,128,0,55904:0:0:0:0:
402,192,55904,128,0,55983:0:0:0:0:
475,192,55983,128,0,56062:0:0:0:0:
256,192,55983,1,0,0:0:0:0:
182,192,56140,128,0,56219:0:0:0:0:
329,192,56140,1,0,0:0:0:0:
109,192,56219,128,0,56298:0:0:0:0:
36,192,56298,128,0,56377:0:0:0:0:
256,192,56298,1,0,0:0:0:0:
182,192,56456,1,0,0:0:0:0:
402,192,56456,1,0,0:0:0:0:
329,192,56456,1,0,0:0:0:0:
109,192,56456,1,0,0:0:0:0:
256,192,56614,1,0,0:0:0:0:
329,192,56772,1,0,0:0:0:0:
475,192,56772,1,0,0:0:0:0:
402,192,56772,1,0,0:0:0:0:
109,192,56877,1,0,0:0:0:0:
182,192,56983,1,0,0:0:0:0:
256,192,57088,1,0,0:0:0:0:
36,192,57088,1,0,0:0:0:0:
475,192,57088,1,0,0:0:0:0:
402,192,57193,1,0,0:0:0:0:
329,192,57298,1,0,0:0:0:0:
475,192,57404,1,0,0:0:0:0:
256,192,57404,1,0,0:0:0:0:
36,192,57404,1,0,0:0:0:0:
109,192,57509,1,0,0:0:0:0:
182,192,57614,1,0,0:0:0:0:
36,192,57719,1,0,0:0:0:0:
329,192,57719,1,0,0:0:0:0:
475,192,57719,1,0,0:0:0:0:
256,192,57825,1,0,0:0:0:0:
182,192,57930,1,0,0:0:0:0:
109,192,58035,1,0,0:0:0:0:
475,192,58035,1,0,0:0:0:0:
36,192,58035,1,0,0:0:0:0:
329,192,58140,1,0,0:0:0:0:
182,192,58246,1,0,0:0:0:0:
475,192,58351,1,0,0:0:0:0:
36,192,58351,1,0,0:0:0:0:
182,192,58667,1,0,0:0:0:0:
475,192,58667,128,0,58746:0:0:0:0:
402,192,58746,128,0,58825:0:0:0:0:
329,192,58825,128,0,58904:0:0:0:0:
256,192,58825,1,0,0:0:0:0:
36,192,58983,128,0,59062:0:0:0:0:
402,192,58983,1,0,0:0:0:0:
475,192,58983,1,0,0:0:0:0:
109,192,59062,128,0,59140:0:0:0:0:
182,192,59140,128,0,59219:0:0:0:0:
256,192,59140,1,0,0:0:0:0:
36,192,59298,1,0,0:0:0:0:
109,192,59298,1,0,0:0:0:0:
402,192,59298,1,0,0:0:0:0:
329,192,59298,1,0,0:0:0:0:
182,192,59456,1,0,0:0:0:0:
329,192,59614,128,0,59693:0:0:0:0:
109,192,59614,1,0,0:0:0:0:
402,192,59693,128,0,59772:0:0:0:0:
256,192,59772,1,0,0:0:0:0:
475,192,59772,128,0,59851:0:0:0:0:
329,192,59930,1,0,0:0:0:0:
182,192,59930,128,0,60009:0:0:0:0:
109,192,60009,128,0,60088:0:0:0:0:
36,192,60088,128,0,60167:0:0:0:0:
256,192,60088,1,0,0:0:0:0:
402,192,60246,1,0,0:0:0:0:
329,192,60246,1,0,0:0:0:0:
109,192,60246,1,0,0:0:0:0:
182,192,60246,1,0,0:0:0:0:
256,192,60404,1,0,0:0:0:0:
475,192,60562,1,0,0:0:0:0:
36,192,60562,1,0,0:0:0:0:
109,192,60562,1,0,0:0:0:0:
402,192,60667,1,0,0:0:0:0:
329,192,60772,1,0,0:0:0:0:
256,192,60877,1,0,0:0:0:0:
475,192,60877,1,0,0:0:0:0:
36,192,60877,1,0,0:0:0:0:
109,192,60983,1,0,0:0:0:0:
182,192,61088,1,0,0:0:0:0:
475,192,61193,5,0,0:0:0:0:
256,192,61193,1,0,0:0:0:0:
109,192,61193,1,0,0:0:0:0:
402,192,61272,1,0,0:0:0:0:
329,192,61351,1,0,0:0:0:0:
36,192,61509,1,0,0:0:0:0:
256,192,61509,1,0,0:0:0:0:
475,192,61509,1,0,0:0:0:0:
109,192,61588,1,0,0:0:0:0:
182,192,61667,1,0,0:0:0:0:
475,192,61825,1,0,0:0:0:0:
36,192,61825,1,0,0:0:0:0:
402,192,61825,1,0,0:0:0:0:
329,192,61904,1,0,0:0:0:0:
256,192,61983,1,0,0:0:0:0:
182,192,62062,1,0,0:0:0:0:
109,192,62140,128,0,62772:0:0:0:0:
36,192,62140,1,0,0:0:0:0:
475,192,62772,128,0,63088:0:0:0:0:
36,192,63088,128,0,63404:0:0:0:0:
109,192,63088,1,0,0:0:0:0:
182,192,63404,128,0,63719:0:0:0:0:
329,192,63719,128,0,64035:0:0:0:0:
109,192,64035,128,0,64351:0:0:0:0:
256,192,64035,1,0,0:0:0:0:
475,192,64351,128,0,64667:0:0:0:0:
36,192,64509,1,0,0:0:0:0:
329,192,64667,128,0,65456:0:0:0:0:
256,192,64825,1,0,0:0:0:0:
36,192,64983,1,0,0:0:0:0:
182,192,65140,1,0,0:0:0:0:
402,192,65614,1,0,0:0:0:0:
36,192,65930,128,0,66246:0:0:0:0:
109,192,65930,1,0,0:0:0:0:
256,192,66325,1,0,0:0:0:0:
182,192,66404,1,0,0:0:0:0:
109,192,66483,1,0,0:0:0:0:
475,192,66562,1,0,0:0:0:0:
402,192,66640,5,0,0:0:0:0:
329,192,66719,1,0,0:0:0:0:
256,192,66798,1,0,0:0:0:0:
36,192,66877,1,0,0:0:0:0:
182,192,66877,1,0,0:0:0:0:
475,192,66877,1,0,0:0:0:0:
109,192,67193,1,0,0:0:0:0:
329,192,67193,1,0,0:0:0:0:
475,192,67193,1,0,0:0:0:0:
256,192,67509,1,0,0:0:0:0:
475,192,67509,1,0,0:0:0:0:
36,192,67509,1,0,0:0:0:0:
36,192,67825,5,0,0:0:0:0:
475,192,67825,1,0,0:0:0:0:
329,192,67825,128,0,68140:0:0:0:0:
182,192,67983,1,0,0:0:0:0:
36,192,68140,1,0,0:0:0:0:
475,192,68140,1,0,0:0:0:0:
109,192,68140,1,0,0:0:0:0:
402,192,68219,1,0,0:0:0:0:
329,192,68298,1,0,0:0:0:0:
256,192,68377,1,0,0:0:0:0:
475,192,68456,1,0,0:0:0:0:
36,192,68456,1,0,0:0:0:0:
182,192,68456,1,0,0:0:0:0:
402,192,68535,1,0,0:0:0:0:
329,192,68614,1,0,0:0:0:0:
256,192,68693,1,0,0:0:0:0:
109,192,68772,1,0,0:0:0:0:
182,192,68772,1,0,0:0:0:0:
475,192,68772,1,0,0:0:0:0:
329,192,68930,1,0,0:0:0:0:
36,192,68930,1,0,0:0:0:0:
182,192,69088,1,0,0:0:0:0:
256,192,69088,1,0,0:0:0:0:
402,192,69167,1,0,0:0:0:0:
182,192,69246,1,0,0:0:0:0:
109,192,69246,1,0,0:0:0:0:
329,192,69325,1,0,0:0:0:0:
36,192,69404,1,0,0:0:0:0:
109,192,69404,1,0,0:0:0:0:
256,192,69483,1,0,0:0:0:0:
402,192,69562,1,0,0:0:0:0:
329,192,69640,1,0,0:0:0:0:
36,192,69719,128,0,70035:0:0:0:0:
475,192,69719,1,0,0:0:0:0:
256,192,69719,1,0,0:0:0:0:
109,192,69719,1,0,0:0:0:0:
329,192,69877,1,0,0:0:0:0:
182,192,70035,1,0,0:0:0:0:
109,192,70035,1,0,0:0:0:0:
475,192,70035,1,0,0:0:0:0:
402,192,70114,1,0,0:0:0:0:
329,192,70193,1,0,0:0:0:0:
256,192,70272,1,0,0:0:0:0:
402,192,70351,1,0,0:0:0:0:
182,192,70351,1,0,0:0:0:0:
109,192,70351,1,0,0:0:0:0:
329,192,70430,1,0,0:0:0:0:
256,192,70509,1,0,0:0:0:0:
182,192,70588,1,0,0:0:0:0:
36,192,70667,1,0,0:0:0:0:
475,192,70667,128,0,70983:0:0:0:0:
109,192,70667,1,0,0:0:0:0:
256,192,70825,1,0,0:0:0:0:
109,192,70983,1,0,0:0:0:0:
182,192,70983,1,0,0:0:0:0:
402,192,70983,1,0,0:0:0:0:
256,192,71062,1,0,0:0:0:0:
329,192,71140,1,0,0:0:0:0:
402,192,71219,1,0,0:0:0:0:
109,192,71298,1,0,0:0:0:0:
475,192,71298,1,0,0:0:0:0:
36,192,71298,1,0,0:0:0:0:
182,192,71377,1,0,0:0:0:0:
256,192,71456,1,0,0:0:0:0:
329,192,71535,1,0,0:0:0:0:
475,192,71614,1,0,0:0:0:0:
402,192,71614,128,0,71930:0:0:0:0:
109,192,71614,1,0,0:0:0:0:
109,192,71930,1,0,0:0:0:0:
182,192,71930,1,0,0:0:0:0:
36,192,71930,1,0,0:0:0:0:
182,192,72035,128,0,72246:0:0:0:0:
109,192,72035,128,0,72246:0:0:0:0:
329,192,72246,1,0,0:0:0:0:
402,192,72246,1,0,0:0:0:0:
475,192,72246,1,0,0:0:0:0:
329,192,72351,128,0,72562:0:0:0:0:
402,192,72351,128,0,72562:0:0:0:0:
36,192,72562,1,0,0:0:0:0:
182,192,72562,1,0,0:0:0:0:
109,192,72562,1,0,0:0:0:0:
182,192,72667,128,0,72877:0:0:0:0:
36,192,72667,128,0,72877:0:0:0:0:
329,192,72877,1,0,0:0:0:0:
475,192,72877,1,0,0:0:0:0:
402,192,72877,1,0,0:0:0:0:
475,192,72983,128,0,73193:0:0:0:0:
329,192,72983,128,0,73193:0:0:0:0:
256,192,73193,1,0,0:0:0:0:
109,192,73193,1,0,0:0:0:0:
182,192,73193,1,0,0:0:0:0:
256,192,73298,128,0,73509:0:0:0:0:
109,192,73298,128,0,73509:0:0:0:0:
475,192,73509,128,0,73825:0:0:0:0:
36,192,73509,1,0,0:0:0:0:
329,192,73509,1,0,0:0:0:0:
402,192,73509,1,0,0:0:0:0:
182,192,73667,1,0,0:0:0:0:
329,192,73825,1,0,0:0:0:0:
402,192,73825,1,0,0:0:0:0:
36,192,73825,1,0,0:0:0:0:
109,192,73904,1,0,0:0:0:0:
182,192,73983,1,0,0:0:0:0:
256,192,74062,1,0,0:0:0:0:
109,192,74140,1,0,0:0:0:0:
402,192,74140,1,0,0:0:0:0:
475,192,74140,1,0,0:0:0:0:
182,192,74219,1,0,0:0:0:0:
256,192,74298,1,0,0:0:0:0:
329,192,74377,1,0,0:0:0:0:
402,192,74456,1,0,0:0:0:0:
36,192,74456,128,0,74772:0:0:0:0:
109,192,74456,1,0,0:0:0:0:
256,192,74614,1,0,0:0:0:0:
402,192,74772,1,0,0:0:0:0:
329,192,74772,1,0,0:0:0:0:
109,192,74772,1,0,0:0:0:0:
256,192,74851,1,0,0:0:0:0:
182,192,74930,1,0,0:0:0:0:
109,192,75009,1,0,0:0:0:0:
475,192,75088,1,0,0:0:0:0:
36,192,75088,1,0,0:0:0:0:
402,192,75088,1,0,0:0:0:0:
329,192,75167,1,0,0:0:0:0:
256,192,75246,1,0,0:0:0:0:
182,192,75325,1,0,0:0:0:0:
36,192,75404,1,0,0:0:0:0:
475,192,75404,1,0,0:0:0:0:
109,192,75404,128,0,75719:0:0:0:0:
402,192,75719,1,0,0:0:0:0:
329,192,75719,1,0,0:0:0:0:
475,192,75719,1,0,0:0:0:0:
329,192,75825,128,0,76035:0:0:0:0:
402,192,75825,128,0,76035:0:0:0:0:
182,192,76035,1,0,0:0:0:0:
109,192,76035,1,0,0:0:0:0:
36,192,76035,1,0,0:0:0:0:
109,192,76140,128,0,76351:0:0:0:0:
182,192,76140,128,0,76351:0:0:0:0:
475,192,76351,1,0,0:0:0:0:
329,192,76351,1,0,0:0:0:0:
402,192,76351,1,0,0:0:0:0:
329,192,76456,128,0,76667:0:0:0:0:
475,192,76456,128,0,76667:0:0:0:0:
109,192,76667,1,0,0:0:0:0:
36,192,76667,1,0,0:0:0:0:
182,192,76719,1,0,0:0:0:0:
256,192,76772,1,0,0:0:0:0:
329,192,76825,1,0,0:0:0:0:
402,192,76877,1,0,0:0:0:0:
475,192,76930,1,0,0:0:0:0:
36,192,76983,1,0,0:0:0:0:
182,192,76983,1,0,0:0:0:0:
109,192,76983,1,0,0:0:0:0:
182,192,77088,128,0,77298:0:0:0:0:
36,192,77088,128,0,77298:0:0:0:0:
475,192,77614,1,0,0:0:0:0:
109,192,77614,1,0,0:0:0:0:
182,192,77614,1,0,0:0:0:0:
36,192,77614,1,0,0:0:0:0:
402,192,77693,1,0,0:0:0:0:
329,192,77772,1,0,0:0:0:0:
256,192,77851,1,0,0:0:0:0:
109,192,77930,1,0,0:0:0:0:
182,192,77930,1,0,0:0:0:0:
402,192,77930,1,0,0:0:0:0:
329,192,78009,1,0,0:0:0:0:
256,192,78088,1,0,0:0:0:0:
182,192,78167,1,0,0:0:0:0:
475,192,78246,128,0,78562:0:0:0:0:
36,192,78246,1,0,0:0:0:0:
109,192,78246,1,0,0:0:0:0:
256,192,78404,1,0,0:0:0:0:
402,192,78562,1,0,0:0:0:0:
182,192,78562,1,0,0:0:0:0:
109,192,78562,1,0,0:0:0:0:
256,192,78640,1,0,0:0:0:0:
329,192,78719,1,0,0:0:0:0:
402,192,78798,1,0,0:0:0:0:
109,192,78877,1,0,0:0:0:0:
475,192,78877,1,0,0:0:0:0:
36,192,78877,1,0,0:0:0:0:
182,192,78956,1,0,0:0:0:0:
256,192,79035,1,0,0:0:0:0:
329,192,79114,1,0,0:0:0:0:
36,192,79193,1,0,0:0:0:0:
475,192,79193,1,0,0:0:0:0:
402,192,79193,128,0,79509:0:0:0:0:
182,192,79509,1,0,0:0:0:0:
109,192,79509,1,0,0:0:0:0:
36,192,79509,1,0,0:0:0:0:
109,192,79614,128,0,79825:0:0:0:0:
182,192,79614,128,0,79825:0:0:0:0:
329,192,79825,1,0,0:0:0:0:
402,192,79825,1,0,0:0:0:0:
475,192,79825,1,0,0:0:0:0:
329,192,79930,128,0,80140:0:0:0:0:
402,192,79930,128,0,80140:0:0:0:0:
36,192,80140,1,0,0:0:0:0:
182,192,80140,1,0,0:0:0:0:
109,192,80140,1,0,0:0:0:0:
182,192,80246,128,0,80456:0:0:0:0:
36,192,80246,128,0,80456:0:0:0:0:
475,192,80456,1,0,0:0:0:0:
329,192,80456,1,0,0:0:0:0:
402,192,80456,1,0,0:0:0:0:
329,192,80562,128,0,80772:0:0:0:0:
475,192,80562,128,0,80772:0:0:0:0:
109,192,80772,1,0,0:0:0:0:
256,192,80772,1,0,0:0:0:0:
182,192,80772,1,0,0:0:0:0:
182,192,80877,128,0,81088:0:0:0:0:
256,192,80877,128,0,81088:0:0:0:0:
36,192,81088,128,0,81404:0:0:0:0:
402,192,81088,1,0,0:0:0:0:
475,192,81088,1,0,0:0:0:0:
109,192,81088,1,0,0:0:0:0:
329,192,81246,1,0,0:0:0:0:
182,192,81404,1,0,0:0:0:0:
109,192,81404,1,0,0:0:0:0:
475,192,81404,1,0,0:0:0:0:
402,192,81483,1,0,0:0:0:0:
329,192,81562,1,0,0:0:0:0:
256,192,81640,1,0,0:0:0:0:
402,192,81719,1,0,0:0:0:0:
182,192,81719,1,0,0:0:0:0:
109,192,81719,1,0,0:0:0:0:
329,192,81798,1,0,0:0:0:0:
256,192,81877,1,0,0:0:0:0:
182,192,81956,1,0,0:0:0:0:
36,192,82035,1,0,0:0:0:0:
475,192,82035,128,0,82351:0:0:0:0:
109,192,82035,1,0,0:0:0:0:
256,192,82193,1,0,0:0:0:0:
109,192,82351,1,0,0:0:0:0:
182,192,82351,1,0,0:0:0:0:
402,192,82351,1,0,0:0:0:0:
256,192,82430,1,0,0:0:0:0:
329,192,82509,1,0,0:0:0:0:
402,192,82588,1,0,0:0:0:0:
36,192,82667,1,0,0:0:0:0:
475,192,82667,1,0,0:0:0:0:
109,192,82667,1,0,0:0:0:0:
182,192,82746,1,0,0:0:0:0:
256,192,82825,1,0,0:0:0:0:
329,192,82904,1,0,0:0:0:0:
475,192,82983,1,0,0:0:0:0:
36,192,82983,1,0,0:0:0:0:
402,192,82983,128,0,83298:0:0:0:0:
109,192,83298,1,0,0:0:0:0:
182,192,83298,1,0,0:0:0:0:
36,192,83298,1,0,0:0:0:0:
182,192,83404,128,0,83614:0:0:0:0:
109,192,83404,128,0,83614:0:0:0:0:
329,192,83614,1,0,0:0:0:0:
402,192,83614,1,0,0:0:0:0:
475,192,83614,1,0,0:0:0:0:
402,192,83719,128,0,83930:0:0:0:0:
329,192,83719,128,0,83930:0:0:0:0:
36,192,83930,1,0,0:0:0:0:
182,192,83930,1,0,0:0:0:0:
109,192,83930,1,0,0:0:0:0:
182,192,84035,128,0,84246:0:0:0:0:
36,192,84035,128,0,84246:0:0:0:0:
329,192,84246,1,0,0:0:0:0:
475,192,84246,1,0,0:0:0:0:
402,192,84246,1,0,0:0:0:0:
329,192,84351,128,0,84562:0:0:0:0:
475,192,84351,128,0,84562:0:0:0:0:
109,192,84562,1,0,0:0:0:0:
256,192,84562,1,0,0:0:0:0:
182,192,84562,1,0,0:0:0:0:
182,192,84667,128,0,84877:0:0:0:0:
109,192,84667,128,0,84877:0:0:0:0:
256,192,84877,1,0,0:0:0:0:
475,192,84877,1,0,0:0:0:0:
402,192,84877,1,0,0:0:0:0:
329,192,84877,1,0,0:0:0:0:
182,192,84956,1,0,0:0:0:0:
109,192,85035,1,0,0:0:0:0:
36,192,85114,1,0,0:0:0:0:
475,192,85193,1,0,0:0:0:0:
402,192,85193,1,0,0:0:0:0:
329,192,85193,1,0,0:0:0:0:
256,192,85272,1,0,0:0:0:0:
182,192,85351,1,0,0:0:0:0:
109,192,85430,1,0,0:0:0:0:
36,192,85509,1,0,0:0:0:0:
402,192,85509,1,0,0:0:0:0:
475,192,85509,1,0,0:0:0:0:
329,192,85588,1,0,0:0:0:0:
256,192,85667,1,0,0:0:0:0:
182,192,85746,1,0,0:0:0:0:
402,192,85825,1,0,0:0:0:0:
475,192,85825,1,0,0:0:0:0:
109,192,85825,1,0,0:0:0:0:
256,192,85904,1,0,0:0:0:0:
329,192,85983,1,0,0:0:0:0:
402,192,86062,1,0,0:0:0:0:
182,192,86140,1,0,0:0:0:0:
109,192,86140,1,0,0:0:0:0:
475,192,86140,1,0,0:0:0:0:
256,192,86219,1,0,0:0:0:0:
329,192,86298,1,0,0:0:0:0:
402,192,86377,1,0,0:0:0:0:
475,192,86456,1,0,0:0:0:0:
36,192,86456,1,0,0:0:0:0:
109,192,86456,1,0,0:0:0:0:
182,192,86535,1,0,0:0:0:0:
256,192,86614,1,0,0:0:0:0:
329,192,86693,1,0,0:0:0:0:
36,192,86772,1,0,0:0:0:0:
402,192,86772,1,0,0:0:0:0:
475,192,86772,1,0,0:0:0:0:
329,192,86851,1,0,0:0:0:0:
256,192,86930,1,0,0:0:0:0:
182,192,87009,1,0,0:0:0:0:
36,192,87088,1,0,0:0:0:0:
475,192,87088,1,0,0:0:0:0:
402,192,87088,1,0,0:0:0:0:
329,192,87167,1,0,0:0:0:0:
256,192,87246,1,0,0:0:0:0:
182,192,87325,1,0,0:0:0:0:
109,192,87404,1,0,0:0:0:0:
36,192,87404,1,0,0:0:0:0:
475,192,87404,1,0,0:0:0:0:
182,192,87483,1,0,0:0:0:0:
256,192,87562,1,0,0:0:0:0:
329,192,87640,1,0,0:0:0:0:
36,192,87719,1,0,0:0:0:0:
109,192,87719,1,0,0:0:0:0:
402,192,87719,1,0,0:0:0:0:
182,192,87798,1,0,0:0:0:0:
256,192,87877,1,0,0:0:0:0:
329,192,87956,1,0,0:0:0:0:
36,192,88035,1,0,0:0:0:0:
475,192,88035,1,0,0:0:0:0:
402,192,88035,1,0,0:0:0:0:
256,192,88114,1,0,0:0:0:0:
182,192,88193,1,0,0:0:0:0:
109,192,88272,1,0,0:0:0:0:
475,192,88351,1,0,0:0:0:0:
402,192,88351,1,0,0:0:0:0:
36,192,88351,1,0,0:0:0:0:
329,192,88430,1,0,0:0:0:0:
256,192,88509,1,0,0:0:0:0:
182,192,88588,1,0,0:0:0:0:
36,192,88667,1,0,0:0:0:0:
475,192,88667,1,0,0:0:0:0:
109,192,88667,1,0,0:0:0:0:
402,192,88667,1,0,0:0:0:0:
329,192,88746,1,0,0:0:0:0:
256,192,88825,1,0,0:0:0:0:
182,192,88904,1,0,0:0:0:0:
109,192,88983,1,0,0:0:0:0:
475,192,88983,1,0,0:0:0:0:
36,192,88983,1,0,0:0:0:0:
182,192,89062,1,0,0:0:0:0:
256,192,89140,1,0,0:0:0:0:
329,192,89219,1,0,0:0:0:0:
36,192,89298,1,0,0:0:0:0:
402,192,89298,1,0,0:0:0:0:
475,192,89298,1,0,0:0:0:0:
109,192,89377,1,0,0:0:0:0:
182,192,89456,1,0,0:0:0:0:
256,192,89535,1,0,0:0:0:0:
475,192,89614,1,0,0:0:0:0:
36,192,89614,1,0,0:0:0:0:
402,192,89614,1,0,0:0:0:0:
329,192,89693,1,0,0:0:0:0:
256,192,89772,1,0,0:0:0:0:
182,192,89851,1,0,0:0:0:0:
109,192,89930,1,0,0:0:0:0:
36,192,89930,1,0,0:0:0:0:
475,192,89930,1,0,0:0:0:0:
402,192,90009,1,0,0:0:0:0:
329,192,90088,1,0,0:0:0:0:
256,192,90167,1,0,0:0:0:0:
475,192,90246,1,0,0:0:0:0:
109,192,90246,1,0,0:0:0:0:
182,192,90246,1,0,0:0:0:0:
402,192,90325,1,0,0:0:0:0:
329,192,90404,1,0,0:0:0:0:
256,192,90483,1,0,0:0:0:0:
36,192,90562,1,0,0:0:0:0:
109,192,90562,1,0,0:0:0:0:
475,192,90562,1,0,0:0:0:0:
402,192,90562,1,0,0:0:0:0:
182,192,90640,1,0,0:0:0:0:
256,192,90719,1,0,0:0:0:0:
329,192,90798,1,0,0:0:0:0:
36,192,90877,1,0,0:0:0:0:
109,192,90877,1,0,0:0:0:0:
475,192,90877,1,0,0:0:0:0:
402,192,90877,1,0,0:0:0:0:
182,192,90956,1,0,0:0:0:0:
256,192,91035,1,0,0:0:0:0:
329,192,91114,1,0,0:0:0:0:
36,192,91193,1,0,0:0:0:0:
402,192,91193,1,0,0:0:0:0:
475,192,91193,1,0,0:0:0:0:
182,192,91272,1,0,0:0:0:0:
256,192,91351,1,0,0:0:0:0:
329,192,91351,1,0,0:0:0:0:
475,192,91430,1,0,0:0:0:0:
36,192,91509,1,0,0:0:0:0:
109,192,91509,1,0,0:0:0:0:
402,192,91509,1,0,0:0:0:0:
182,192,91588,1,0,0:0:0:0:
256,192,91667,1,0,0:0:0:0:
329,192,91667,1,0,0:0:0:0:
182,192,91746,1,0,0:0:0:0:
402,192,91825,1,0,0:0:0:0:
36,192,91825,1,0,0:0:0:0:
475,192,91825,1,0,0:0:0:0:
329,192,91904,1,0,0:0:0:0:
182,192,91983,1,0,0:0:0:0:
109,192,91983,1,0,0:0:0:0:
256,192,92062,1,0,0:0:0:0:
475,192,92140,1,0,0:0:0:0:
402,192,92140,1,0,0:0:0:0:
329,192,92140,1,0,0:0:0:0:
182,192,92219,1,0,0:0:0:0:
109,192,92219,1,0,0:0:0:0:
329,192,92298,1,0,0:0:0:0:
402,192,92298,1,0,0:0:0:0:
182,192,92377,1,0,0:0:0:0:
109,192,92377,1,0,0:0:0:0:
109,192,93404,1,0,0:0:0:0:
402,192,93404,1,0,0:0:0:0:
475,192,93404,1,0,0:0:0:0:
36,192,93404,128,0,93719:0:0:0:0:
475,192,93719,1,0,0:0:0:0:
402,192,93719,1,0,0:0:0:0:
329,192,93798,1,0,0:0:0:0:
182,192,93877,1,0,0:0:0:0:
109,192,93877,1,0,0:0:0:0:
256,192,93956,1,0,0:0:0:0:
475,192,94035,1,0,0:0:0:0:
36,192,94035,1,0,0:0:0:0:
109,192,94114,1,0,0:0:0:0:
402,192,94193,1,0,0:0:0:0:
329,192,94193,1,0,0:0:0:0:
256,192,94272,1,0,0:0:0:0:
109,192,94351,128,0,94667:0:0:0:0:
182,192,94351,1,0,0:0:0:0:
475,192,94351,1,0,0:0:0:0:
475,192,94667,1,0,0:0:0:0:
402,192,94667,1,0,0:0:0:0:
329,192,94746,1,0,0:0:0:0:
109,192,94825,1,0,0:0:0:0:
182,192,94825,1,0,0:0:0:0:
256,192,94904,1,0,0:0:0:0:
475,192,94983,1,0,0:0:0:0:
402,192,94983,1,0,0:0:0:0:
329,192,95062,1,0,0:0:0:0:
36,192,95140,1,0,0:0:0:0:
109,192,95140,1,0,0:0:0:0:
182,192,95219,1,0,0:0:0:0:
329,192,95298,128,0,95614:0:0:0:0:
402,192,95298,1,0,0:0:0:0:
475,192,95298,1,0,0:0:0:0:
36,192,95614,1,0,0:0:0:0:
109,192,95614,1,0,0:0:0:0:
182,192,95693,1,0,0:0:0:0:
475,192,95772,1,0,0:0:0:0:
402,192,95772,1,0,0:0:0:0:
329,192,95851,1,0,0:0:0:0:
475,192,95930,1,0,0:0:0:0:
36,192,95930,1,0,0:0:0:0:
109,192,96009,1,0,0:0:0:0:
329,192,96088,1,0,0:0:0:0:
402,192,96088,1,0,0:0:0:0:
256,192,96167,1,0,0:0:0:0:
36,192,96246,1,0,0:0:0:0:
109,192,96246,1,0,0:0:0:0:
182,192,96325,1,0,0:0:0:0:
256,192,96404,1,0,0:0:0:0:
475,192,96404,1,0,0:0:0:0:
329,192,96483,1,0,0:0:0:0:
182,192,96562,1,0,0:0:0:0:
402,192,96562,1,0,0:0:0:0:
256,192,96640,1,0,0:0:0:0:
109,192,96719,1,0,0:0:0:0:
329,192,96719,1,0,0:0:0:0:
182,192,96798,1,0,0:0:0:0:
36,192,96877,1,0,0:0:0:0:
256,192,96877,1,0,0:0:0:0:
109,192,96956,1,0,0:0:0:0:
182,192,97035,1,0,0:0:0:0:
402,192,97193,1,0,0:0:0:0:
329,192,97193,1,0,0:0:0:0:
36,192,97193,1,0,0:0:0:0:
475,192,97193,128,0,97509:0:0:0:0:
36,192,97509,1,0,0:0:0:0:
109,192,97509,1,0,0:0:0:0:
182,192,97588,1,0,0:0:0:0:
329,192,97667,1,0,0:0:0:0:
402,192,97667,1,0,0:0:0:0:
256,192,97746,1,0,0:0:0:0:
36,192,97825,1,0,0:0:0:0:
475,192,97825,1,0,0:0:0:0:
109,192,97904,1,0,0:0:0:0:
329,192,97983,1,0,0:0:0:0:
402,192,97983,1,0,0:0:0:0:
256,192,98062,1,0,0:0:0:0:
402,192,98140,128,0,98456:0:0:0:0:
36,192,98140,1,0,0:0:0:0:
182,192,98140,1,0,0:0:0:0:
36,192,98456,1,0,0:0:0:0:
109,192,98456,1,0,0:0:0:0:
182,192,98535,1,0,0:0:0:0:
475,192,98614,1,0,0:0:0:0:
402,192,98614,1,0,0:0:0:0:
329,192,98693,1,0,0:0:0:0:
36,192,98772,1,0,0:0:0:0:
182,192,98772,1,0,0:0:0:0:
256,192,98851,1,0,0:0:0:0:
475,192,98930,1,0,0:0:0:0:
329,192,98930,1,0,0:0:0:0:
402,192,99009,1,0,0:0:0:0:
109,192,99088,128,0,99404:0:0:0:0:
182,192,99088,1,0,0:0:0:0:
36,192,99088,1,0,0:0:0:0:
475,192,99404,1,0,0:0:0:0:
402,192,99404,1,0,0:0:0:0:
329,192,99483,1,0,0:0:0:0:
182,192,99562,1,0,0:0:0:0:
36,192,99562,1,0,0:0:0:0:
256,192,99640,1,0,0:0:0:0:
329,192,99719,1,0,0:0:0:0:
475,192,99719,1,0,0:0:0:0:
256,192,99798,1,0,0:0:0:0:
109,192,99877,1,0,0:0:0:0:
36,192,99877,1,0,0:0:0:0:
182,192,99956,1,0,0:0:0:0:
475,192,100035,1,0,0:0:0:0:
402,192,100035,1,0,0:0:0:0:
329,192,100114,1,0,0:0:0:0:
256,192,100193,1,0,0:0:0:0:
36,192,100193,1,0,0:0:0:0:
182,192,100272,1,0,0:0:0:0:
329,192,100351,1,0,0:0:0:0:
109,192,100351,1,0,0:0:0:0:
256,192,100430,1,0,0:0:0:0:
402,192,100509,1,0,0:0:0:0:
182,192,100509,1,0,0:0:0:0:
329,192,100588,1,0,0:0:0:0:
475,192,100667,1,0,0:0:0:0:
256,192,100667,1,0,0:0:0:0:
402,192,100746,1,0,0:0:0:0:
329,192,100825,1,0,0:0:0:0:
182,192,100825,1,0,0:0:0:0:
402,192,100983,1,0,0:0:0:0:
109,192,100983,1,0,0:0:0:0:
36,192,100983,1,0,0:0:0:0:
475,192,100983,128,0,101298:0:0:0:0:
36,192,101298,1,0,0:0:0:0:
109,192,101298,1,0,0:0:0:0:
182,192,101377,1,0,0:0:0:0:
329,192,101456,1,0,0:0:0:0:
402,192,101456,1,0,0:0:0:0:
256,192,101535,1,0,0:0:0:0:
36,192,101614,1,0,0:0:0:0:
475,192,101614,1,0,0:0:0:0:
402,192,101693,1,0,0:0:0:0:
109,192,101772,1,0,0:0:0:0:
182,192,101772,1,0,0:0:0:0:
256,192,101851,1,0,0:0:0:0:
402,192,101930,128,0,102246:0:0:0:0:
329,192,101930,1,0,0:0:0:0:
36,192,101930,1,0,0:0:0:0:
36,192,102246,1,0,0:0:0:0:
109,192,102246,1,0,0:0:0:0:
182,192,102325,1,0,0:0:0:0:
402,192,102404,1,0,0:0:0:0:
329,192,102404,1,0,0:0:0:0:
256,192,102483,1,0,0:0:0:0:
36,192,102562,1,0,0:0:0:0:
109,192,102562,1,0,0:0:0:0:
182,192,102640,1,0,0:0:0:0:
475,192,102719,1,0,0:0:0:0:
402,192,102719,1,0,0:0:0:0:
329,192,102798,1,0,0:0:0:0:
182,192,102877,128,0,103193:0:0:0:0:
109,192,102877,1,0,0:0:0:0:
36,192,102877,1,0,0:0:0:0:
475,192,103193,1,0,0:0:0:0:
402,192,103193,1,0,0:0:0:0:
329,192,103272,1,0,0:0:0:0:
36,192,103351,1,0,0:0:0:0:
109,192,103351,1,0,0:0:0:0:
182,192,103430,1,0,0:0:0:0:
36,192,103509,1,0,0:0:0:0:
475,192,103509,1,0,0:0:0:0:
402,192,103588,1,0,0:0:0:0:
182,192,103667,1,0,0:0:0:0:
109,192,103667,1,0,0:0:0:0:
256,192,103746,1,0,0:0:0:0:
475,192,103825,1,0,0:0:0:0:
402,192,103825,1,0,0:0:0:0:
329,192,103904,1,0,0:0:0:0:
256,192,103983,1,0,0:0:0:0:
36,192,103983,1,0,0:0:0:0:
182,192,104062,1,0,0:0:0:0:
329,192,104140,1,0,0:0:0:0:
109,192,104140,1,0,0:0:0:0:
256,192,104219,1,0,0:0:0:0:
402,192,104298,1,0,0:0:0:0:
182,192,104298,1,0,0:0:0:0:
329,192,104377,1,0,0:0:0:0:
475,192,104456,1,0,0:0:0:0:
256,192,104456,1,0,0:0:0:0:
402,192,104535,1,0,0:0:0:0:
329,192,104614,1,0,0:0:0:0:
182,192,104614,1,0,0:0:0:0:
109,192,104772,1,0,0:0:0:0:
256,192,104772,1,0,0:0:0:0:
475,192,104772,1,0,0:0:0:0:
36,192,104772,128,0,105088:0:0:0:0:
475,192,105088,1,0,0:0:0:0:
402,192,105088,1,0,0:0:0:0:
329,192,105167,1,0,0:0:0:0:
182,192,105246,1,0,0:0:0:0:
109,192,105246,1,0,0:0:0:0:
256,192,105325,1,0,0:0:0:0:
475,192,105404,1,0,0:0:0:0:
36,192,105404,1,0,0:0:0:0:
402,192,105483,1,0,0:0:0:0:
182,192,105562,1,0,0:0:0:0:
109,192,105562,1,0,0:0:0:0:
256,192,105640,1,0,0:0:0:0:
109,192,105719,128,0,106035:0:0:0:0:
475,192,105719,1,0,0:0:0:0:
329,192,105719,1,0,0:0:0:0:
475,192,106035,1,0,0:0:0:0:
402,192,106035,1,0,0:0:0:0:
329,192,106114,1,0,0:0:0:0:
36,192,106193,1,0,0:0:0:0:
109,192,106193,1,0,0:0:0:0:
182,192,106272,1,0,0:0:0:0:
475,192,106351,1,0,0:0:0:0:
329,192,106351,1,0,0:0:0:0:
256,192,106430,5,0,0:0:0:0:
36,192,106509,1,0,0:0:0:0:
182,192,106509,1,0,0:0:0:0:
256,192,106588,1,0,0:0:0:0:
402,192,106667,128,0,106983:0:0:0:0:
329,192,106667,1,0,0:0:0:0:
475,192,106667,1,0,0:0:0:0:
182,192,106825,1,0,0:0:0:0:
36,192,106983,1,0,0:0:0:0:
109,192,106983,1,0,0:0:0:0:
182,192,107062,1,0,0:0:0:0:
329,192,107140,1,0,0:0:0:0:
475,192,107140,1,0,0:0:0:0:
256,192,107219,1,0,0:0:0:0:
36,192,107298,1,0,0:0:0:0:
109,192,107298,1,0,0:0:0:0:
182,192,107377,1,0,0:0:0:0:
402,192,107456,1,0,0:0:0:0:
475,192,107456,1,0,0:0:0:0:
256,192,107535,1,0,0:0:0:0:
109,192,107614,5,0,0:0:0:0:
402,192,107614,1,0,0:0:0:0:
182,192,107693,1,0,0:0:0:0:
329,192,107693,1,0,0:0:0:0:
109,192,107772,1,0,0:0:0:0:
402,192,107772,1,0,0:0:0:0:
475,192,107930,1,0,0:0:0:0:
36,192,107930,1,0,0:0:0:0:
182,192,108009,1,0,0:0:0:0:
329,192,108009,1,0,0:0:0:0:
36,192,108088,1,0,0:0:0:0:
475,192,108088,1,0,0:0:0:0:
402,192,108246,1,0,0:0:0:0:
109,192,108246,1,0,0:0:0:0:
182,192,108325,1,0,0:0:0:0:
329,192,108325,1,0,0:0:0:0:
256,192,108404,1,0,0:0:0:0:
329,192,108483,1,0,0:0:0:0:
182,192,108483,1,0,0:0:0:0:
109,192,108562,1,0,0:0:0:0:
475,192,108562,1,0,0:0:0:0:
36,192,108562,128,0,112351:0:0:0:0:
402,192,108562,1,0,0:0:0:0:
109,192,109825,128,0,109904:0:0:0:0:
182,192,109904,128,0,109983:0:0:0:0:
256,192,109983,128,0,110062:0:0:0:0:
329,192,110062,128,0,110140:0:0:0:0:
402,192,110140,128,0,110219:0:0:0:0:
475,192,110219,128,0,110298:0:0:0:0:
182,192,110298,128,0,110377:0:0:0:0:
256,192,110377,128,0,110456:0:0:0:0:
329,192,110456,128,0,112351:0:0:0:0:
