osu file format v14

[General]
AudioFilename: audio.ogg
AudioLeadIn: 0
PreviewTime: 69719
Countdown: 0
SampleSet: Drum
StackLeniency: 0.7
Mode: 3
LetterboxInBreaks: 0
SpecialStyle: 0
WidescreenStoryboard: 1

[Editor]
DistanceSpacing: 0.8
BeatDivisor: 2
GridSize: 4
TimelineZoom: 1.2

[Metadata]
Title:Hikari Sasu Mio no Yuzuriha
TitleUnicode:光射す澪のユズリハ
Artist:Cororo feat. Yuria Miyazono
ArtistUnicode:Cororo feat. Yuria Miyazono
Creator:Nicknem_
Version:BASIC
Source:SOUND VOLTEX IV HEAVENLY HAVEN
Tags:instrumental electronic video game sdvx 4 Ω omega Dimension
BeatmapID:4011883
BeatmapSetID:1940331

[Difficulty]
HPDrainRate:6.5
CircleSize:7
OverallDifficulty:6.5
ApproachRate:5
SliderMultiplier:1.4
SliderTickRate:1

[Events]
//Background and Video events
0,0,"iGHyrL4.jpg",0,0
//Break Periods
//Storyboard Layer 0 (Background)
//Storyboard Layer 1 (Fail)
//Storyboard Layer 2 (Pass)
//Storyboard Layer 3 (Foreground)
//Storyboard Layer 4 (Overlay)
//Storyboard Sound Samples

[TimingPoints]
562,315.789473684211,3,3,1,40,1,0
69719,-100,3,3,1,40,0,1
84877,-100,3,3,1,40,0,0

[HitObjects]
109,192,562,5,0,0:0:0:0:
256,192,877,1,0,0:0:0:0:
402,192,1193,1,0,0:0:0:0:
182,192,1509,1,0,0:0:0:0:
36,192,1825,1,0,0:0:0:0:
329,192,2140,1,0,0:0:0:0:
475,192,2456,1,0,0:0:0:0:
256,192,2772,128,0,3088:0:0:0:0:
402,192,3088,1,0,0:0:0:0:
329,192,3404,1,0,0:0:0:0:
109,192,3719,128,0,4035:0:0:0:0:
256,192,4035,1,0,0:0:0:0:
182,192,4351,1,0,0:0:0:0:
109,192,4667,1,0,0:0:0:0:
329,192,4983,1,0,0:0:0:0:
256,192,5298,1,0,0:0:0:0:
475,192,5614,1,0,0:0:0:0:
402,192,5930,1,0,0:0:0:0:
329,192,6246,1,0,0:0:0:0:
256,192,6562,128,0,6877:0:0:0:0:
109,192,6877,1,0,0:0:0:0:
182,192,7193,1,0,0:0:0:0:
402,192,7509,128,0,7825:0:0:0:0:
256,192,7825,1,0,0:0:0:0:
36,192,8140,1,0,0:0:0:0:
329,192,8140,1,0,0:0:0:0:
109,192,8456,1,0,0:0:0:0:
182,192,8772,1,0,0:0:0:0:
36,192,9088,1,0,0:0:0:0:
402,192,9404,1,0,0:0:0:0:
329,192,9719,1,0,0:0:0:0:
182,192,10035,1,0,0:0:0:0:
256,192,10351,1,0,0:0:0:0:
36,192,10667,1,0,0:0:0:0:
475,192,10983,1,0,0:0:0:0:
329,192,11298,1,0,0:0:0:0:
109,192,11614,1,0,0:0:0:0:
256,192,11930,1,0,0:0:0:0:
36,192,12246,1,0,0:0:0:0:
402,192,12562,1,0,0:0:0:0:
109,192,12877,1,0,0:0:0:0:
329,192,13193,1,0,0:0:0:0:
182,192,13509,1,0,0:0:0:0:
36,192,13825,1,0,0:0:0:0:
475,192,14140,1,0,0:0:0:0:
182,192,14456,1,0,0:0:0:0:
329,192,14772,1,0,0:0:0:0:
36,192,15088,1,0,0:0:0:0:
475,192,15404,1,0,0:0:0:0:
256,192,15719,128,0,16193:0:0:0:0:
329,192,16193,128,0,16667:0:0:0:0:
475,192,16983,128,0,17614:0:0:0:0:
109,192,17614,1,0,0:0:0:0:
36,192,17614,1,0,0:0:0:0:
182,192,18088,1,0,0:0:0:0:
329,192,18246,1,0,0:0:0:0:
475,192,18562,1,0,0:0:0:0:
256,192,18877,1,0,0:0:0:0:
329,192,19193,1,0,0:0:0:0:
109,192,19509,1,0,0:0:0:0:
402,192,19825,1,0,0:0:0:0:
182,192,20140,128,0,20772:0:0:0:0:
36,192,21088,1,0,0:0:0:0:
329,192,21404,1,0,0:0:0:0:
182,192,21719,1,0,0:0:0:0:
256,192,22035,1,0,0:0:0:0:
402,192,22351,1,0,0:0:0:0:
256,192,22667,1,0,0:0:0:0:
109,192,22983,1,0,0:0:0:0:
475,192,23298,1,0,0:0:0:0:
402,192,23614,1,0,0:0:0:0:
329,192,23930,1,0,0:0:0:0:
256,192,24246,1,0,0:0:0:0:
36,192,24562,1,0,0:0:0:0:
182,192,24877,1,0,0:0:0:0:
329,192,25193,1,0,0:0:0:0:
402,192,25509,1,0,0:0:0:0:
256,192,25825,1,0,0:0:0:0:
475,192,26140,1,0,0:0:0:0:
36,192,26456,128,0,26772:0:0:0:0:
182,192,26772,1,0,0:0:0:0:
256,192,27088,1,0,0:0:0:0:
475,192,27404,128,0,27719:0:0:0:0:
329,192,27719,1,0,0:0:0:0:
256,192,28035,1,0,0:0:0:0:
36,192,28351,1,0,0:0:0:0:
109,192,28667,1,0,0:0:0:0:
182,192,28983,1,0,0:0:0:0:
329,192,29298,128,0,29614:0:0:0:0:
256,192,29614,1,0,0:0:0:0:
109,192,29930,1,0,0:0:0:0:
402,192,30246,1,0,0:0:0:0:
182,192,30562,1,0,0:0:0:0:
256,192,30877,1,0,0:0:0:0:
36,192,31193,128,0,31509:0:0:0:0:
109,192,31509,1,0,0:0:0:0:
329,192,31825,1,0,0:0:0:0:
182,192,32298,1,0,0:0:0:0:
36,192,32772,1,0,0:0:0:0:
475,192,32772,1,0,0:0:0:0:
402,192,33088,128,0,33404:0:0:0:0:
109,192,33404,128,0,33719:0:0:0:0:
256,192,33719,1,0,0:0:0:0:
402,192,34035,1,0,0:0:0:0:
256,192,34193,1,0,0:0:0:0:
36,192,34351,1,0,0:0:0:0:
402,192,34667,1,0,0:0:0:0:
109,192,34983,1,0,0:0:0:0:
256,192,35140,1,0,0:0:0:0:
475,192,35298,1,0,0:0:0:0:
109,192,35614,1,0,0:0:0:0:
256,192,36088,1,0,0:0:0:0:
402,192,36562,1,0,0:0:0:0:
475,192,36562,1,0,0:0:0:0:
109,192,36877,128,0,37193:0:0:0:0:
402,192,37193,128,0,37509:0:0:0:0:
256,192,37509,1,0,0:0:0:0:
182,192,37825,1,0,0:0:0:0:
475,192,38140,1,0,0:0:0:0:
36,192,38456,1,0,0:0:0:0:
256,192,38772,128,0,39404:0:0:0:0:
475,192,39404,1,0,0:0:0:0:
329,192,40351,1,0,0:0:0:0:
182,192,41298,1,0,0:0:0:0:
36,192,41772,1,0,0:0:0:0:
256,192,42246,1,0,0:0:0:0:
329,192,42562,1,0,0:0:0:0:
475,192,42877,1,0,0:0:0:0:
36,192,43193,1,0,0:0:0:0:
182,192,43193,1,0,0:0:0:0:
402,192,43667,1,0,0:0:0:0:
256,192,43825,1,0,0:0:0:0:
329,192,44140,1,0,0:0:0:0:
182,192,44456,1,0,0:0:0:0:
475,192,44772,1,0,0:0:0:0:
36,192,45088,1,0,0:0:0:0:
182,192,45562,1,0,0:0:0:0:
402,192,45719,1,0,0:0:0:0:
256,192,46035,1,0,0:0:0:0:
256,192,46351,1,0,0:0:0:0:
475,192,46667,1,0,0:0:0:0:
182,192,46983,1,0,0:0:0:0:
109,192,47456,1,0,0:0:0:0:
402,192,47614,1,0,0:0:0:0:
329,192,47930,1,0,0:0:0:0:
36,192,48246,128,0,48562:0:0:0:0:
475,192,48562,1,0,0:0:0:0:
329,192,48877,1,0,0:0:0:0:
109,192,49351,1,0,0:0:0:0:
256,192,49509,1,0,0:0:0:0:
36,192,49825,1,0,0:0:0:0:
182,192,50140,128,0,50456:0:0:0:0:
329,192,50456,1,0,0:0:0:0:
402,192,50772,1,0,0:0:0:0:
256,192,51246,1,0,0:0:0:0:
36,192,51404,1,0,0:0:0:0:
475,192,51719,1,0,0:0:0:0:
109,192,52035,128,0,52667:0:0:0:0:
402,192,52667,1,0,0:0:0:0:
182,192,53140,1,0,0:0:0:0:
329,192,53298,1,0,0:0:0:0:
36,192,53614,1,0,0:0:0:0:
36,192,53930,1,0,0:0:0:0:
475,192,54246,1,0,0:0:0:0:
329,192,54562,1,0,0:0:0:0:
109,192,54877,128,0,55193:0:0:0:0:
256,192,55193,128,0,55509:0:0:0:0:
36,192,55509,1,0,0:0:0:0:
475,192,55825,128,0,56140:0:0:0:0:
329,192,56140,128,0,56456:0:0:0:0:
402,192,56456,1,0,0:0:0:0:
109,192,56772,128,0,57088:0:0:0:0:
256,192,57088,128,0,57404:0:0:0:0:
36,192,57404,128,0,57719:0:0:0:0:
475,192,57719,128,0,58035:0:0:0:0:
182,192,58035,128,0,58351:0:0:0:0:
475,192,58351,1,0,0:0:0:0:
329,192,58667,128,0,58983:0:0:0:0:
402,192,58983,128,0,59298:0:0:0:0:
36,192,59298,1,0,0:0:0:0:
182,192,59614,128,0,59930:0:0:0:0:
109,192,59930,128,0,60246:0:0:0:0:
475,192,60246,1,0,0:0:0:0:
402,192,60562,128,0,60877:0:0:0:0:
256,192,60877,128,0,61193:0:0:0:0:
109,192,61193,128,0,61509:0:0:0:0:
475,192,61509,128,0,61825:0:0:0:0:
36,192,61825,128,0,62140:0:0:0:0:
329,192,62140,1,0,0:0:0:0:
402,192,62772,1,0,0:0:0:0:
329,192,63088,1,0,0:0:0:0:
256,192,63404,1,0,0:0:0:0:
182,192,63719,1,0,0:0:0:0:
329,192,64035,1,0,0:0:0:0:
402,192,64351,1,0,0:0:0:0:
182,192,64667,128,0,65456:0:0:0:0:
36,192,65930,1,0,0:0:0:0:
329,192,66325,128,0,66877:0:0:0:0:
182,192,66877,1,0,0:0:0:0:
475,192,67193,1,0,0:0:0:0:
36,192,67509,1,0,0:0:0:0:
329,192,67825,1,0,0:0:0:0:
182,192,68140,1,0,0:0:0:0:
402,192,68456,1,0,0:0:0:0:
109,192,68772,5,0,0:0:0:0:
329,192,69088,1,0,0:0:0:0:
256,192,69404,1,0,0:0:0:0:
36,192,69719,128,0,70035:0:0:0:0:
109,192,70035,1,0,0:0:0:0:
475,192,70351,1,0,0:0:0:0:
329,192,70667,128,0,70983:0:0:0:0:
256,192,70983,1,0,0:0:0:0:
36,192,71298,1,0,0:0:0:0:
402,192,71614,128,0,71930:0:0:0:0:
182,192,71930,1,0,0:0:0:0:
329,192,72246,1,0,0:0:0:0:
475,192,72562,1,0,0:0:0:0:
256,192,72877,1,0,0:0:0:0:
36,192,73193,1,0,0:0:0:0:
329,192,73509,128,0,73825:0:0:0:0:
182,192,73825,1,0,0:0:0:0:
475,192,74140,1,0,0:0:0:0:
256,192,74456,128,0,74772:0:0:0:0:
109,192,74772,1,0,0:0:0:0:
402,192,75088,1,0,0:0:0:0:
182,192,75404,128,0,75719:0:0:0:0:
329,192,75719,1,0,0:0:0:0:
36,192,76035,1,0,0:0:0:0:
256,192,76351,1,0,0:0:0:0:
109,192,76667,128,0,76983:0:0:0:0:
475,192,76983,1,0,0:0:0:0:
402,192,77614,1,0,0:0:0:0:
36,192,77930,1,0,0:0:0:0:
182,192,78246,128,0,78562:0:0:0:0:
256,192,78562,1,0,0:0:0:0:
475,192,78877,1,0,0:0:0:0:
109,192,79193,128,0,79509:0:0:0:0:
329,192,79509,1,0,0:0:0:0:
182,192,79825,1,0,0:0:0:0:
36,192,80140,1,0,0:0:0:0:
475,192,80456,1,0,0:0:0:0:
36,192,80772,1,0,0:0:0:0:
182,192,81088,128,0,81404:0:0:0:0:
329,192,81404,1,0,0:0:0:0:
109,192,81719,1,0,0:0:0:0:
256,192,82035,128,0,82351:0:0:0:0:
402,192,82351,1,0,0:0:0:0:
182,192,82667,1,0,0:0:0:0:
329,192,82983,128,0,83298:0:0:0:0:
475,192,83298,1,0,0:0:0:0:
256,192,83614,1,0,0:0:0:0:
36,192,83930,1,0,0:0:0:0:
109,192,84246,1,0,0:0:0:0:
182,192,84562,1,0,0:0:0:0:
329,192,84877,1,0,0:0:0:0:
329,192,85193,1,0,0:0:0:0:
329,192,85509,1,0,0:0:0:0:
182,192,85825,1,0,0:0:0:0:
182,192,86140,1,0,0:0:0:0:
182,192,86456,1,0,0:0:0:0:
36,192,86772,1,0,0:0:0:0:
36,192,87088,1,0,0:0:0:0:
36,192,87404,1,0,0:0:0:0:
256,192,87719,1,0,0:0:0:0:
256,192,88035,1,0,0:0:0:0:
256,192,88351,1,0,0:0:0:0:
475,192,88667,1,0,0:0:0:0:
475,192,88983,1,0,0:0:0:0:
475,192,89298,1,0,0:0:0:0:
329,192,89614,1,0,0:0:0:0:
329,192,89930,1,0,0:0:0:0:
329,192,90246,1,0,0:0:0:0:
109,192,90562,1,0,0:0:0:0:
109,192,90877,1,0,0:0:0:0:
109,192,91193,1,0,0:0:0:0:
329,192,91509,1,0,0:0:0:0:
36,192,91825,1,0,0:0:0:0:
475,192,92140,1,0,0:0:0:0:
109,192,93404,1,0,0:0:0:0:
256,192,93719,128,0,94035:0:0:0:0:
329,192,94035,1,0,0:0:0:0:
36,192,94351,1,0,0:0:0:0:
475,192,94667,128,0,94983:0:0:0:0:
402,192,94983,1,0,0:0:0:0:
256,192,95298,1,0,0:0:0:0:
109,192,95614,128,0,95930:0:0:0:0:
256,192,95930,128,0,96246:0:0:0:0:
402,192,96246,128,0,96562:0:0:0:0:
36,192,96562,128,0,96877:0:0:0:0:
475,192,96877,128,0,97193:0:0:0:0:
182,192,97193,1,0,0:0:0:0:
329,192,97509,128,0,97825:0:0:0:0:
256,192,97825,1,0,0:0:0:0:
36,192,98140,1,0,0:0:0:0:
109,192,98456,128,0,98772:0:0:0:0:
182,192,98772,1,0,0:0:0:0:
329,192,99088,1,0,0:0:0:0:
36,192,99404,128,0,99719:0:0:0:0:
182,192,99719,128,0,100035:0:0:0:0:
329,192,100035,128,0,100351:0:0:0:0:
475,192,100351,128,0,100667:0:0:0:0:
256,192,100667,128,0,100983:0:0:0:0:
109,192,100983,1,0,0:0:0:0:
402,192,101298,128,0,101614:0:0:0:0:
329,192,101614,1,0,0:0:0:0:
475,192,101930,1,0,0:0:0:0:
36,192,102246,128,0,102562:0:0:0:0:
109,192,102562,1,0,0:0:0:0:
256,192,102877,1,0,0:0:0:0:
402,192,103193,128,0,103509:0:0:0:0:
256,192,103509,128,0,103825:0:0:0:0:
109,192,103825,128,0,104140:0:0:0:0:
475,192,104140,128,0,104456:0:0:0:0:
36,192,104456,128,0,104772:0:0:0:0:
329,192,104772,1,0,0:0:0:0:
182,192,105088,128,0,105404:0:0:0:0:
256,192,105404,1,0,0:0:0:0:
475,192,105719,1,0,0:0:0:0:
402,192,106035,128,0,106351:0:0:0:0:
329,192,106351,1,0,0:0:0:0:
182,192,106667,1,0,0:0:0:0:
475,192,106983,128,0,107298:0:0:0:0:
329,192,107298,128,0,107614:0:0:0:0:
182,192,107614,128,0,107930:0:0:0:0:
36,192,107930,128,0,108246:0:0:0:0:
256,192,108246,128,0,108562:0:0:0:0:
109,192,108562,128,0,112351:0:0:0:0:
402,192,109825,128,0,112351:0:0:0:0:
