osu file format v14

[General]
AudioFilename: audio.mp3
AudioLeadIn: 0
PreviewTime: 19002
Countdown: 0
SampleSet: Soft
StackLeniency: 0.4
Mode: 0
LetterboxInBreaks: 0
WidescreenStoryboard: 1

[Editor]
Bookmarks: 30252,39626,53063,66500,80249,93686,107123,120873,124623,138060,149934,156809
DistanceSpacing: 1.1
BeatDivisor: 4
GridSize: 32
TimelineZoom: 2.400001

[Metadata]
Title:fairy ring
TitleUnicode:fairy ring
Artist:Cororo
ArtistUnicode:Cororo
Creator:August
Version:normal
Source:東方輝針城 ~ Double Dealing Character.
Tags:東方Project kodama instrumental touhou 2hu すのうまん Château Bleu riverside c85 comiket 85 RSCD-0014 folk video game 不思議な不思議な道具達 strange instruments 九十九弁々 Tsukumo Benben chateau
BeatmapID:2322702
BeatmapSetID:1110174

[Difficulty]
HPDrainRate:4
CircleSize:3.5
OverallDifficulty:4.6
ApproachRate:6
SliderMultiplier:0.999999999999999
SliderTickRate:1

[Events]
//Background and Video events
0,0,"bg.jpg",0,0
//Break Periods
//Storyboard Layer 0 (Background)
//Storyboard Layer 1 (Fail)
//Storyboard Layer 2 (Pass)
//Storyboard Layer 3 (Foreground)
//Storyboard Layer 4 (Overlay)
//Storyboard Sound Samples

[TimingPoints]
245,365.853658536585,6,2,2,60,1,0
336,275.229357798165,6,2,2,60,1,0
404,280.439354989484,6,2,2,60,1,0
1525,319.148936170213,6,2,2,60,1,0
2163,389.61038961039,6,2,2,60,1,0
2260,392.156862745098,6,2,2,60,1,0
2848,387.096774193548,6,2,2,60,1,0
4009,348.837209302326,6,2,2,60,1,0
4096,410.958904109589,6,2,2,60,1,0
4917,337.078651685393,6,2,2,60,1,0
5254,333.333333333333,6,2,2,60,1,0
5587,331.491712707182,6,2,2,60,1,0
5918,434.782608695652,6,2,2,60,1,0
6026,375,6,2,2,60,1,0
7151,314.13612565445,6,2,2,60,1,0
7779,400,6,2,2,60,1,0
7829,394.736842105263,6,2,2,60,1,0
8421,318.979266347687,6,2,2,60,1,0
9058,322.58064516129,6,2,2,60,1,0
9380,344.827586206897,6,2,2,60,1,0
9724,375,6,2,2,60,1,0
9817,356.294536817102,6,2,2,60,1,0
11242,335.195530726257,6,2,2,60,1,0
11912,363.636363636364,6,2,2,60,1,0
12033,267.857142857143,6,2,2,60,1,0
12122,274.725274725275,6,2,2,60,1,0
14319,337.078651685393,6,2,2,60,1,0
14403,297.029702970297,6,2,2,60,1,0
14440,301.810865191147,6,2,2,60,1,0
18061,309.278350515464,6,2,2,60,1,0
18370,316.038978140637,6,2,2,60,1,0
19002,312.5,6,2,4,60,1,0
19002,-111.111111111111,6,2,4,60,0,0
20798,-111.111111111111,6,2,4,5,0,0
20877,-111.111111111111,6,2,4,60,0,0
22048,-111.111111111111,6,2,2,5,0,0
22127,-111.111111111111,6,2,2,70,0,0
22752,-107.52688172043,6,2,2,65,0,0
23689,-107.52688172043,6,2,4,65,0,0
24002,-107.52688172043,6,2,2,65,0,0
25564,-107.52688172043,6,2,4,65,0,0
26111,-107.52688172043,6,2,2,5,0,0
26189,-107.52688172043,6,2,2,65,0,0
27439,-107.52688172043,6,2,4,65,0,0
28064,-107.52688172043,6,2,2,65,0,0
29627,-107.52688172043,6,2,2,60,0,0
29861,-107.52688172043,6,2,2,5,0,0
29939,-107.52688172043,6,2,2,65,0,0
30252,312.5,11,2,2,70,1,0
30252,-102.040816326531,11,2,2,70,0,0
34314,-102.040816326531,11,2,4,70,0,0
35252,-102.040816326531,11,2,2,70,0,0
35408,-102.040816326531,11,2,3,65,0,0
35877,-102.040816326531,11,2,2,65,0,0
36502,312.5,5,2,2,70,1,0
36502,-105.263157894737,5,2,2,70,0,0
37673,-105.263157894737,5,2,2,5,0,0
37752,-105.263157894737,5,2,2,65,0,0
37986,-105.263157894737,5,2,2,5,0,0
38064,-105.263157894737,5,2,2,70,0,0
39236,-105.263157894737,5,2,2,5,0,0
39314,-105.263157894737,5,2,2,65,0,0
39548,-105.263157894737,5,2,2,5,0,0
39626,312.5,11,2,4,50,1,0
39626,-111.111111111111,11,2,4,50,0,0
41110,-111.111111111111,11,2,4,5,0,0
41188,-111.111111111111,11,2,4,50,0,0
42360,-111.111111111111,11,2,4,5,0,0
42438,-111.111111111111,11,2,3,50,0,0
43063,-111.111111111111,11,2,4,50,0,0
44547,-111.111111111111,11,2,4,5,0,0
44626,-111.111111111111,11,2,4,50,0,0
45797,-111.111111111111,11,2,4,5,0,0
45876,-111.111111111111,11,2,3,50,0,0
46501,-111.111111111111,11,2,4,50,0,0
47985,-111.111111111111,11,2,4,5,0,0
48063,-111.111111111111,11,2,4,50,0,0
49235,-111.111111111111,11,2,4,5,0,0
49313,-111.111111111111,11,2,3,55,0,0
49938,312.5,5,2,4,55,1,0
49938,-111.111111111111,5,2,4,55,0,0
50172,-111.111111111111,5,2,3,55,0,0
50406,-111.111111111111,5,2,4,55,0,0
50797,-111.111111111111,5,2,4,5,0,0
50875,-111.111111111111,5,2,4,60,0,0
51422,-111.111111111111,5,2,4,5,0,0
51500,-111.111111111111,5,2,4,63,0,0
51656,-111.111111111111,5,2,12,63,0,0
51969,-111.111111111111,5,2,4,66,0,0
52203,-111.111111111111,5,2,4,5,0,0
52281,-111.111111111111,5,2,4,66,0,0
52672,-111.111111111111,5,2,4,5,0,0
52750,-111.111111111111,5,2,2,70,0,0
53063,312.5,11,2,11,75,1,0
53063,-102.040816326531,11,2,11,75,0,0
53375,-102.040816326531,11,2,2,75,0,0
54547,-102.040816326531,11,2,2,5,0,0
54625,-102.040816326531,11,2,2,75,0,0
54781,-102.040816326531,11,2,12,75,0,0
55094,-102.040816326531,11,2,2,75,0,0
55875,-102.040816326531,11,2,3,75,0,0
56500,-102.040816326531,11,2,2,75,0,0
58219,-102.040816326531,11,2,12,75,0,0
58531,-102.040816326531,11,2,2,75,0,0
59234,-102.040816326531,11,2,2,5,0,0
59313,-102.040816326531,11,2,3,75,0,0
59938,-102.040816326531,11,2,2,75,0,0
61422,-102.040816326531,11,2,2,5,0,0
61500,-102.040816326531,11,2,2,75,0,0
61656,-102.040816326531,11,2,12,75,0,0
61969,-102.040816326531,11,2,2,75,0,0
62750,-102.040816326531,11,2,3,72,0,0
63063,-102.040816326531,11,2,3,78,0,0
63375,312.5,5,2,2,70,1,0
63375,-105.263157894737,5,2,2,70,0,0
64859,-105.263157894737,5,2,2,5,0,0
64937,-105.263157894737,5,2,2,70,0,0
65093,-105.263157894737,5,2,12,70,0,0
65406,-105.263157894737,5,2,2,67,0,0
66500,-113.636363636364,5,2,11,60,0,0
66656,-113.636363636364,5,2,2,60,0,0
71187,312.5,6,2,2,60,1,0
71187,-113.636363636364,6,2,2,60,0,0
71421,-113.636363636364,6,2,2,5,0,0
71499,-113.636363636364,6,2,2,60,0,0
73062,312.5,11,2,2,65,1,0
73062,-113.636363636364,11,2,2,65,0,0
74233,-113.636363636364,11,2,2,5,0,0
74312,-113.636363636364,11,2,2,65,0,0
75796,-113.636363636364,11,2,2,5,0,0
75874,-113.636363636364,11,2,2,65,0,0
76499,312.5,6,2,4,60,1,0
76499,-111.111111111111,6,2,4,60,0,0
77749,-111.111111111111,6,2,2,60,0,0
77983,-111.111111111111,6,2,2,5,0,0
78061,-111.111111111111,6,2,2,60,0,0
78295,-111.111111111111,6,2,2,5,0,0
78374,-111.111111111111,6,2,2,66,0,0
78842,-111.111111111111,6,2,2,60,0,0
79311,-111.111111111111,6,2,2,55,0,0
79624,-111.111111111111,6,2,2,70,0,0
79936,-111.111111111111,6,2,2,85,0,0
80249,312.5,11,2,5,80,1,0
80249,-100,11,2,5,80,0,0
80561,-100,11,2,2,80,0,0
81733,-100,11,2,2,5,0,0
81811,-100,11,2,2,80,0,0
81967,-100,11,2,12,80,0,0
82280,-100,11,2,2,80,0,0
83061,-100,11,2,3,80,0,0
83686,-100,11,2,2,80,0,0
85405,-100,11,2,12,80,0,0
85717,-100,11,2,2,80,0,0
86420,-100,11,2,2,5,0,0
86499,-100,11,2,3,82,0,0
87124,-100,11,2,2,80,0,0
88608,-100,11,2,2,5,0,0
88686,-100,11,2,2,80,0,0
88842,-100,11,2,12,80,0,0
89155,-100,11,2,2,80,0,0
89936,-100,11,2,3,75,0,0
90249,-100,11,2,3,83,0,0
90561,312.5,5,2,2,77,1,0
90561,-102.040816326531,5,2,2,77,0,0
92045,-102.040816326531,5,2,2,5,0,0
92123,-102.040816326531,5,2,2,77,0,0
92279,-102.040816326531,5,2,12,77,0,0
92592,-102.040816326531,5,2,2,72,0,0
93373,-102.040816326531,5,2,2,50,0,0
93451,-102.040816326531,5,2,2,60,0,0
93529,-102.040816326531,5,2,2,70,0,0
93607,-102.040816326531,5,2,2,80,0,0
93686,312.5,11,2,11,80,1,0
93686,-97.0873786407767,11,2,11,80,0,0
93998,-97.0873786407767,11,2,2,80,0,0
95170,-97.0873786407767,11,2,2,5,0,0
95248,-97.0873786407767,11,2,2,80,0,0
95404,-97.0873786407767,11,2,12,80,0,0
95717,-97.0873786407767,11,2,2,80,0,0
96498,-97.0873786407767,11,2,3,80,0,0
97123,-97.0873786407767,11,2,2,80,0,0
98842,-97.0873786407767,11,2,12,80,0,0
99154,-97.0873786407767,11,2,2,80,0,0
99857,-97.0873786407767,11,2,2,5,0,0
99936,-97.0873786407767,11,2,3,83,0,0
100561,-97.0873786407767,11,2,2,80,0,0
102045,-97.0873786407767,11,2,2,5,0,0
102123,-97.0873786407767,11,2,2,80,0,0
102279,-97.0873786407767,11,2,12,80,0,0
102592,-97.0873786407767,11,2,2,80,0,0
103373,-97.0873786407767,11,2,3,77,0,0
103686,-97.0873786407767,11,2,3,84,0,0
103998,312.5,5,2,2,77,1,0
103998,-100,5,2,2,77,0,0
105482,-100,5,2,2,5,0,0
105560,-100,5,2,2,77,0,0
105716,-100,5,2,12,77,0,0
106029,-100,5,2,2,70,0,0
106498,-100,5,2,2,60,0,0
107123,-107.52688172043,5,2,5,60,0,0
107435,-107.52688172043,5,2,2,60,0,0
110248,312.5,11,2,2,60,1,0
110248,-107.52688172043,11,2,2,60,0,0
112044,-107.52688172043,11,2,2,5,0,0
112123,-107.52688172043,11,2,2,60,0,0
113685,-107.52688172043,11,2,2,65,0,0
114857,-107.52688172043,11,2,2,5,0,0
114935,-107.52688172043,11,2,2,65,0,0
116419,-107.52688172043,11,2,2,5,0,0
116498,-107.52688172043,11,2,2,65,0,0
117123,312.5,6,2,4,60,1,0
117123,-111.111111111111,6,2,4,60,0,0
118373,-111.111111111111,6,2,2,60,0,0
118607,-111.111111111111,6,2,2,5,0,0
118685,-111.111111111111,6,2,2,60,0,0
118919,-111.111111111111,6,2,2,5,0,0
118998,-111.111111111111,6,2,2,68,0,0
119466,-111.111111111111,6,2,2,60,0,0
120248,-111.111111111111,6,2,2,55,0,0
120560,-111.111111111111,6,2,2,50,0,0
120873,310.880829015544,6,2,2,45,1,0
120873,-120.481927710843,6,2,2,45,0,0
122427,-120.481927710843,6,2,3,60,0,0
122748,312.5,3,2,2,55,1,0
122748,-111.111111111111,3,2,2,55,0,0
122982,-111.111111111111,3,2,2,5,0,0
123060,-111.111111111111,3,2,2,60,0,0
123294,-111.111111111111,3,2,2,5,0,0
123373,-111.111111111111,3,2,2,65,0,0
123607,-111.111111111111,3,2,2,5,0,0
123685,-105.263157894737,3,2,2,70,0,0
123919,-111.111111111111,3,2,2,5,0,0
123998,-105.263157894737,3,2,2,75,0,0
124232,-111.111111111111,3,2,2,5,0,0
124310,-105.263157894737,3,2,2,85,0,0
124623,312.5,11,2,5,83,1,0
124623,-97.0873786407767,11,2,5,83,0,0
124935,-97.0873786407767,11,2,2,83,0,0
126107,-97.0873786407767,11,2,2,5,0,0
126185,-97.0873786407767,11,2,2,83,0,0
126341,-97.0873786407767,11,2,12,83,0,0
126654,-97.0873786407767,11,2,2,83,0,0
127435,-97.0873786407767,11,2,3,83,0,0
128060,-97.0873786407767,11,2,2,83,0,0
129779,-97.0873786407767,11,2,12,83,0,0
130091,-97.0873786407767,11,2,2,83,0,0
130794,-97.0873786407767,11,2,2,5,0,0
130873,-97.0873786407767,11,2,3,86,0,0
131498,-97.0873786407767,11,2,2,83,0,0
132982,-97.0873786407767,11,2,2,5,0,0
133060,-97.0873786407767,11,2,2,83,0,0
133216,-97.0873786407767,11,2,12,83,0,0
133529,-97.0873786407767,11,2,2,83,0,0
134310,-97.0873786407767,11,2,3,77,0,0
134623,-97.0873786407767,11,2,3,87,0,0
134935,312.5,5,2,2,77,1,0
134935,-97.0873786407767,5,2,2,77,0,0
136419,-97.0873786407767,5,2,2,5,0,0
136497,-97.0873786407767,5,2,2,70,0,0
137122,-97.0873786407767,5,2,2,75,0,0
137435,-97.0873786407767,5,2,2,65,0,0
138060,312.5,11,2,5,83,1,0
138060,-94.3396226415094,11,2,5,83,0,0
138372,-94.3396226415094,11,2,2,83,0,0
139544,-94.3396226415094,11,2,2,5,0,0
139622,-94.3396226415094,11,2,2,83,0,0
139778,-94.3396226415094,11,2,12,83,0,0
140091,-94.3396226415094,11,2,2,83,0,0
140794,-94.3396226415094,11,2,2,5,0,0
140872,-94.3396226415094,11,2,3,87,0,0
141497,-94.3396226415094,11,2,2,83,0,0
143216,-94.3396226415094,11,2,12,83,0,0
143528,-94.3396226415094,11,2,2,83,0,0
144231,-94.3396226415094,11,2,2,5,0,0
144310,-94.3396226415094,11,2,3,87,0,0
144935,-94.3396226415094,11,2,2,83,0,0
146419,-94.3396226415094,11,2,2,5,0,0
146497,-94.3396226415094,11,2,2,83,0,0
146653,-94.3396226415094,11,2,12,83,0,0
146966,-94.3396226415094,11,2,2,83,0,0
147747,-94.3396226415094,11,2,3,75,0,0
148060,-94.3396226415094,11,2,3,90,0,0
148372,312.5,5,2,2,77,1,0
148372,-100,5,2,2,77,0,0
149309,-100,5,2,2,74,0,0
149856,-100,5,2,2,5,0,0
149934,-94.3396226415094,5,2,5,80,0,0
150090,-94.3396226415094,5,2,4,80,0,0
151497,-94.3396226415094,5,2,2,80,0,0
151965,-94.3396226415094,5,2,4,80,0,0
152434,-94.3396226415094,5,2,4,73,0,0
153059,312.5,6,2,2,83,1,0
153059,-94.3396226415094,6,2,2,83,0,0
153371,-94.3396226415094,6,2,4,80,0,0
153996,-94.3396226415094,6,2,4,74,0,0
154621,-94.3396226415094,6,2,2,80,0,0
154855,-94.3396226415094,6,2,2,5,0,0
154934,-94.3396226415094,6,2,11,83,0,0
155090,-94.3396226415094,6,2,2,70,0,0
155402,-94.3396226415094,6,2,2,85,0,0
155715,-94.3396226415094,6,2,2,70,0,0
155871,-94.3396226415094,6,2,2,83,0,0
156184,-94.3396226415094,6,2,2,75,0,0
156340,-94.3396226415094,6,2,2,85,0,0
156496,-94.3396226415094,6,2,2,77,0,0
156652,-94.3396226415094,6,2,2,69,0,0
156809,-94.3396226415094,6,2,5,90,0,0
156887,-94.3396226415094,6,2,2,60,0,0

[Colours]
Combo1 : 250,173,175
Combo2 : 158,214,122
Combo3 : 157,201,255
Combo4 : 222,190,239

[HitObjects]
126,113,19002,6,0,P|209:135|264:70,1,179.999994506836,4|0,1:2|0:0,0:0:0:0:
363,80,19939,1,2,0:2:0:0:
445,135,20252,1,2,0:2:0:0:
443,233,20564,2,0,P|444:256|449:278,1,44.999998626709,2|0,1:2|0:0,0:0:0:0:
460,326,20877,6,0,B|435:343|435:343|389:345|332:319,1,134.999995880127,2|2,1:2|1:2,0:0:0:0:
199,383,21814,1,2,0:0:0:0:
197,283,22127,2,0,L|207:231,1,44.999998626709,2|2,1:2|0:0,0:0:0:0:
164,211,22439,2,0,L|176:153,1,44.999998626709,2|2,1:2|0:0,0:0:0:0:
129,141,22752,6,0,P|61:141|17:193,1,139.500004363632,6|0,1:2|1:0,0:0:0:0:
34,345,23689,1,2,0:2:0:0:
133,373,24002,1,2,0:2:0:0:
223,325,24314,2,0,P|217:302|217:279,1,46.5000014545441,0|2,1:0|0:2,0:0:0:0:
216,227,24627,6,0,B|253:220|282:238|282:238|314:261|352:251,1,139.500004363632,2|0,1:2|1:0,0:0:0:0:
388,285,25252,2,0,L|380:331,2,46.5000014545441,2|0|2,0:2|0:0|0:2,0:0:0:0:
469,222,25877,1,2,1:2:0:0:
499,124,26189,1,0,1:0:0:0:
467,26,26502,6,0,P|402:44|348:3,1,139.500004363632,2|2,1:2|1:2,0:0:0:0:
209,68,27439,1,2,0:2:0:0:
113,32,27752,1,2,0:2:0:0:
26,86,28064,2,0,L|13:137,1,46.5000014545441,2|2,1:2|0:2,0:0:0:0:
21,181,28377,6,0,P|75:222|70:289,1,139.500004363632,2|0,1:2|1:0,0:0:0:0:
205,363,29314,2,0,B|235:376|235:376|305:360,1,93.0000029090881,2|0,1:2|1:0,0:0:0:0:
336,268,29939,1,0,1:0:0:0:
386,258,30095,1,0,0:0:0:0:
409,209,30252,6,0,B|407:155|427:105|427:105|471:88,1,146.999998654175,4|2,1:2|1:2,0:0:0:0:
317,24,31189,2,0,L|262:13,1,48.9999995513916,2|0,0:2|0:0,0:0:0:0:
231,54,31502,1,2,0:2:0:0:
178,146,31814,6,0,P|249:145|296:198,1,146.999998654175,2|2,1:2|1:2,0:0:0:0:
245,352,32752,2,0,P|222:342|198:338,1,48.9999995513916,2|0,0:2|0:0,0:0:0:0:
160,300,33064,1,2,1:2:0:0:
55,272,33377,1,2,1:2:0:0:
18,170,33689,6,0,P|24:122|55:85,1,97.9999991027831,6|0,1:2|0:0,0:0:0:0:
104,62,34158,1,0,1:0:0:0:
133,165,34470,1,0,0:0:0:0:
168,206,34627,2,0,L|279:187,1,97.9999991027831,2|2,0:2|0:2,0:0:0:0:
341,114,35252,2,0,L|403:126,1,48.9999995513916,2|8,0:2|0:2,0:0:0:0:
435,151,35564,1,8,0:2:0:0:
510,73,35877,1,0,1:0:0:0:
426,5,36189,2,0,L|364:14,1,48.9999995513916,0|0,1:0|0:0,0:0:0:0:
325,16,36502,5,4,1:2:0:0:
186,88,36970,2,0,L|177:151,2,47.4999987316131,2|0|0,1:2|0:0|0:0,0:0:0:0:
169,37,37439,2,0,P|121:39|78:21,1,94.9999974632263,2|2,0:2|0:2,0:0:0:0:
0,93,38064,5,2,1:2:0:0:
101,211,38533,2,0,P|124:202|147:198,2,47.4999987316131,0|0|0,1:0|0:0|0:0,0:0:0:0:
55,238,39002,2,0,P|48:285|14:316,1,94.9999974632263,2|2,1:2|1:2,0:0:0:0:
88,382,39626,6,0,B|148:361|148:361|189:371,1,89.999997253418,6|0,1:2|0:0,0:0:0:0:
220,383,40094,1,2,1:2:0:0:
327,282,40563,2,0,B|312:224|312:224|326:186,2,89.999997253418,2|2|2,0:2|0:2|1:2,0:0:0:0:
441,377,41657,2,0,L|494:371,1,44.999998626709,2|2,1:2|0:2,0:0:0:0:
499,273,42126,2,0,B|514:174,2,89.999997253418,2|8|8,0:2|1:2|1:2,0:0:0:0:
402,249,43063,6,0,P|358:239|318:258,1,89.999997253418,2|0,1:2|0:0,0:0:0:0:
282,291,43532,1,2,1:2:0:0:
220,155,44001,2,0,L|238:54,1,89.999997253418,2|2,0:2|0:2,0:0:0:0:
310,0,44626,1,2,1:2:0:0:
457,13,45094,2,0,L|509:22,1,44.999998626709,2|2,1:2|0:2,0:0:0:0:
511,119,45563,2,0,P|521:161|501:201,1,89.999997253418,2|8,0:2|1:2,0:0:0:0:
402,213,46188,1,8,1:2:0:0:
303,222,46501,6,0,B|284:207|284:207|204:217,1,89.999997253418,2|0,1:2|0:0,0:0:0:0:
174,237,46969,1,2,1:2:0:0:
256,360,47438,2,0,P|296:377|340:367,2,89.999997253418,2|2|2,0:2|0:2|1:2,0:0:0:0:
107,350,48532,2,0,L|60:357,1,44.999998626709,0|2,1:2|0:2,0:0:0:0:
0,278,49001,2,0,B|5:212|5:212|30:189,1,89.999997253418,2|8,0:2|1:2,0:0:0:0:
70,182,49469,1,8,0:2:0:0:
116,164,49626,2,0,L|108:109,1,44.999998626709,8|8,1:2|0:2,0:0:0:0:
129,69,49938,5,2,1:2:0:0:
256,192,50016,12,0,51500,1:0:0:0:
361,94,52438,6,0,B|346:121|346:121|359:148|353:180,1,89.999997253418,0|0,1:0|1:0,0:0:0:0:
260,234,53063,6,0,P|216:211|168:214,1,97.9999991027831,4|0,1:2|0:0,0:0:0:0:
121,239,53531,2,0,P|72:241|29:218,1,97.9999991027831,2|0,1:2|0:0,0:0:0:0:
1,173,54000,1,2,0:0:0:0:
35,70,54313,1,2,0:0:0:0:
137,35,54625,2,0,L|126:-28,2,48.9999995513916,2|8|8,1:2|0:3|0:3,0:0:0:0:
185,70,55094,1,2,1:2:0:0:
185,70,55250,1,2,0:0:0:0:
280,19,55563,2,0,P|305:21|328:27,1,48.9999995513916,2|0,0:2|0:0,0:0:0:0:
371,59,55875,2,0,L|435:50,2,48.9999995513916,8|8|8,1:2|0:2|1:2,0:0:0:0:
360,112,56344,1,8,0:2:0:0:
345,162,56500,6,0,P|392:174|437:192,1,97.9999991027831,2|0,1:2|0:0,0:0:0:0:
484,220,56969,1,2,1:2:0:0:
382,348,57438,2,0,L|329:357,1,48.9999995513916,2|0,0:2|0:0,0:0:0:0:
284,333,57750,2,0,L|231:324,1,48.9999995513916,2|0,0:2|0:0,0:0:0:0:
182,337,58063,2,0,B|164:366|164:366|88:352,1,97.9999991027831,2|0,1:2|0:3,0:0:0:0:
56,384,58531,1,2,1:2:0:0:
9,228,59000,1,2,0:2:0:0:
84,152,59313,2,0,L|101:91,1,48.9999995513916,8|8,1:2|0:2,0:0:0:0:
53,74,59625,2,0,L|36:13,1,48.9999995513916,8|8,1:2|0:2,0:0:0:0:
87,0,59938,5,6,1:2:0:0:
247,14,60406,2,0,B|282:-1|282:-1|359:13,1,97.9999991027831,2|0,1:2|0:0,0:0:0:0:
341,63,60875,2,0,P|316:104|313:152,1,97.9999991027831,2|2,0:2|0:2,0:0:0:0:
209,181,61500,2,0,L|140:168,2,48.9999995513916,2|8|8,1:2|0:3|0:3,0:0:0:0:
236,234,61969,1,2,1:2:0:0:
236,234,62125,1,2,0:0:0:0:
314,308,62438,1,2,0:2:0:0:
418,281,62750,2,0,L|438:181,1,97.9999991027831,8|8,1:2|1:2,0:0:0:0:
481,153,63219,1,8,0:2:0:0:
478,101,63375,5,2,1:2:0:0:
256,192,63453,12,2,64937,1:2:0:0:
305,176,66187,5,2,1:2:0:0:
301,228,66343,1,2,0:0:0:0:
275,269,66500,6,0,P|232:276|200:306,2,88.0000026855469,4|0|0,1:2|0:0|0:0,0:0:0:0:
336,346,67437,2,0,B|370:334|403:351|403:351|438:370|473:359,1,132.00000402832,2|2,0:2|0:2,0:0:0:0:
504,335,68062,2,0,P|483:274|501:211,1,132.00000402832,2|0,1:2|1:0,0:0:0:0:
462,71,68999,1,2,0:2:0:0:
377,24,69311,1,2,1:2:0:0:
332,109,69624,6,0,B|283:95|231:93|231:93|200:127,1,132.00000402832,2|0,1:2|1:0,0:0:0:0:
66,127,70561,1,2,0:2:0:0:
50,31,70874,1,2,0:2:0:0:
142,0,71187,2,0,L|241:18,1,88.0000026855469,2|2,1:2|0:2,0:0:0:0:
309,68,71811,2,0,P|345:44|388:49,2,88.0000026855469,2|2|0,0:2|0:2|1:0,0:0:0:0:
231,125,72749,1,2,1:2:0:0:
203,164,72905,1,2,0:0:0:0:
199,213,73062,6,0,L|217:302,1,88.0000026855469,6|0,1:2|0:0,0:0:0:0:
236,343,73530,2,0,P|258:346|280:350,1,44.0000013427734,2|2,1:2|0:2,0:0:0:0:
373,376,73999,1,2,0:2:0:0:
460,335,74311,1,2,1:2:0:0:
501,246,74624,2,0,P|480:184|503:123,1,132.00000402832,2|2,1:2|1:2,0:0:0:0:
463,96,75249,2,0,L|371:109,1,88.0000026855469,2|2,0:2|0:2,0:0:0:0:
313,182,75874,1,2,1:2:0:0:
217,165,76186,1,2,1:2:0:0:
153,79,76499,5,4,1:2:0:0:
256,192,76577,12,2,78374,1:2:0:0:
352,235,79311,6,0,P|323:267|320:312,2,89.999997253418,2|2|2,1:2|1:2|1:2,0:0:0:0:
455,193,80249,6,0,P|465:144|485:98,1,99.9999999999999,4|0,1:2|0:0,0:0:0:0:
457,51,80717,2,0,P|408:61|362:81,1,99.9999999999999,2|0,1:2|0:0,0:0:0:0:
327,124,81186,1,2,0:0:0:0:
231,69,81499,1,2,0:0:0:0:
123,48,81811,2,0,L|116:-11,2,50,2|8|8,1:2|0:3|0:3,0:0:0:0:
90,93,82280,1,2,1:2:0:0:
90,93,82436,1,2,0:0:0:0:
16,175,82749,2,0,L|26:228,1,50,2|0,1:2|0:0,0:0:0:0:
50,272,83061,2,0,L|36:337,2,50,8|8|8,1:2|0:2|1:2,0:0:0:0:
106,276,83530,1,8,0:2:0:0:
160,284,83686,6,0,B|198:280|198:280|227:304|227:304|262:311,1,99.9999999999999,6|0,1:2|0:0,0:0:0:0:
264,362,84155,1,2,1:2:0:0:
427,342,84624,2,0,L|445:293,1,50,2|0,0:2|0:0,0:0:0:0:
432,241,84936,2,0,L|414:192,1,50,2|0,0:2|0:0,0:0:0:0:
401,140,85249,2,0,P|400:91|437:59,1,99.9999999999999,2|0,1:2|0:3,0:0:0:0:
472,17,85717,1,2,1:2:0:0:
307,1,86186,1,2,1:2:0:0:
207,47,86499,2,0,P|195:69|190:93,1,50,8|8,1:2|0:2,0:0:0:0:
158,138,86811,2,0,P|168:160|185:179,1,50,8|8,1:2|0:2,0:0:0:0:
239,188,87124,5,6,1:2:0:0:
387,260,87592,2,0,B|402:295|402:295|388:372,1,99.9999999999999,2|0,1:2|0:0,0:0:0:0:
338,372,88061,2,0,L|230:388,1,99.9999999999999,2|2,0:2|0:2,0:0:0:0:
131,361,88686,2,0,L|62:374,2,50,2|8|8,1:2|0:3|0:3,0:0:0:0:
144,310,89155,1,2,1:2:0:0:
144,310,89311,1,2,0:0:0:0:
56,242,89624,1,2,0:2:0:0:
40,133,89936,1,8,1:2:0:0:
100,41,90249,2,0,L|162:51,1,50,8|8,1:2|0:2,0:0:0:0:
208,59,90561,5,6,1:2:0:0:
256,192,90639,12,0,92123,1:0:0:0:
335,121,93061,6,0,B|310:115|310:115|276:121|253:163,1,97.9999991027831,0|2,1:0|1:2,0:0:0:0:
258,272,93686,6,0,B|286:293|286:293|319:279|358:277,1,102.99999913559,4|0,1:2|0:0,0:0:0:0:
378,227,94154,2,0,B|406:206|406:206|439:220|478:222,1,102.99999913559,2|0,1:2|0:0,0:0:0:0:
512,181,94623,1,2,0:0:0:0:
492,69,94936,1,2,0:0:0:0:
380,51,95248,2,0,L|387:-8,2,51.4999995677948,2|8|8,1:2|0:3|0:3,0:0:0:0:
332,79,95717,1,2,1:2:0:0:
332,79,95873,1,2,0:0:0:0:
226,36,96186,2,0,P|202:45|176:46,1,51.4999995677948,2|0,1:2|0:0,0:0:0:0:
122,63,96498,2,0,L|57:49,2,51.4999995677948,8|8|8,1:2|0:2|1:2,0:0:0:0:
109,119,96967,1,8,0:2:0:0:
81,168,97123,6,0,B|48:226|48:226|56:273,1,102.99999913559,6|0,1:2|0:0,0:0:0:0:
56,318,97592,1,2,1:2:0:0:
217,270,98061,2,0,L|267:259,1,51.4999995677948,2|0,0:2|0:0,0:0:0:0:
299,212,98373,2,0,L|349:201,1,51.4999995677948,2|0,0:2|0:0,0:0:0:0:
402,220,98686,2,0,P|401:269|385:322,1,102.99999913559,2|0,1:2|0:3,0:0:0:0:
347,362,99154,1,2,1:2:0:0:
178,383,99623,1,2,0:2:0:0:
96,304,99936,2,0,P|102:279|100:253,1,51.4999995677948,8|8,1:2|0:2,0:0:0:0:
105,197,100248,2,0,P|95:173|79:153,1,51.4999995677948,8|8,1:2|0:2,0:0:0:0:
69,97,100561,5,6,1:2:0:0:
235,129,101029,2,0,B|293:152|293:152|320:151|343:137,1,102.99999913559,2|0,1:2|0:0,0:0:0:0:
338,200,101498,2,0,P|330:250|337:301,1,102.99999913559,2|2,0:2|0:2,0:0:0:0:
430,370,102123,2,0,L|499:383,2,51.4999995677948,2|8|8,1:2|0:3|0:3,0:0:0:0:
431,317,102592,1,2,1:2:0:0:
431,317,102748,1,2,0:0:0:0:
505,231,103061,1,2,0:2:0:0:
463,125,103373,1,8,1:2:0:0:
354,93,103686,2,0,P|328:92|303:86,1,51.4999995677948,8|8,1:2|0:2,0:0:0:0:
247,63,103998,5,6,1:2:0:0:
256,192,104076,12,2,105560,1:2:0:0:
363,153,107123,6,0,P|372:108|407:79,2,93.0000029090881,4|0|0,1:2|0:0|0:0,0:0:0:0:
314,243,108060,2,0,B|280:231|247:248|247:248|212:267|177:256,1,139.500004363632,2|2,0:2|0:2,0:0:0:0:
139,290,108685,2,0,P|73:302|20:260,1,139.500004363632,2|0,1:2|1:0,0:0:0:0:
152,182,109623,1,2,0:2:0:0:
78,110,109935,1,2,1:2:0:0:
171,66,110248,6,0,P|239:17|339:35,1,186.000005818176,2|0,1:2|0:0,0:0:0:0:
436,22,111185,1,2,0:2:0:0:
509,93,111498,1,2,0:2:0:0:
484,192,111810,2,0,P|474:236|493:278,1,93.0000029090881,2|2,1:2|0:2,0:0:0:0:
394,305,112435,2,0,B|374:352|374:352|408:391,2,93.0000029090881,2|2|0,0:2|0:2|1:0,0:0:0:0:
359,208,113373,2,0,P|335:205|313:208,1,46.5000014545441,2|2,1:2|0:2,0:0:0:0:
269,178,113685,6,0,P|224:186|191:218,1,93.0000029090881,6|0,1:2|0:0,0:0:0:0:
183,269,114154,2,0,P|176:291|174:314,1,46.5000014545441,2|2,1:2|0:2,0:0:0:0:
93,374,114623,1,2,0:2:0:0:
9,314,114935,1,2,1:2:0:0:
42,217,115248,2,0,L|23:74,1,139.500004363632,2|2,1:2|1:2,0:0:0:0:
70,57,115873,2,0,P|114:46|158:61,1,93.0000029090881,2|2,0:2|0:2,0:0:0:0:
234,133,116498,1,2,1:2:0:0:
325,179,116810,1,2,1:2:0:0:
297,284,117123,5,4,1:2:0:0:
256,192,117201,12,2,120873,0:0:0:0:
396,99,122427,5,8,0:0:0:0:
338,182,122748,2,0,P|338:226|350:270,1,89.999997253418,2|0,1:2|0:0,0:0:0:0:
274,334,123373,1,2,0:0:0:0:
223,244,123685,5,2,1:2:0:0:
235,140,123998,1,2,1:2:0:0:
247,36,124310,1,2,1:2:0:0:
139,39,124623,6,0,P|104:77|101:127,1,102.99999913559,4|0,1:2|0:0,0:0:0:0:
58,164,125091,2,0,P|92:201|95:251,1,102.99999913559,2|0,1:2|0:0,0:0:0:0:
102,308,125560,1,2,0:0:0:0:
205,260,125873,1,2,0:0:0:0:
318,268,126185,2,0,P|341:279|366:281,2,51.4999995677948,2|8|8,1:2|0:3|0:3,0:0:0:0:
311,216,126654,1,2,1:2:0:0:
311,216,126810,1,2,0:0:0:0:
345,107,127123,1,2,0:0:0:0:
444,51,127435,2,0,L|509:65,2,51.4999995677948,8|8|8,1:2|0:2|1:2,0:0:0:0:
415,2,127904,1,8,0:2:0:0:
358,0,128060,6,0,B|316:8|316:8|306:3|306:3|243:16,1,102.99999913559,6|0,1:2|0:0,0:0:0:0:
202,26,128529,1,2,1:2:0:0:
291,170,128998,2,0,L|280:220,1,51.4999995677948,2|0,0:2|0:0,0:0:0:0:
234,253,129310,2,0,L|245:303,1,51.4999995677948,2|0,1:2|0:0,0:0:0:0:
218,353,129623,2,0,P|174:326|124:332,1,102.99999913559,2|0,1:2|0:3,0:0:0:0:
80,367,130091,1,2,1:2:0:0:
14,210,130560,1,2,1:2:0:0:
81,118,130873,2,0,L|133:127,1,51.4999995677948,8|8,1:2|0:2,0:0:0:0:
169,84,131185,2,0,L|216:106,1,51.4999995677948,8|8,1:2|0:2,0:0:0:0:
226,161,131498,5,6,1:2:0:0:
376,82,131966,2,0,B|496:111,1,102.99999913559,2|0,1:2|0:0,0:0:0:0:
509,151,132435,2,0,P|480:194|470:244,1,102.99999913559,2|2,0:2|0:2,0:0:0:0:
399,334,133060,2,0,L|386:403,2,51.4999995677948,2|8|8,1:2|0:3|0:3,0:0:0:0:
359,301,133529,1,2,1:2:0:0:
359,301,133685,1,2,0:0:0:0:
252,262,133998,1,2,0:2:0:0:
265,150,134310,1,8,1:2:0:0:
166,90,134623,2,0,P|141:94|118:105,1,51.4999995677948,8|8,1:2|0:2,0:0:0:0:
85,158,134935,5,6,1:2:0:0:
256,192,135013,12,2,136497,1:2:0:0:
180,126,137435,5,0,1:0:0:0:
286,164,137747,1,0,1:0:0:0:
277,285,138060,6,0,P|329:281|368:315,1,106.000000161743,4|0,1:2|0:0,0:0:0:0:
349,370,138528,2,0,P|297:373|258:339,1,106.000000161743,2|0,1:2|0:0,0:0:0:0:
219,295,138997,1,2,0:0:0:0:
102,299,139310,1,2,0:0:0:0:
26,210,139622,2,0,P|0:200|-23:197,2,53.0000000808715,2|8|8,1:2|0:3|0:3,0:0:0:0:
64,166,140091,1,2,1:2:0:0:
64,166,140247,1,2,0:0:0:0:
149,86,140560,1,2,0:0:0:0:
265,95,140872,2,0,L|271:165,2,53.0000000808715,8|8|8,1:2|0:2|1:2,0:0:0:0:
318,71,141341,1,8,0:2:0:0:
360,31,141497,6,0,P|394:69|446:69,1,106.000000161743,6|0,1:2|0:0,0:0:0:0:
502,85,141966,1,2,1:2:0:0:
426,242,142435,2,0,P|401:233|374:231,1,53.0000000808715,2|0,0:2|0:0,0:0:0:0:
324,261,142747,2,0,P|297:259|272:250,1,53.0000000808715,2|0,0:2|0:0,0:0:0:0:
220,276,143060,2,0,L|201:159,1,106.000000161743,2|0,1:2|0:3,0:0:0:0:
208,113,143528,1,2,1:2:0:0:
46,44,143997,1,2,0:2:0:0:
1,152,144310,2,0,L|11:205,1,53.0000000808715,8|8,1:2|0:2,0:0:0:0:
0,261,144622,2,0,L|10:314,1,53.0000000808715,8|8,1:2|0:2,0:0:0:0:
22,370,144935,5,6,1:2:0:0:
167,273,145403,2,0,B|240:262|240:262|276:295,1,106.000000161743,2|0,1:2|0:0,0:0:0:0:
321,297,145872,2,0,L|298:188,1,106.000000161743,2|2,0:2|1:2,0:0:0:0:
328,80,146497,2,0,L|315:10,2,53.0000000808715,2|8|8,1:2|0:3|0:3,0:0:0:0:
386,107,146966,1,2,1:2:0:0:
386,107,147122,1,2,0:0:0:0:
482,172,147435,2,0,P|452:215|446:267,1,106.000000161743,2|0,0:2|1:2,0:0:0:0:
489,376,148060,2,0,P|462:377|437:384,1,53.0000000808715,8|8,1:2|0:2,0:0:0:0:
379,368,148372,5,6,1:2:0:0:
322,134,149934,6,0,P|279:103|227:106,1,106.000000161743,4|0,1:2|0:0,0:0:0:0:
190,151,150403,1,2,1:2:0:0:
132,160,150559,1,2,0:2:0:0:
63,254,150872,2,0,P|115:268|167:273,1,106.000000161743,2|2,0:2|1:2,0:0:0:0:
246,359,151497,6,0,P|257:309|299:277,1,106.000000161743,4|0,1:2|0:0,0:0:0:0:
349,248,151965,1,2,1:2:0:0:
360,190,152122,2,0,L|380:74,1,106.000000161743,2|2,0:2|1:2,0:0:0:0:
469,13,152747,1,2,1:2:0:0:
509,122,153059,6,0,L|529:241,1,106.000000161743,4|2,1:2|0:2,0:0:0:0:
489,270,153527,2,0,L|480:325,2,53.0000000808715,2|0|2,1:2|0:0|0:2,0:0:0:0:
443,232,153996,2,0,B|379:194|379:194|332:204,1,106.000000161743,2|2,0:2|1:2,0:0:0:0:
248,262,154621,2,0,P|221:266|196:260,1,53.0000000808715,2|0,1:2|0:0,0:0:0:0:
178,204,154934,6,0,L|188:139,2,53.0000000808715,4|2|2,1:2|0:2|0:2,0:0:0:0:
124,225,155402,1,2,1:2:0:0:
22,175,155715,1,2,0:2:0:0:
6,118,155871,2,0,P|17:67|61:41,1,106.000000161743,2|2,1:2|0:2,0:0:0:0:
110,71,156340,2,0,L|117:133,2,53.0000000808715,2|2|2,1:2|0:2|0:2,0:0:0:0:
148,20,156809,5,4,1:2:0:0:
