osu file format v14

[General]
AudioFilename: audio.mp3
AudioLeadIn: 0
PreviewTime: 19002
Countdown: 0
SampleSet: Soft
StackLeniency: 0.6
Mode: 0
LetterboxInBreaks: 0
WidescreenStoryboard: 0

[Editor]
DistanceSpacing: 1.5
BeatDivisor: 4
GridSize: 32
TimelineZoom: 2.500001

[Metadata]
Title:fairy ring
TitleUnicode:fairy ring
Artist:Cororo
ArtistUnicode:Cororo
Creator:August
Version:lunatic
Source:東方輝針城 ~ Double Dealing Character.
Tags:東方Project kodama instrumental touhou 2hu すのうまん Château Bleu riverside c85 comiket 85 RSCD-0014 folk video game 不思議な不思議な道具達 strange instruments 九十九弁々 Tsukumo Benben chateau
BeatmapID:2319869
BeatmapSetID:1110174

[Difficulty]
HPDrainRate:6
CircleSize:4.1
OverallDifficulty:8
ApproachRate:9
SliderMultiplier:1.7
SliderTickRate:1

[Events]
//Background and Video events
0,0,"bg.jpg",0,0
//Break Periods
//Storyboard Layer 0 (Background)
//Storyboard Layer 1 (Fail)
//Storyboard Layer 2 (Pass)
//Storyboard Layer 3 (Foreground)
//Storyboard Layer 4 (Overlay)
//Storyboard Sound Samples

[TimingPoints]
245,365.853658536585,6,2,2,60,1,0
336,275.229357798165,6,2,2,60,1,0
404,280.439354989484,6,2,2,60,1,0
1525,319.148936170213,6,2,2,60,1,0
2163,389.61038961039,6,2,2,60,1,0
2260,392.156862745098,6,2,2,60,1,0
2848,387.096774193548,6,2,2,60,1,0
4009,348.837209302326,6,2,2,60,1,0
4096,410.958904109589,6,2,2,60,1,0
4917,337.078651685393,6,2,2,60,1,0
5254,333.333333333333,6,2,2,60,1,0
5587,331.491712707182,6,2,2,60,1,0
5918,434.782608695652,6,2,2,60,1,0
6026,375,6,2,2,60,1,0
7151,314.13612565445,6,2,2,60,1,0
7779,400,6,2,2,60,1,0
7829,394.736842105263,6,2,2,60,1,0
8421,318.979266347687,6,2,2,60,1,0
9058,322.58064516129,6,2,2,60,1,0
9380,344.827586206897,6,2,2,60,1,0
9724,375,6,2,2,60,1,0
9817,356.294536817102,6,2,2,60,1,0
11242,335.195530726257,6,2,2,60,1,0
11912,363.636363636364,6,2,2,60,1,0
12033,267.857142857143,6,2,2,60,1,0
12122,274.725274725275,6,2,2,60,1,0
14319,337.078651685393,6,2,2,60,1,0
14403,297.029702970297,6,2,2,60,1,0
14440,301.810865191147,6,2,2,60,1,0
18061,309.278350515464,6,2,2,60,1,0
18370,316.038978140637,6,2,2,60,1,0
19002,312.5,6,2,4,60,1,0
19002,-125,6,2,4,60,0,0
20798,-125,6,2,4,5,0,0
20877,-125,6,2,4,60,0,0
21502,-125,6,2,3,60,0,0
21814,-125,6,2,4,60,0,0
22048,-125,6,2,2,5,0,0
22127,-100,6,2,2,70,0,0
22752,-111.111111111111,6,2,2,65,0,0
23689,-111.111111111111,6,2,4,65,0,0
24002,-111.111111111111,6,2,2,65,0,0
25564,-111.111111111111,6,2,4,65,0,0
26111,-111.111111111111,6,2,2,5,0,0
26189,-111.111111111111,6,2,2,65,0,0
27439,-111.111111111111,6,2,4,65,0,0
28064,-111.111111111111,6,2,2,65,0,0
29002,-111.111111111111,6,2,3,65,0,0
29314,-111.111111111111,6,2,3,65,0,0
29627,-111.111111111111,6,2,2,60,0,0
29861,-111.111111111111,6,2,2,5,0,0
29939,-111.111111111111,6,2,2,65,0,0
30252,312.5,11,2,2,70,1,0
30252,-111.111111111111,11,2,2,70,0,0
34314,-111.111111111111,11,2,4,70,0,0
35252,-111.111111111111,11,2,2,70,0,0
35408,-111.111111111111,11,2,3,65,0,0
35877,-111.111111111111,11,2,2,65,0,0
36502,312.5,5,2,2,70,1,0
36502,-111.111111111111,5,2,2,70,0,0
37127,-111.111111111111,5,2,3,70,0,0
37439,-111.111111111111,5,2,2,70,0,0
37673,-111.111111111111,5,2,2,5,0,0
37752,-111.111111111111,5,2,2,65,0,0
37986,-111.111111111111,5,2,2,5,0,0
38064,-111.111111111111,5,2,2,70,0,0
38689,-111.111111111111,5,2,3,70,0,0
39002,-111.111111111111,5,2,2,70,0,0
39236,-111.111111111111,5,2,2,5,0,0
39314,-111.111111111111,5,2,2,65,0,0
39548,-111.111111111111,5,2,2,5,0,0
39626,312.5,11,2,4,50,1,0
39626,-125,11,2,4,50,0,0
41110,-125,11,2,4,5,0,0
41188,-125,11,2,4,50,0,0
42360,-125,11,2,4,5,0,0
42438,-125,11,2,3,50,0,0
43063,-125,11,2,4,50,0,0
44547,-125,11,2,4,5,0,0
44626,-125,11,2,4,50,0,0
45797,-125,11,2,4,5,0,0
45876,-125,11,2,3,50,0,0
46501,-125,11,2,4,50,0,0
47985,-125,11,2,4,5,0,0
48063,-125,11,2,4,50,0,0
49235,-125,11,2,4,5,0,0
49313,-125,11,2,3,55,0,0
49938,312.5,5,2,4,55,1,0
49938,-125,5,2,4,55,0,0
50172,-125,5,2,3,55,0,0
50406,-125,5,2,4,55,0,0
50797,-125,5,2,4,5,0,0
50875,-125,5,2,4,60,0,0
51422,-125,5,2,4,5,0,0
51500,-120.481927710843,5,2,4,63,0,0
51656,-120.481927710843,5,2,12,63,0,0
51969,-120.481927710843,5,2,4,66,0,0
52203,-120.481927710843,5,2,4,5,0,0
52281,-120.481927710843,5,2,4,66,0,0
52672,-120.481927710843,5,2,4,5,0,0
52750,-120.481927710843,5,2,2,70,0,0
52828,-120.481927710843,5,2,2,55,0,0
52906,-120.481927710843,5,2,2,65,0,0
52984,-120.481927710843,5,2,2,75,0,0
53063,312.5,11,2,11,75,1,0
53063,-105.263157894737,11,2,11,75,0,0
53375,-105.263157894737,11,2,2,75,0,0
54547,-105.263157894737,11,2,2,5,0,0
54625,-105.263157894737,11,2,2,75,0,0
54781,-105.263157894737,11,2,12,75,0,0
55094,-105.263157894737,11,2,2,75,0,0
55875,-105.263157894737,11,2,3,75,0,0
56500,-105.263157894737,11,2,2,75,0,0
58219,-105.263157894737,11,2,12,75,0,0
58531,-105.263157894737,11,2,2,75,0,0
59234,-105.263157894737,11,2,2,5,0,0
59313,-105.263157894737,11,2,3,75,0,0
59938,-105.263157894737,11,2,2,75,0,0
61422,-105.263157894737,11,2,2,5,0,0
61500,-105.263157894737,11,2,2,75,0,0
61656,-105.263157894737,11,2,12,75,0,0
61969,-105.263157894737,11,2,2,75,0,0
62750,-105.263157894737,11,2,3,72,0,0
63063,-105.263157894737,11,2,3,78,0,0
63375,312.5,5,2,2,70,1,0
63375,-105.263157894737,5,2,2,70,0,0
64859,-105.263157894737,5,2,2,5,0,0
64937,-105.263157894737,5,2,2,70,0,0
65093,-105.263157894737,5,2,12,70,0,0
65406,-105.263157894737,5,2,2,67,0,0
66500,-117.647058823529,5,2,11,60,0,0
66656,-117.647058823529,5,2,2,60,0,0
71187,312.5,6,2,2,60,1,0
71187,-117.647058823529,6,2,2,60,0,0
71421,-117.647058823529,6,2,2,5,0,0
71499,-117.647058823529,6,2,2,60,0,0
73062,312.5,11,2,2,65,1,0
73062,-117.647058823529,11,2,2,65,0,0
74233,-117.647058823529,11,2,2,5,0,0
74312,-117.647058823529,11,2,2,65,0,0
75796,-117.647058823529,11,2,2,5,0,0
75874,-117.647058823529,11,2,2,65,0,0
76499,312.5,6,2,4,60,1,0
76499,-117.647058823529,6,2,4,60,0,0
77749,-117.647058823529,6,2,2,60,0,0
77983,-117.647058823529,6,2,2,5,0,0
78061,-117.647058823529,6,2,2,60,0,0
78295,-117.647058823529,6,2,2,5,0,0
78374,-117.647058823529,6,2,2,66,0,0
78842,-117.647058823529,6,2,3,60,0,0
79155,-117.647058823529,6,2,2,60,0,0
79311,-117.647058823529,6,2,2,55,0,0
79624,-117.647058823529,6,2,2,70,0,0
79936,-117.647058823529,6,2,2,85,0,0
80249,312.5,11,2,5,80,1,0
80249,-100,11,2,5,80,0,1
80561,-100,11,2,2,80,0,1
81733,-100,11,2,2,5,0,1
81811,-100,11,2,2,80,0,1
81967,-100,11,2,12,80,0,1
82280,-100,11,2,2,80,0,1
83061,-100,11,2,3,80,0,1
83686,-100,11,2,2,80,0,1
85405,-100,11,2,12,80,0,1
85717,-100,11,2,2,80,0,1
86420,-100,11,2,2,5,0,1
86499,-100,11,2,3,82,0,1
87124,-100,11,2,2,80,0,1
88608,-100,11,2,2,5,0,1
88686,-100,11,2,2,80,0,1
88842,-100,11,2,12,80,0,1
89155,-100,11,2,2,80,0,1
89936,-100,11,2,3,75,0,1
90249,-100,11,2,3,83,0,1
90561,312.5,5,2,2,77,1,0
90561,-105.263157894737,5,2,2,77,0,1
92045,-105.263157894737,5,2,2,5,0,1
92123,-105.263157894737,5,2,2,77,0,1
92279,-105.263157894737,5,2,12,77,0,1
92592,-105.263157894737,5,2,2,72,0,1
93061,-105.263157894737,5,2,2,72,0,0
93373,-105.263157894737,5,2,2,55,0,0
93451,-105.263157894737,5,2,2,65,0,0
93529,-105.263157894737,5,2,2,75,0,0
93607,-105.263157894737,5,2,2,85,0,0
93686,312.5,11,2,11,80,1,0
93686,-100,11,2,11,80,0,1
93998,-100,11,2,2,80,0,1
95170,-100,11,2,2,5,0,1
95248,-100,11,2,2,80,0,1
95404,-100,11,2,12,80,0,1
95717,-100,11,2,2,80,0,1
96498,-100,11,2,3,80,0,1
97123,-100,11,2,2,80,0,1
98842,-100,11,2,12,80,0,1
99154,-100,11,2,2,80,0,1
99857,-100,11,2,2,5,0,1
99936,-100,11,2,3,83,0,1
100561,-100,11,2,2,80,0,1
102045,-100,11,2,2,5,0,1
102123,-100,11,2,2,80,0,1
102279,-100,11,2,12,80,0,1
102592,-100,11,2,2,80,0,1
103373,-100,11,2,3,77,0,1
103686,-100,11,2,3,84,0,1
103998,312.5,5,2,2,77,1,0
103998,-105.263157894737,5,2,2,77,0,1
105482,-105.263157894737,5,2,2,5,0,1
105560,-105.263157894737,5,2,2,77,0,1
105716,-105.263157894737,5,2,12,77,0,1
106029,-105.263157894737,5,2,2,70,0,1
106498,-111.111111111111,5,2,2,60,0,0
107123,-117.647058823529,5,2,5,60,0,0
107435,-117.647058823529,5,2,2,60,0,0
110248,312.5,11,2,2,60,1,0
110248,-117.647058823529,11,2,2,60,0,0
112044,-117.647058823529,11,2,2,5,0,0
112123,-117.647058823529,11,2,2,60,0,0
113685,-117.647058823529,11,2,2,65,0,0
114857,-117.647058823529,11,2,2,5,0,0
114935,-117.647058823529,11,2,2,65,0,0
116419,-117.647058823529,11,2,2,5,0,0
116498,-117.647058823529,11,2,2,65,0,0
117123,312.5,6,2,4,60,1,0
117123,-117.647058823529,6,2,4,60,0,0
118373,-117.647058823529,6,2,2,60,0,0
118607,-117.647058823529,6,2,2,5,0,0
118685,-117.647058823529,6,2,2,60,0,0
118919,-117.647058823529,6,2,2,5,0,0
118998,-117.647058823529,6,2,2,68,0,0
119466,-117.647058823529,6,2,3,60,0,0
119779,-117.647058823529,6,2,2,60,0,0
119935,-133.333333333333,6,2,2,60,0,0
120248,-133.333333333333,6,2,2,55,0,0
120560,-133.333333333333,6,2,2,50,0,0
120873,310.880829015544,6,2,2,45,1,0
120873,-133.333333333333,6,2,2,45,0,0
122427,-142.857142857143,6,2,3,60,0,0
122748,312.5,3,2,2,55,1,0
122748,-142.857142857143,3,2,2,55,0,0
122982,-117.647058823529,3,2,2,5,0,0
123060,-131.578947368421,3,2,2,60,0,0
123294,-117.647058823529,3,2,2,5,0,0
123373,-121.951219512195,3,2,2,65,0,0
123607,-117.647058823529,3,2,2,5,0,0
123685,-113.636363636364,3,2,2,70,0,0
123919,-117.647058823529,3,2,2,5,0,0
123998,-100,3,2,2,75,0,0
124232,-117.647058823529,3,2,2,5,0,0
124310,-117.647058823529,3,2,2,85,0,0
124623,312.5,11,2,5,83,1,0
124623,-98.0392156862745,11,2,5,83,0,1
124935,-98.0392156862745,11,2,2,83,0,1
126107,-100,11,2,2,5,0,1
126185,-98.0392156862745,11,2,2,83,0,1
126341,-98.0392156862745,11,2,12,83,0,1
126654,-98.0392156862745,11,2,2,83,0,1
127435,-98.0392156862745,11,2,3,83,0,1
128060,-98.0392156862745,11,2,2,83,0,1
129779,-98.0392156862745,11,2,12,83,0,1
130091,-98.0392156862745,11,2,2,83,0,1
130794,-100,11,2,2,5,0,1
130873,-98.0392156862745,11,2,3,86,0,1
131498,-98.0392156862745,11,2,2,83,0,1
132982,-100,11,2,2,5,0,1
133060,-98.0392156862745,11,2,2,83,0,1
133216,-98.0392156862745,11,2,12,83,0,1
133529,-98.0392156862745,11,2,2,83,0,1
134310,-98.0392156862745,11,2,3,77,0,1
134623,-98.0392156862745,11,2,3,87,0,1
134935,312.5,5,2,2,77,1,0
134935,-103.092783505155,5,2,2,77,0,1
136419,-105.263157894737,5,2,2,5,0,1
136497,-105.263157894737,5,2,2,70,0,1
137122,-105.263157894737,5,2,3,75,0,1
137435,-121.951219512195,5,2,2,65,0,0
138060,312.5,11,2,5,83,1,0
138060,-90.0900900900901,11,2,5,83,0,1
138372,-90.0900900900901,11,2,2,83,0,1
139544,-95.2380952380952,11,2,2,5,0,1
139622,-95.2380952380952,11,2,2,83,0,1
139778,-95.2380952380952,11,2,12,83,0,1
140091,-90.0900900900901,11,2,2,83,0,1
140794,-95.2380952380952,11,2,2,5,0,1
140872,-95.2380952380952,11,2,3,87,0,1
141497,-90.0900900900901,11,2,2,83,0,1
143216,-95.2380952380952,11,2,12,83,0,1
143528,-90.0900900900901,11,2,2,83,0,1
144231,-95.2380952380952,11,2,2,5,0,1
144310,-95.2380952380952,11,2,3,87,0,1
144935,-90.0900900900901,11,2,2,83,0,1
146419,-95.2380952380952,11,2,2,5,0,1
146497,-95.2380952380952,11,2,2,83,0,1
146653,-95.2380952380952,11,2,12,83,0,1
146966,-90.0900900900901,11,2,2,83,0,1
147747,-95.2380952380952,11,2,3,75,0,1
148060,-95.2380952380952,11,2,3,90,0,1
148372,312.5,5,2,2,77,1,0
148372,-96.1538461538461,5,2,2,77,0,1
149309,-96.1538461538461,5,2,2,74,0,0
149856,-100,5,2,2,5,0,0
149934,-97.0873786407767,5,2,5,80,0,1
150090,-93.4579439252336,5,2,4,80,0,1
151497,-94.3396226415094,5,2,2,80,0,1
151965,-97.0873786407767,5,2,4,80,0,1
152434,-94.3396226415094,5,2,4,73,0,1
153059,312.5,6,2,2,83,1,0
153059,-94.3396226415094,6,2,2,83,0,1
153371,-94.3396226415094,6,2,4,80,0,1
153996,-97.0873786407767,6,2,4,74,0,1
154621,-97.0873786407767,6,2,2,80,0,1
154855,-100,6,2,2,5,0,1
154934,-95.2380952380952,6,2,11,83,0,1
155090,-95.2380952380952,6,2,2,70,0,1
155402,-95.2380952380952,6,2,2,85,0,1
155715,-95.2380952380952,6,2,2,70,0,1
155871,-95.2380952380952,6,2,2,83,0,1
156184,-95.2380952380952,6,2,2,75,0,1
156340,-95.2380952380952,6,2,2,85,0,1
156496,-95.2380952380952,6,2,2,77,0,1
156652,-100,6,2,2,69,0,0
156809,-100,6,2,5,90,0,1
156887,-100,6,2,2,60,0,0

[Colours]
Combo1 : 250,173,175
Combo2 : 158,214,122
Combo3 : 157,201,255
Combo4 : 222,190,239

[HitObjects]
193,256,19002,6,0,P|194:222|202:189,1,68,4|0,1:2|0:0,0:0:0:0:
202,189,19314,1,2,0:2:0:0:
122,295,19470,2,0,P|90:283|56:282,2,68,2|0|0,1:2|0:0|0:0,0:0:0:0:
102,188,19939,2,0,L|90:119,1,68,2|0,0:2|0:0,0:0:0:0:
167,66,20252,2,0,L|179:-3,1,68,2|0,0:2|0:0,0:0:0:0:
346,92,20564,2,0,P|298:78|254:102,1,102,2|0,1:2|0:0,0:0:0:0:
252,112,20877,6,0,B|245:75|245:75|271:40,2,68,2|0|2,1:2|0:0|0:2,0:0:0:0:
426,83,21345,1,2,1:2:0:0:
393,156,21502,1,0,0:0:0:0:
346,92,21658,1,0,0:0:0:0:
487,155,21814,2,0,P|478:205|474:256,1,102,2|0,0:2|0:0,0:0:0:0:
484,276,22127,5,2,1:2:0:0:
451,379,22283,1,2,0:0:0:0:
344,367,22439,1,2,1:2:0:0:
475,374,22595,1,2,0:0:0:0:
369,252,22752,6,0,P|307:291|234:275,1,152.999995330811,6|0,1:2|0:0,0:0:0:0:
138,174,23220,2,0,P|213:186|290:189,1,152.999995330811,0|0,1:0|0:0,0:0:0:0:
141,269,23689,2,0,B|132:307|132:307|106:274,1,76.4999976654053,2|0,0:2|0:0,0:0:0:0:
80,49,24002,2,0,P|31:104|45:177,1,152.999995330811,2|0,0:2|1:0,0:0:0:0:
228,105,24470,5,2,0:2:0:0:
228,105,24548,1,2,0:2:0:0:
228,105,24627,2,0,P|190:95|142:90,2,76.4999976654053,2|0|0,1:2|0:0|0:0,0:0:0:0:
174,182,25095,1,0,1:0:0:0:
291,35,25252,2,0,P|328:30|360:8,1,76.4999976654053,2|0,0:2|0:0,0:0:0:0:
319,125,25564,2,0,L|334:215,1,76.4999976654053,2|0,0:2|0:0,0:0:0:0:
224,356,25877,2,0,P|235:301|279:266,1,114.749996498108,2|0,1:2|0:0,0:0:0:0:
298,269,26189,2,0,L|303:328,2,38.2499988327027,0|0|0,1:0|0:0|0:0,0:0:0:0:
133,340,26502,6,0,P|94:342|59:356,1,76.4999976654053,2|0,1:2|0:0,0:0:0:0:
0,267,26814,1,2,0:2:0:0:
119,205,26970,2,0,L|130:107,1,76.4999976654053,2|0,1:2|0:0,0:0:0:0:
21,257,27283,1,0,0:0:0:0:
140,195,27439,2,0,L|151:97,1,76.4999976654053,2|0,0:2|0:0,0:0:0:0:
56,0,27752,2,0,L|64:76,1,76.4999976654053,2|0,0:2|0:0,0:0:0:0:
242,115,28064,5,2,1:2:0:0:
166,39,28220,1,2,0:2:0:0:
341,74,28377,6,0,P|398:27|471:39,1,152.999995330811,2|0,1:2|0:0,0:0:0:0:
327,181,28845,1,0,1:0:0:0:
242,115,29002,1,8,0:0:0:0:
339,191,29158,1,8,0:0:0:0:
424,118,29314,1,10,0:0:0:0:
425,123,29392,1,10,0:0:0:0:
426,128,29470,1,10,0:0:0:0:
512,191,29627,6,0,P|457:208|408:238,1,114.749996498108,0|0,1:0|0:0,0:0:0:0:
404,259,29939,1,0,1:0:0:0:
288,271,30095,1,0,0:0:0:0:
460,359,30252,6,0,P|388:342|326:383,1,152.999995330811,4|0,1:2|0:0,0:0:0:0:
87,374,30720,2,0,B|239:352,1,152.999995330811,2|0,1:2|0:0,0:0:0:0:
119,285,31189,2,0,P|106:248|85:216,1,76.4999976654053,2|0,0:2|0:0,0:0:0:0:
95,210,31502,2,0,P|115:242|128:278,1,76.4999976654053,2|0,0:2|0:0,0:0:0:0:
46,43,31814,6,0,P|1:103|6:178,1,152.999995330811,2|0,1:2|0:0,0:0:0:0:
286,146,32283,2,0,B|134:123,1,152.999995330811,2|0,1:2|0:0,0:0:0:0:
256,241,32752,2,0,P|293:234|331:232,1,76.4999976654053,2|0,0:2|0:0,0:0:0:0:
149,218,33064,2,0,P|175:190|205:166,1,76.4999976654053,2|0,1:2|0:0,0:0:0:0:
334,243,33377,2,0,P|295:245|258:252,1,76.4999976654053,2|0,1:2|0:0,0:0:0:0:
421,118,33689,6,0,P|347:97|286:51,1,152.999995330811,6|0,1:2|0:0,0:0:0:0:
159,0,34158,1,0,1:0:0:0:
208,64,34314,2,0,P|221:99|227:137,1,76.4999976654053,2|0,0:2|0:0,0:0:0:0:
348,98,34627,2,0,P|334:133|328:171,1,76.4999976654053,2|0,0:2|0:0,0:0:0:0:
180,234,34939,2,0,P|193:269|199:307,1,76.4999976654053,2|0,0:2|0:0,0:0:0:0:
343,314,35252,5,2,0:2:0:0:
265,228,35408,1,8,0:2:0:0:
164,384,35564,1,8,0:2:0:0:
164,384,35642,1,8,0:2:0:0:
164,384,35720,1,8,0:2:0:0:
89,311,35877,2,0,L|74:235,1,76.4999976654053,0|0,1:0|0:0,0:0:0:0:
106,103,36189,5,0,1:0:0:0:
0,205,36345,1,0,0:0:0:0:
34,57,36502,6,0,P|107:69|168:26,1,152.999995330811,4|0,1:2|0:0,0:0:0:0:
344,82,36970,1,2,1:2:0:0:
331,0,37127,1,8,0:0:0:0:
347,96,37283,1,8,0:0:0:0:
248,0,37439,6,0,P|261:54|232:102,1,114.749996498108,2|0,0:2|0:0,0:0:0:0:
162,93,37752,2,0,P|148:147|177:195,1,114.749996498108,2|0,0:2|0:0,0:0:0:0:
249,233,38064,6,0,P|173:221|97:214,1,152.999995330811,2|0,1:2|0:0,0:0:0:0:
268,312,38533,1,0,1:0:0:0:
188,353,38689,1,8,0:0:0:0:
257,219,38845,1,8,0:0:0:0:
354,337,39002,6,0,P|409:328|457:357,1,114.749996498108,2|0,1:2|0:0,0:0:0:0:
512,304,39314,2,0,P|456:312|408:283,1,114.749996498108,2|0,1:2|0:0,0:0:0:0:
401,265,39626,6,0,P|411:197|423:130,1,136,6|0,1:2|0:0,0:0:0:0:
512,76,40094,2,0,P|502:144|490:211,1,136,2|0,1:2|0:0,0:0:0:0:
335,185,40563,2,0,P|327:153|323:119,1,68,2|0,0:2|0:0,0:0:0:0:
267,262,40876,2,0,P|219:244|168:238,1,102,2|0,0:2|0:0,0:0:0:0:
158,245,41188,2,0,P|166:277|170:311,2,68,2|0|0,1:2|0:0|0:0,0:0:0:0:
89,197,41657,1,2,1:2:0:0:
50,271,41813,2,0,P|42:303|38:337,1,68,2|0,0:2|0:0,0:0:0:0:
4,199,42126,2,0,P|17:150|55:118,1,102,2|0,0:2|0:0,0:0:0:0:
51,100,42438,5,8,1:2:0:0:
41,24,42594,1,8,0:2:0:0:
136,124,42751,1,8,1:2:0:0:
146,48,42907,1,8,0:2:0:0:
271,148,43063,6,0,P|252:213|242:280,1,136,2|0,1:2|0:0,0:0:0:0:
171,354,43532,2,0,P|236:335|303:325,1,136,2|0,1:2|0:0,0:0:0:0:
442,370,44001,2,0,P|408:370|374:377,1,68,2|0,0:2|0:0,0:0:0:0:
421,227,44313,2,0,P|465:201|515:204,1,102,2|0,0:2|0:0,0:0:0:0:
512,195,44626,2,0,L|522:127,2,68,2|0|0,1:2|0:0|0:0,0:0:0:0:
486,290,45094,1,2,1:2:0:0:
340,251,45251,2,0,L|329:183,1,68,2|0,0:2|0:0,0:0:0:0:
431,51,45563,2,0,P|445:99|423:144,1,102,2|0,0:2|0:0,0:0:0:0:
400,153,45876,5,8,1:2:0:0:
336,100,46032,1,8,0:2:0:0:
259,214,46188,1,8,1:2:0:0:
195,161,46344,1,8,0:2:0:0:
177,342,46501,6,0,P|111:336|52:367,1,136,2|0,1:2|0:0,0:0:0:0:
96,254,46969,2,0,P|102:187|71:128,1,136,2|0,1:2|0:0,0:0:0:0:
0,88,47438,1,2,0:2:0:0:
70,127,47594,1,0,0:0:0:0:
154,75,47751,2,0,P|197:50|247:50,1,102,2|0,0:2|0:0,0:0:0:0:
270,60,48063,2,0,L|341:47,2,68,2|0|0,1:2|0:0|0:0,0:0:0:0:
221,137,48532,1,0,1:2:0:0:
366,169,48688,2,0,L|442:183,1,68,2|0,0:2|0:0,0:0:0:0:
511,30,49001,2,0,P|464:49|432:88,1,102,2|0,0:2|0:0,0:0:0:0:
434,108,49313,5,8,1:2:0:0:
512,146,49469,1,8,0:2:0:0:
385,243,49626,1,8,1:2:0:0:
349,127,49782,1,8,0:2:0:0:
223,227,49938,6,0,P|190:215|157:211,1,68,2|0,1:2|0:0,0:0:0:0:
146,221,50172,1,8,0:2:0:0:
146,221,50250,1,8,0:2:0:0:
235,308,50406,1,2,1:2:0:0:
97,361,50563,2,0,P|78:313|44:276,1,102,2|0,0:2|0:0,0:0:0:0:
21,269,50875,2,0,P|11:237|5:204,1,68,2|0,0:2|0:0,0:0:0:0:
176,349,51188,2,0,P|225:337|276:340,1,102,2|0,1:2|0:0,0:0:0:0:
295,351,51500,5,2,1:2:0:0:
384,384,51656,1,8,0:3:0:0:
367,290,51813,1,8,0:3:0:0:
216,249,51969,6,0,P|169:226|117:224,1,105.825001534023,0|0,1:0|0:0,0:0:0:0:
109,232,52281,1,0,0:0:0:0:
310,204,52438,6,0,P|357:180|409:178,1,105.825001534023,0|0,1:0|0:0,0:0:0:0:
478,192,52750,2,0,L|530:180,1,35.2750005113411,0|2,1:0|0:0,0:0:0:0:
512,71,52906,5,2,0:2:0:0:
507,86,52984,1,2,0:2:0:0:
502,101,53063,2,0,P|425:75|345:79,1,161.499995687485,4|0,1:2|0:0,0:0:0:0:
166,41,53531,2,0,L|245:24,1,80.7499978437424,2|0,1:2|0:0,0:0:0:0:
166,41,53844,1,0,0:0:0:0:
284,183,54000,2,0,L|363:200,1,80.7499978437424,2|0,0:2|0:0,0:0:0:0:
164,117,54313,2,0,B|253:137|253:137|278:175,1,121.124996765614,2|0,0:2|0:0,0:0:0:0:
284,183,54625,5,2,1:2:0:0:
339,267,54781,1,8,0:3:0:0:
351,285,54938,1,8,0:3:0:0:
202,240,55094,1,2,1:2:0:0:
363,302,55250,2,0,P|403:304|440:319,1,80.7499978437424,2|0,0:2|0:0,0:0:0:0:
299,384,55563,2,0,P|227:349|148:355,1,161.499995687485,2|8,0:2|1:2,0:0:0:0:
0,276,56031,5,8,0:2:0:0:
43,376,56188,1,8,1:2:0:0:
148,355,56344,1,8,0:2:0:0:
0,257,56500,6,0,B|23:243|31:219|31:219|30:164|-11:119,1,161.499995687485,2|0,1:2|0:0,0:0:0:0:
128,0,56969,2,0,B|252:17|252:17|310:-10,1,161.499995687485,2|0,1:2|0:0,0:0:0:0:
154,91,57438,2,0,L|75:79,1,80.7499978437424,2|0,0:2|0:0,0:0:0:0:
277,151,57750,2,0,B|220:142|220:142|202:157,1,80.7499978437424,2|0,0:2|0:0,0:0:0:0:
61,87,58063,2,0,L|140:99,2,80.7499978437424,2|8|8,1:2|0:3|0:3,0:0:0:0:
245,217,58531,5,2,1:2:0:0:
323,78,58688,2,0,B|335:60|335:60|359:89|345:119,1,80.7499978437424,2|0,0:2|0:0,0:0:0:0:
319,332,59000,2,0,P|318:273|362:234,1,121.124996765614,2|0,0:2|0:0,0:0:0:0:
388,229,59313,5,8,1:2:0:0:
256,231,59469,1,8,0:2:0:0:
389,305,59625,1,8,1:2:0:0:
434,159,59781,1,8,0:2:0:0:
511,310,59938,6,0,B|489:293|478:266|478:266|495:326|475:371,1,161.499995687485,6|0,1:2|0:0,0:0:0:0:
276,337,60406,2,0,L|181:356,1,80.7499978437424,2|0,1:2|0:0,0:0:0:0:
276,337,60719,1,0,0:0:0:0:
95,307,60875,2,0,L|0:288,1,80.7499978437424,2|0,0:2|0:0,0:0:0:0:
229,264,61188,2,0,L|109:288,1,121.124996765614,2|0,0:2|0:0,0:0:0:0:
95,307,61500,5,2,1:2:0:0:
152,189,61656,1,8,0:3:0:0:
161,169,61813,1,8,0:3:0:0:
0,212,61969,1,2,1:2:0:0:
170,149,62125,2,0,L|261:132,1,80.7499978437424,2|0,0:2|0:0,0:0:0:0:
113,74,62438,2,0,P|76:57|37:47,1,80.7499978437424,2|0,0:2|0:0,0:0:0:0:
191,17,62750,5,8,1:2:0:0:
113,74,62906,1,8,0:2:0:0:
345,111,63063,5,8,1:2:0:0:
287,32,63219,1,8,0:2:0:0:
328,205,63375,6,0,P|251:211|211:278,1,161.499995687485,2|0,1:2|0:0,0:0:0:0:
415,384,63843,1,2,1:2:0:0:
338,344,64000,2,0,P|299:341|261:355,1,80.7499978437424,2|0,0:2|0:0,0:0:0:0:
485,334,64312,2,0,P|454:307|416:297,1,80.7499978437424,2|0,0:2|0:0,0:0:0:0:
184,350,64625,2,0,P|125:347|80:308,1,121.124996765614,2|0,1:2|0:0,0:0:0:0:
76,287,64937,5,2,1:2:0:0:
120,174,65093,1,8,0:3:0:0:
0,191,65250,1,8,0:3:0:0:
195,269,65406,6,0,P|195:189|248:131,1,161.499995687485,0|0,1:0|0:0,0:0:0:0:
331,0,65875,1,0,1:0:0:0:
344,17,66187,2,0,B|370:1|370:1|388:17|416:19,1,80.7499978437424,2|0,1:2|0:0,0:0:0:0:
511,118,66500,6,0,P|476:118|445:137,1,72.2500013780594,4|0,1:2|0:0,0:0:0:0:
357,119,66812,1,0,0:0:0:0:
357,119,66968,2,0,P|323:109|299:81,1,72.2500013780594,0|0,1:0|0:0,0:0:0:0:
262,0,67280,1,0,0:0:0:0:
262,0,67437,2,0,B|214:6|214:6|181:41|188:99,1,144.500002756119,2|0,0:2|0:0,0:0:0:0:
84,142,67906,5,2,0:2:0:0:
84,142,67984,1,2,0:2:0:0:
84,142,68062,2,0,P|153:129|213:165,1,144.500002756119,2|0,1:2|0:0,0:0:0:0:
158,243,68531,1,0,1:0:0:0:
158,243,68687,2,0,L|173:328,1,72.2500013780594,0|0,0:0|0:0,0:0:0:0:
272,230,69000,2,0,B|262:285|262:285|284:310,1,72.2500013780594,2|0,0:2|0:0,0:0:0:0:
287,110,69312,2,0,B|277:55|277:55|299:30,1,72.2500013780594,2|0,1:2|0:0,0:0:0:0:
485,202,69625,6,0,B|419:194|419:194|410:186|410:186|345:178,1,144.500002756119,2|0,1:2|0:0,0:0:0:0:
276,234,70093,1,0,1:0:0:0:
276,234,70250,2,0,L|190:249,1,72.2500013780594,0|0,0:0|0:0,0:0:0:0:
58,204,70562,2,0,P|91:190|126:194,1,72.2500013780594,2|0,0:2|0:0,0:0:0:0:
171,335,70875,2,0,P|144:358|109:366,1,72.2500013780594,2|0,0:2|0:0,0:0:0:0:
44,188,71187,6,0,P|54:134|57:80,1,108.375002067089,2|0,1:2|0:0,0:0:0:0:
49,63,71499,2,0,P|77:41|93:9,1,72.2500013780594,2|0,0:2|1:0,0:0:0:0:
148,97,71812,2,0,P|182:87|217:92,1,72.2500013780594,2|0,0:2|0:0,0:0:0:0:
366,97,72124,2,0,P|305:68|308:0,1,144.500002756119,2|0,0:2|1:0,0:0:0:0:
366,97,72593,1,0,0:0:0:0:
334,176,72749,5,2,1:2:0:0:
450,106,72905,1,2,0:2:0:0:
321,191,73062,6,0,P|304:260|310:332,1,144.500002756119,6|0,1:2|0:0,0:0:0:0:
399,231,73530,1,2,1:2:0:0:
399,231,73687,2,0,P|387:265|389:301,1,72.2500013780594,2|0,0:2|0:0,0:0:0:0:
242,383,73999,2,0,P|192:364|138:366,1,108.375002067089,2|0,0:2|0:0,0:0:0:0:
117,375,74312,2,0,P|112:340|115:304,1,72.2500013780594,2|0,1:2|0:0,0:0:0:0:
0,207,74624,6,0,P|66:227|122:186,1,144.500002756119,2|0,1:2|0:0,0:0:0:0:
58,78,75093,1,2,1:2:0:0:
58,78,75249,2,0,P|62:113|54:148,1,72.2500013780594,2|0,0:2|0:0,0:0:0:0:
250,90,75562,2,0,P|197:83|154:114,1,108.375002067089,2|0,0:2|0:0,0:0:0:0:
134,118,75874,2,0,P|169:125|200:142,1,72.2500013780594,2|0,1:2|0:0,0:0:0:0:
319,70,76187,2,0,P|354:74|390:67,1,72.2500013780594,2|0,1:2|0:0,0:0:0:0:
511,185,76499,6,0,P|501:219|496:255,2,72.2500013780594,2|0|0,1:2|0:3|0:0,0:0:0:0:
416,250,76967,1,0,1:0:0:0:
398,171,77124,1,2,0:2:0:0:
462,121,77280,1,2,0:2:0:0:
379,182,77436,2,0,P|345:171|309:167,1,72.2500013780594,2|0,1:2|0:0,0:0:0:0:
157,234,77749,6,0,P|208:245|245:208,1,108.375002067089,2|0,1:2|0:0,0:0:0:0:
233,169,78061,2,0,P|182:158|145:195,1,108.375002067089,2|0,1:2|0:0,0:0:0:0:
74,237,78374,6,0,B|50:208|46:171|46:171|32:206|3:227,1,144.500002756119,2|0,1:2|0:0,0:0:0:0:
29,379,78842,1,10,0:0:0:0:
29,379,78920,1,10,0:0:0:0:
28,378,78999,2,0,P|30:342|44:309,1,72.2500013780594,8|0,0:0|1:0,0:0:0:0:
169,317,79311,5,2,1:2:0:0:
278,375,79624,5,2,1:2:0:0:
512,283,79936,5,2,1:2:0:0:
452,0,80249,6,0,B|420:7|411:45|411:45|431:160,1,170,4|0,1:2|0:0,0:0:0:0:
388,313,80717,2,0,B|406:301|406:301|420:267|400:230,1,85,2|0,1:2|0:0,0:0:0:0:
388,313,81030,1,0,0:0:0:0:
236,217,81186,2,0,P|267:244|308:237,1,85,2|0,0:2|0:0,0:0:0:0:
218,88,81499,2,0,B|253:112|253:112|238:203,1,127.5,2|0,0:2|0:0,0:0:0:0:
236,217,81811,5,2,1:2:0:0:
331,151,81967,1,8,0:3:0:0:
340,131,82124,1,8,0:3:0:0:
174,153,82280,1,2,1:2:0:0:
133,83,82436,2,0,L|151:-4,1,85,2|0,0:2|0:0,0:0:0:0:
0,177,82749,2,0,B|79:161|130:225|130:225|77:246,1,170,2|8,1:2|1:2,0:0:0:0:
0,177,83217,5,8,0:2:0:0:
204,224,83374,1,8,1:2:0:0:
28,253,83530,1,8,0:2:0:0:
232,300,83686,6,0,B|277:281|283:237|283:237|314:273|360:265,1,170,6|0,1:2|0:0,0:0:0:0:
512,336,84155,2,0,P|428:332|354:373,1,170,2|0,1:2|0:0,0:0:0:0:
460,246,84624,2,0,P|473:206|464:164,1,85,2|0,0:2|0:0,0:0:0:0:
303,127,84936,2,0,B|322:39,1,85,2|0,0:2|0:0,0:0:0:0:
263,230,85249,5,2,1:2:0:0:
389,126,85405,1,8,0:3:0:0:
395,107,85561,1,8,0:3:0:0:
358,208,85717,5,2,1:2:0:0:
321,44,85874,2,0,B|360:50|383:25|383:25|344:10,1,85,2|0,0:2|0:0,0:0:0:0:
136,0,86186,2,0,L|162:143,1,127.5,2|0,1:2|0:0,0:0:0:0:
151,146,86499,5,8,1:2:0:0:
45,58,86655,1,8,0:2:0:0:
76,191,86811,1,8,1:2:0:0:
68,31,86967,1,8,0:2:0:0:
99,218,87124,6,0,B|68:230|53:254|53:254|101:299|163:271,1,170,6|0,1:2|0:0,0:0:0:0:
312,230,87592,2,0,B|280:259|280:259|300:298,1,85,2|0,1:2|0:0,0:0:0:0:
312,230,87905,1,0,0:0:0:0:
474,210,88061,2,0,L|370:223,1,85,2|0,0:2|0:0,0:0:0:0:
470,352,88374,2,0,L|488:225,1,127.5,2|0,0:2|0:0,0:0:0:0:
474,210,88686,5,2,1:2:0:0:
512,95,88842,1,8,0:3:0:0:
501,76,88999,1,8,0:3:0:0:
356,0,89155,1,2,1:2:0:0:
342,80,89311,2,0,L|325:168,1,85,2|0,0:2|0:0,0:0:0:0:
132,235,89624,2,0,P|171:219|214:216,1,85,2|0,0:2|0:0,0:0:0:0:
132,235,89936,5,8,1:2:0:0:
151,139,90092,1,8,0:2:0:0:
187,292,90249,5,8,1:2:0:0:
72,173,90405,1,8,0:2:0:0:
29,332,90561,6,0,P|106:328|157:387,1,161.499995687485,6|0,1:2|0:0,0:0:0:0:
347,247,91029,1,2,1:2:0:0:
275,310,91186,2,0,P|236:313|198:299,1,80.7499978437424,2|0,0:2|0:0,0:0:0:0:
367,242,91498,2,0,P|390:209|399:170,1,80.7499978437424,2|0,0:2|0:0,0:0:0:0:
141,240,91811,2,0,P|110:189|122:131,1,121.124996765614,2|0,1:2|0:0,0:0:0:0:
143,118,92123,5,2,1:2:0:0:
47,233,92279,1,8,0:3:0:0:
215,180,92436,1,8,0:3:0:0:
27,139,92592,6,0,B|12:27|12:27|25:56|49:65,1,161.499995687485,0|0,1:0|0:0,0:0:0:0:
232,86,93061,1,0,1:0:0:0:
228,66,93373,2,0,L|218:10,3,40.3749989218712,2|2|2|2,0:2|0:2|0:2|0:2,0:0:0:0:
258,84,93686,6,0,B|278:108|307:109|307:109|354:65|336:0,1,170,4|0,1:2|0:0,0:0:0:0:
511,119,94154,2,0,P|482:89|441:90,1,85,2|0,1:2|0:0,0:0:0:0:
511,119,94467,1,0,0:0:0:0:
361,228,94623,2,0,P|388:197|382:157,1,85,2|0,0:2|0:0,0:0:0:0:
238,278,94936,2,0,B|259:231|313:216|313:216|355:226,1,127.5,2|0,0:2|0:0,0:0:0:0:
361,228,95248,5,2,1:2:0:0:
235,169,95404,1,8,0:3:0:0:
213,174,95561,1,8,0:3:0:0:
323,310,95717,1,2,1:2:0:0:
407,300,95873,2,0,P|448:298|485:319,1,85,2|0,0:2|0:0,0:0:0:0:
253,361,96186,2,0,B|213:339|170:358|170:358|132:376|90:353,1,170,2|8,1:2|1:2,0:0:0:0:
0,238,96654,5,8,0:2:0:0:
89,353,96811,1,8,1:2:0:0:
33,163,96967,1,8,0:2:0:0:
126,281,97123,6,0,B|156:234|164:178|164:178|144:156|111:148,1,170,6|0,1:2|0:0,0:0:0:0:
270,46,97592,2,0,P|206:13|170:87,1,170,2|0,1:2|0:0,0:0:0:0:
321,216,98061,2,0,P|280:207|238:203,1,85,2|0,0:2|0:0,0:0:0:0:
354,113,98373,2,0,P|396:108|437:99,1,85,2|0,0:2|0:0,0:0:0:0:
241,206,98686,5,2,1:2:0:0:
407,260,98842,1,8,0:3:0:0:
418,243,98998,1,8,0:3:0:0:
303,297,99154,5,2,1:2:0:0:
452,380,99311,2,0,B|411:386|411:386|393:374|382:354,1,85,2|0,0:2|0:0,0:0:0:0:
512,157,99623,2,0,B|481:146|450:150|450:150|445:118|414:88,1,127.5,2|0,0:2|0:0,0:0:0:0:
403,77,99936,5,8,1:2:0:0:
308,0,100092,1,8,0:2:0:0:
232,96,100248,1,8,1:2:0:0:
137,18,100404,1,8,0:2:0:0:
61,115,100561,6,0,B|82:156|82:156|108:93|51:42,1,170,6|0,1:2|0:0,0:0:0:0:
0,212,101029,2,0,P|24:246|26:288,1,85,2|0,1:2|0:0,0:0:0:0:
0,212,101342,1,0,0:0:0:0:
154,268,101498,2,0,P|129:302|127:344,1,85,2|0,0:2|0:0,0:0:0:0:
297,256,101811,2,0,B|262:284|262:284|178:272,1,127.5,2|0,0:2|0:0,0:0:0:0:
154,268,102123,5,2,1:2:0:0:
253,366,102279,1,8,0:3:0:0:
230,358,102436,1,8,0:3:0:0:
219,181,102592,1,2,1:2:0:0:
303,171,102748,2,0,P|320:132|353:106,1,85,2|0,0:2|0:0,0:0:0:0:
99,113,103061,2,0,B|119:120|119:120|187:102,1,85,2|0,0:2|0:0,0:0:0:0:
59,47,103373,5,8,1:2:0:0:
34,154,103529,1,8,0:2:0:0:
132,202,103686,5,8,1:2:0:0:
56,38,103842,1,8,0:2:0:0:
136,210,103998,6,0,B|171:205|198:224|198:224|227:209|227:209|254:227|288:225,1,161.499995687485,6|0,1:2|0:0,0:0:0:0:
413,48,104466,1,2,1:2:0:0:
335,86,104623,2,0,L|350:165,1,80.7499978437424,2|0,0:2|0:0,0:0:0:0:
263,0,104935,2,0,L|248:79,1,80.7499978437424,2|0,0:2|0:0,0:0:0:0:
372,250,105248,2,0,P|418:214|477:219,1,121.124996765614,2|0,1:2|0:0,0:0:0:0:
498,232,105560,5,2,1:2:0:0:
388,321,105716,1,8,0:3:0:0:
512,384,105873,1,8,0:3:0:0:
347,381,106029,6,0,B|238:338|238:338|194:368,1,161.499995687485,0|0,1:0|0:0,0:0:0:0:
269,229,106498,1,0,1:0:0:0:
260,210,106810,2,0,P|221:205|202:236,1,76.4999976654053,2|2,1:2|0:2,0:0:0:0:
98,297,107123,6,0,P|79:228|53:160,1,144.500002756119,4|0,1:2|0:0,0:0:0:0:
0,87,107591,2,0,P|35:87|66:69,1,72.2500013780594,0|0,1:0|0:0,0:0:0:0:
123,0,107903,1,0,0:0:0:0:
123,0,108060,2,0,B|155:41|207:32|207:32|226:14|236:-12,1,144.500002756119,2|0,0:2|0:0,0:0:0:0:
191,111,108529,5,2,0:2:0:0:
191,111,108607,1,2,0:2:0:0:
191,111,108685,2,0,P|181:176|245:197,1,144.500002756119,2|0,1:2|0:0,0:0:0:0:
321,253,109154,1,0,1:0:0:0:
321,253,109310,2,0,L|406:238,1,72.2500013780594,0|0,0:0|0:0,0:0:0:0:
512,188,109623,2,0,P|479:172|444:174,1,72.2500013780594,2|0,0:2|0:0,0:0:0:0:
445,307,109935,2,0,P|477:322|512:320,1,72.2500013780594,2|0,1:2|0:0,0:0:0:0:
332,384,110248,6,0,P|286:331|219:346,1,144.500002756119,2|0,1:2|0:0,0:0:0:0:
140,384,110716,1,0,1:0:0:0:
140,384,110873,2,0,L|125:298,1,72.2500013780594,0|0,0:0|0:0,0:0:0:0:
39,209,111185,2,0,B|52:246|52:246|40:277,1,72.2500013780594,2|0,0:2|0:0,0:0:0:0:
182,235,111498,2,0,B|169:198|169:198|181:167,1,72.2500013780594,2|0,0:2|0:0,0:0:0:0:
317,79,111810,6,0,L|210:95,1,108.375002067089,2|0,1:2|0:0,0:0:0:0:
189,89,112122,2,0,L|265:78,1,72.2500013780594,2|0,0:2|1:0,0:0:0:0:
375,22,112435,2,0,L|451:33,1,72.2500013780594,2|0,0:2|0:0,0:0:0:0:
362,146,112747,2,0,P|348:210|282:205,1,144.500002756119,2|0,0:2|1:0,0:0:0:0:
314,300,113216,1,0,0:0:0:0:
420,325,113372,5,2,1:2:0:0:
300,298,113528,1,2,0:2:0:0:
426,248,113685,6,0,P|443:177|466:109,1,144.500002756119,6|0,1:2|0:0,0:0:0:0:
396,14,114153,1,2,1:2:0:0:
396,14,114310,2,0,P|360:13|327:0,1,72.2500013780594,2|0,0:2|0:0,0:0:0:0:
213,128,114622,2,0,L|336:105,1,108.375002067089,2|0,0:2|0:0,0:0:0:0:
340,115,114935,2,0,P|305:104|278:81,1,72.2500013780594,2|0,1:2|0:0,0:0:0:0:
134,0,115247,6,0,P|65:9|39:73,1,144.500002756119,2|0,1:2|0:0,0:0:0:0:
69,158,115716,2,0,P|103:148|138:139,2,72.2500013780594,2|2|0,1:2|0:2|0:0,0:0:0:0:
0,295,116185,2,0,P|50:286|76:330,1,108.375002067089,2|0,0:2|0:0,0:0:0:0:
82,349,116497,2,0,P|115:372|148:373,1,72.2500013780594,2|0,1:2|0:0,0:0:0:0:
230,283,116810,2,0,P|197:260|164:259,1,72.2500013780594,2|0,1:2|0:0,0:0:0:0:
333,348,117123,6,0,P|368:353|399:370,2,72.2500013780594,2|0|0,1:2|0:0|0:0,0:0:0:0:
447,294,117591,2,0,P|473:318|488:351,2,72.2500013780594,2|0|0,1:2|0:0|0:0,0:0:0:0:
352,242,118060,2,0,P|357:206|375:175,1,72.2500013780594,2|0,0:2|0:0,0:0:0:0:
240,95,118373,6,0,B|230:120|205:138|205:138|235:143|254:164,1,108.375002067089,2|0,1:2|0:0,0:0:0:0:
297,154,118685,2,0,B|306:128|331:110|331:110|301:105|282:84,1,108.375002067089,2|0,1:2|0:0,0:0:0:0:
250,18,118998,6,0,P|314:41|365:-4,1,144.500002756119,2|0,1:2|0:0,0:0:0:0:
440,83,119466,1,10,0:0:0:0:
440,83,119544,1,10,0:0:0:0:
440,83,119623,1,10,0:0:0:0:
503,0,119779,1,0,1:0:0:0:
512,121,119935,2,0,P|451:112|416:161,2,127.500004863739,2|0|0,1:2|1:0|1:0,0:0:0:0:
501,137,120873,5,4,0:2:0:0:
162,338,122427,2,0,P|132:337|104:327,1,59.4999981842042,8|0,0:2|0:0,0:0:0:0:
0,346,122748,6,0,P|20:307|11:264,1,89.2499972763062,2|0,1:2|0:0,0:0:0:0:
21,255,123060,2,0,L|-2:152,1,96.8999988171387,2|0,0:2|0:0,0:0:0:0:
10,148,123373,2,0,P|30:103|79:106,1,104.550001595306,2|0,0:2|0:0,0:0:0:0:
126,159,123685,6,0,B|180:140|180:140|186:76,1,112.200003424072,2|0,1:2|0:0,0:0:0:0:
130,37,123998,2,0,L|268:67,1,127.5,2|0,1:2|0:0,0:0:0:0:
305,128,124310,5,2,1:2:0:0:
329,32,124466,1,0,1:0:0:0:
281,224,124623,6,0,B|241:201|200:228|200:228|161:253|115:228,1,173.40000105835,4|0,1:2|0:0,0:0:0:0:
365,271,125091,2,0,P|407:281|435:314,1,86.7000005291748,2|0,1:2|0:0,0:0:0:0:
357,251,125404,1,0,0:0:0:0:
405,92,125560,2,0,L|390:177,1,86.7000005291748,2|0,0:2|0:0,0:0:0:0:
472,0,125873,2,0,L|499:154,1,130.050000793762,2|0,0:2|0:0,0:0:0:0:
512,143,126185,5,2,1:2:0:0:
468,223,126341,1,8,0:3:0:0:
512,303,126498,1,8,0:3:0:0:
390,177,126654,1,2,1:2:0:0:
433,347,126810,2,0,P|396:324|353:323,1,86.7000005291748,2|0,0:2|0:0,0:0:0:0:
175,277,127123,2,0,B|345:246,1,173.40000105835,2|8,0:2|1:2,0:0:0:0:
174,276,127591,5,8,0:2:0:0:
303,369,127748,1,8,1:2:0:0:
158,264,127904,1,8,0:2:0:0:
24,383,128060,6,0,P|38:297|21:213,1,173.40000105835,6|0,1:2|0:0,0:0:0:0:
111,0,128529,2,0,P|97:84|115:169,1,173.40000105835,2|0,1:2|0:0,0:0:0:0:
307,85,128998,2,0,L|320:-9,1,86.7000005291748,2|0,0:2|0:0,0:0:0:0:
200,101,129310,2,0,L|213:195,1,86.7000005291748,2|0,1:2|0:0,0:0:0:0:
486,176,129623,5,2,1:2:0:0:
357,268,129779,1,8,0:3:0:0:
351,247,129935,1,8,0:3:0:0:
505,168,130091,5,2,1:2:0:0:
456,352,130248,2,0,P|465:309|478:268,1,86.7000005291748,2|0,0:2|0:0,0:0:0:0:
309,117,130560,2,0,P|246:104|195:141,1,130.050000793762,2|0,1:2|0:0,0:0:0:0:
172,148,130873,5,8,1:2:0:0:
223,260,131029,1,8,0:2:0:0:
66,209,131185,1,8,1:2:0:0:
101,47,131341,1,8,0:2:0:0:
130,280,131498,6,0,B|160:312|160:312|292:291,1,173.40000105835,6|0,1:2|0:0,0:0:0:0:
98,384,131966,2,0,B|13:370,1,86.7000005291748,2|0,1:2|0:0,0:0:0:0:
122,376,132279,1,0,0:0:0:0:
212,228,132435,2,0,P|249:207|292:207,1,86.7000005291748,2|0,0:2|0:0,0:0:0:0:
66,209,132748,2,0,P|16:168|2:105,1,130.050000793762,2|0,0:2|0:0,0:0:0:0:
10,84,133060,5,2,1:2:0:0:
46,0,133216,1,8,0:3:0:0:
110,65,133373,1,8,0:3:0:0:
273,0,133529,1,2,1:2:0:0:
209,141,133685,2,0,L|195:43,1,86.7000005291748,2|0,0:2|0:0,0:0:0:0:
426,53,133998,2,0,P|384:45|344:62,1,86.7000005291748,2|0,0:2|0:0,0:0:0:0:
248,238,134310,5,8,1:2:0:0:
312,156,134466,1,8,0:2:0:0:
209,141,134623,5,8,1:2:0:0:
375,272,134779,1,8,0:2:0:0:
182,320,134935,6,0,P|119:269|39:280,1,164.90000390007,6|0,1:2|0:0,0:0:0:0:
119,88,135403,1,2,1:2:0:0:
19,161,135560,2,0,L|100:176,1,82.4500019500351,2|0,0:2|0:0,0:0:0:0:
207,66,135872,2,0,L|287:50,1,82.4500019500351,2|0,0:2|0:0,0:0:0:0:
367,231,136185,2,0,L|492:255,1,123.675002925053,2|0,1:2|0:0,0:0:0:0:
505,246,136497,6,0,B|466:225|427:242|427:242|388:257|347:237,1,161.499995687485,2|0,1:2|0:0,0:0:0:0:
202,266,136966,1,0,1:0:0:0:
265,190,137122,1,10,0:0:0:0:
266,183,137200,1,10,0:0:0:0:
267,176,137278,1,10,0:0:0:0:
123,237,137435,2,0,P|123:170|76:121,1,139.400002127075,0|0,1:0|1:0,0:0:0:0:
55,119,138060,6,0,B|86:132|100:160|100:160|79:90|115:38,1,188.700004606934,4|0,1:2|0:0,0:0:0:0:
331,7,138528,2,0,B|302:17|302:17|272:17|241:-7,1,94.3500023034669,2|0,1:2|0:0,0:0:0:0:
386,63,138841,1,0,0:0:0:0:
221,164,138997,2,0,P|200:126|202:76,1,94.3500023034669,2|0,0:2|0:0,0:0:0:0:
453,153,139310,2,0,L|313:131,1,141.5250034552,2|0,0:2|0:0,0:0:0:0:
292,123,139622,5,2,1:2:0:0:
296,213,139778,1,8,0:3:0:0:
216,254,139935,1,8,0:3:0:0:
386,213,140091,1,2,1:2:0:0:
254,333,140247,2,0,P|296:314|342:321,1,94.3500023034669,2|0,0:2|0:0,0:0:0:0:
212,83,140560,2,0,B|176:107|176:107|125:112|84:68,1,141.5250034552,2|0,0:2|0:0,0:0:0:0:
79,52,140872,5,8,1:2:0:0:
257,16,141028,1,8,0:2:0:0:
88,72,141185,1,8,1:2:0:0:
310,77,141341,1,8,0:2:0:0:
149,148,141497,6,0,B|97:143|55:182|55:182|47:228|79:261,1,188.700004606934,6|0,1:2|0:0,0:0:0:0:
310,335,141966,2,0,P|234:356|217:269,1,188.700004606934,2|0,1:2|0:0,0:0:0:0:
383,206,142435,2,0,P|391:160|377:116,1,94.3500023034669,2|0,0:2|0:0,0:0:0:0:
410,307,142747,2,0,P|444:337|490:348,1,94.3500023034669,2|0,0:2|0:0,0:0:0:0:
254,126,143060,5,2,1:2:0:0:
387,33,143216,1,8,0:3:0:0:
380,12,143372,1,8,0:3:0:0:
263,145,143528,5,2,1:2:0:0:
148,0,143685,2,0,B|126:9|101:4|101:4|124:15|135:36,1,94.3500023034669,2|0,0:2|0:0,0:0:0:0:
153,245,143997,2,0,L|184:106,1,141.5250034552,2|0,0:2|0:0,0:0:0:0:
196,91,144310,5,8,1:2:0:0:
88,192,144466,1,8,0:2:0:0:
263,145,144622,1,8,1:2:0:0:
54,96,144778,1,8,0:2:0:0:
232,11,144935,6,0,B|267:28|305:14|305:14|330:32|330:32|369:17|409:38,1,188.700004606934,6|0,1:2|0:0,0:0:0:0:
483,216,145403,2,0,P|487:170|521:139,1,94.3500023034669,2|0,1:2|0:0,0:0:0:0:
507,291,145716,1,0,0:0:0:0:
313,207,145872,2,0,L|406:227,1,94.3500023034669,2|0,0:2|0:0,0:0:0:0:
161,341,146185,2,0,B|126:329|126:329|230:306,1,141.5250034552,2|0,1:2|0:0,0:0:0:0:
244,291,146497,5,2,1:2:0:0:
153,244,146653,1,8,0:3:0:0:
239,187,146810,1,8,0:3:0:0:
161,341,146966,1,2,1:2:0:0:
54,206,147122,2,0,P|17:177|-27:173,1,94.3500023034669,2|0,0:2|0:0,0:0:0:0:
144,7,147435,2,0,B|123:30|123:30|136:93,1,94.3500023034669,2|0,0:2|0:0,0:0:0:0:
325,130,147747,5,8,1:2:0:0:
237,77,147903,1,8,0:2:0:0:
292,264,148060,5,8,1:2:0:0:
427,125,148216,1,8,0:2:0:0:
283,274,148372,6,0,B|421:253|421:253|367:228,1,176.799998920898,6|0,1:2|0:0,0:0:0:0:
242,384,148840,1,2,1:2:0:0:
168,292,148997,2,0,P|170:250|189:207,1,88.3999994604492,2|0,0:2|0:0,0:0:0:0:
264,86,149309,2,0,P|283:124|286:168,1,88.3999994604492,2|0,0:2|0:0,0:0:0:0:
38,106,149622,2,0,B|48:90|62:74|62:74|100:103|96:157,1,132.599999190674,2|0,1:2|0:0,0:0:0:0:
71,224,149934,5,4,1:2:0:0:
194,135,150090,2,0,P|185:89|167:49,1,90.9499972244264,2|0,0:2|0:0,0:0:0:0:
50,238,150403,5,2,1:2:0:0:
215,121,150559,2,0,P|219:74|211:31,1,90.9499972244264,2|0,0:2|0:0,0:0:0:0:
29,252,150872,5,2,0:2:0:0:
128,329,151028,1,2,0:2:0:0:
241,278,151184,2,0,P|277:251|321:249,1,90.9499972244264,2|0,1:2|0:0,0:0:0:0:
445,50,151497,6,0,P|360:61|324:139,1,180.200000274963,4|0,1:2|0:0,0:0:0:0:
462,253,151965,1,2,1:2:0:0:
468,159,152122,1,2,0:2:0:0:
396,325,152278,1,2,0:2:0:0:
271,194,152434,6,0,P|242:156|209:127,1,90.1000001374817,2|0,1:2|0:0,0:0:0:0:
397,202,152747,1,2,1:2:0:0:
284,325,152903,1,0,0:0:0:0:
161,211,153059,6,0,P|146:254|142:298,1,90.1000001374817,4|0,1:2|0:0,0:0:0:0:
201,375,153371,1,2,0:2:0:0:
52,232,153527,6,0,P|37:189|33:145,1,90.1000001374817,2|0,1:2|0:0,0:0:0:0:
88,60,153839,1,2,0:2:0:0:
264,88,153996,6,0,P|227:62|187:46,1,87.5499992652512,2|0,0:2|0:0,0:0:0:0:
42,236,154309,2,0,P|28:194|23:151,1,87.5499992652512,2|0,1:2|0:0,0:0:0:0:
271,79,154621,2,0,P|328:105|381:70,1,131.324998897877,2|0,1:2|0:0,0:0:0:0:
406,0,154934,5,4,1:2:0:0:
476,128,155090,1,2,0:2:0:0:
428,11,155246,1,2,0:2:0:0:
378,184,155402,2,0,B|363:250|409:287|409:287|394:257|405:217,1,178.499994552612,2|2,1:2|0:0,0:0:0:0:
121,172,155871,5,2,1:2:0:0:
202,188,156027,1,2,0:2:0:0:
284,205,156184,1,2,0:0:0:0:
76,102,156340,5,2,1:2:0:0:
229,267,156496,1,2,0:2:0:0:
271,56,156652,1,2,0:2:0:0:
83,250,156809,5,4,1:2:0:0:
