osu file format v14

[General]
AudioFilename: audio.mp3
AudioLeadIn: 0
PreviewTime: 19002
Countdown: 0
SampleSet: Soft
StackLeniency: 0.4
Mode: 0
LetterboxInBreaks: 0
WidescreenStoryboard: 1

[Editor]
DistanceSpacing: 1.5
BeatDivisor: 4
GridSize: 32
TimelineZoom: 2.500001

[Metadata]
Title:fairy ring
TitleUnicode:fairy ring
Artist:Cororo
ArtistUnicode:Cororo
Creator:August
Version:hard
Source:東方輝針城 ~ Double Dealing Character.
Tags:東方Project kodama instrumental touhou 2hu すのうまん Château Bleu riverside c85 comiket 85 RSCD-0014 folk video game 不思議な不思議な道具達 strange instruments 九十九弁々 Tsukumo Benben chateau
BeatmapID:2323868
BeatmapSetID:1110174

[Difficulty]
HPDrainRate:5
CircleSize:3.8
OverallDifficulty:6.4
ApproachRate:8
SliderMultiplier:1.45
SliderTickRate:1

[Events]
//Background and Video events
0,0,"bg.jpg",0,0
//Break Periods
//Storyboard Layer 0 (Background)
//Storyboard Layer 1 (Fail)
//Storyboard Layer 2 (Pass)
//Storyboard Layer 3 (Foreground)
//Storyboard Layer 4 (Overlay)
//Storyboard Sound Samples

[TimingPoints]
245,365.853658536585,6,2,2,60,1,0
336,275.229357798165,6,2,2,60,1,0
404,280.439354989484,6,2,2,60,1,0
1525,319.148936170213,6,2,2,60,1,0
2163,389.61038961039,6,2,2,60,1,0
2260,392.156862745098,6,2,2,60,1,0
2848,387.096774193548,6,2,2,60,1,0
4009,348.837209302326,6,2,2,60,1,0
4096,410.958904109589,6,2,2,60,1,0
4917,337.078651685393,6,2,2,60,1,0
5254,333.333333333333,6,2,2,60,1,0
5587,331.491712707182,6,2,2,60,1,0
5918,434.782608695652,6,2,2,60,1,0
6026,375,6,2,2,60,1,0
7151,314.13612565445,6,2,2,60,1,0
7779,400,6,2,2,60,1,0
7829,394.736842105263,6,2,2,60,1,0
8421,318.979266347687,6,2,2,60,1,0
9058,322.58064516129,6,2,2,60,1,0
9380,344.827586206897,6,2,2,60,1,0
9724,375,6,2,2,60,1,0
9817,356.294536817102,6,2,2,60,1,0
11242,335.195530726257,6,2,2,60,1,0
11912,363.636363636364,6,2,2,60,1,0
12033,267.857142857143,6,2,2,60,1,0
12122,274.725274725275,6,2,2,60,1,0
14319,337.078651685393,6,2,2,60,1,0
14403,297.029702970297,6,2,2,60,1,0
14440,301.810865191147,6,2,2,60,1,0
18061,309.278350515464,6,2,2,60,1,0
18370,316.038978140637,6,2,2,60,1,0
19002,312.5,6,2,4,60,1,0
19002,-125,6,2,4,60,0,0
20798,-125,6,2,4,5,0,0
20877,-125,6,2,4,60,0,0
22048,-125,6,2,2,5,0,0
22127,-100,6,2,2,70,0,0
22752,-111.111111111111,6,2,2,65,0,0
23689,-111.111111111111,6,2,4,65,0,0
24002,-111.111111111111,6,2,2,65,0,0
25564,-111.111111111111,6,2,4,65,0,0
26111,-111.111111111111,6,2,2,5,0,0
26189,-111.111111111111,6,2,2,65,0,0
27439,-111.111111111111,6,2,4,65,0,0
28064,-111.111111111111,6,2,2,65,0,0
29002,-111.111111111111,6,2,3,65,0,0
29314,-111.111111111111,6,2,3,65,0,0
29627,-111.111111111111,6,2,2,60,0,0
29861,-111.111111111111,6,2,2,5,0,0
29939,-111.111111111111,6,2,2,65,0,0
30252,312.5,11,2,2,70,1,0
30252,-111.111111111111,11,2,2,70,0,0
34314,-111.111111111111,11,2,4,70,0,0
35252,-111.111111111111,11,2,2,70,0,0
35408,-111.111111111111,11,2,3,65,0,0
35877,-111.111111111111,11,2,2,65,0,0
36502,312.5,5,2,2,70,1,0
36502,-111.111111111111,5,2,2,70,0,0
37127,-111.111111111111,5,2,3,70,0,0
37439,-111.111111111111,5,2,2,70,0,0
37673,-111.111111111111,5,2,2,5,0,0
37752,-111.111111111111,5,2,2,65,0,0
37986,-111.111111111111,5,2,2,5,0,0
38064,-111.111111111111,5,2,2,70,0,0
38689,-111.111111111111,5,2,3,70,0,0
39002,-111.111111111111,5,2,2,70,0,0
39236,-111.111111111111,5,2,2,5,0,0
39314,-111.111111111111,5,2,2,65,0,0
39548,-111.111111111111,5,2,2,5,0,0
39626,312.5,11,2,4,50,1,0
39626,-125,11,2,4,50,0,0
41110,-125,11,2,4,5,0,0
41188,-125,11,2,4,50,0,0
42360,-125,11,2,4,5,0,0
42438,-125,11,2,3,50,0,0
43063,-125,11,2,4,50,0,0
44547,-125,11,2,4,5,0,0
44626,-125,11,2,4,50,0,0
45797,-125,11,2,4,5,0,0
45876,-125,11,2,3,50,0,0
46501,-125,11,2,4,50,0,0
47985,-125,11,2,4,5,0,0
48063,-125,11,2,4,50,0,0
49235,-125,11,2,4,5,0,0
49313,-125,11,2,3,55,0,0
49938,312.5,5,2,4,55,1,0
49938,-125,5,2,4,55,0,0
50172,-125,5,2,3,55,0,0
50406,-125,5,2,4,55,0,0
50797,-125,5,2,4,5,0,0
50875,-125,5,2,4,60,0,0
51422,-125,5,2,4,5,0,0
51500,-120.481927710843,5,2,4,63,0,0
51656,-120.481927710843,5,2,12,63,0,0
51969,-120.481927710843,5,2,4,66,0,0
52203,-120.481927710843,5,2,4,5,0,0
52281,-120.481927710843,5,2,4,66,0,0
52672,-120.481927710843,5,2,4,5,0,0
52750,-120.481927710843,5,2,2,70,0,0
53063,312.5,11,2,11,75,1,0
53063,-105.263157894737,11,2,11,75,0,0
53375,-105.263157894737,11,2,2,75,0,0
54547,-105.263157894737,11,2,2,5,0,0
54625,-105.263157894737,11,2,2,75,0,0
54781,-105.263157894737,11,2,12,75,0,0
55094,-105.263157894737,11,2,2,75,0,0
55875,-105.263157894737,11,2,3,75,0,0
56500,-105.263157894737,11,2,2,75,0,0
58219,-105.263157894737,11,2,12,75,0,0
58531,-105.263157894737,11,2,2,75,0,0
59234,-105.263157894737,11,2,2,5,0,0
59313,-105.263157894737,11,2,3,75,0,0
59938,-105.263157894737,11,2,2,75,0,0
61422,-105.263157894737,11,2,2,5,0,0
61500,-105.263157894737,11,2,2,75,0,0
61656,-105.263157894737,11,2,12,75,0,0
61969,-105.263157894737,11,2,2,75,0,0
62750,-105.263157894737,11,2,3,72,0,0
63063,-105.263157894737,11,2,3,78,0,0
63375,312.5,5,2,2,70,1,0
63375,-105.263157894737,5,2,2,70,0,0
64859,-105.263157894737,5,2,2,5,0,0
64937,-105.263157894737,5,2,2,70,0,0
65093,-105.263157894737,5,2,12,70,0,0
65406,-105.263157894737,5,2,2,67,0,0
66500,-117.647058823529,5,2,11,60,0,0
66656,-117.647058823529,5,2,2,60,0,0
71187,312.5,6,2,2,60,1,0
71187,-117.647058823529,6,2,2,60,0,0
71421,-117.647058823529,6,2,2,5,0,0
71499,-117.647058823529,6,2,2,60,0,0
73062,312.5,11,2,2,65,1,0
73062,-117.647058823529,11,2,2,65,0,0
74233,-117.647058823529,11,2,2,5,0,0
74312,-117.647058823529,11,2,2,65,0,0
75796,-117.647058823529,11,2,2,5,0,0
75874,-117.647058823529,11,2,2,65,0,0
76499,312.5,6,2,4,60,1,0
76499,-117.647058823529,6,2,4,60,0,0
77749,-117.647058823529,6,2,2,60,0,0
77983,-117.647058823529,6,2,2,5,0,0
78061,-117.647058823529,6,2,2,60,0,0
78295,-117.647058823529,6,2,2,5,0,0
78374,-117.647058823529,6,2,2,66,0,0
78842,-117.647058823529,6,2,3,60,0,0
79155,-117.647058823529,6,2,2,60,0,0
79311,-117.647058823529,6,2,2,55,0,0
79624,-117.647058823529,6,2,2,70,0,0
79936,-117.647058823529,6,2,2,85,0,0
80249,312.5,11,2,5,80,1,0
80249,-100,11,2,5,80,0,0
80561,-100,11,2,2,80,0,0
81733,-100,11,2,2,5,0,0
81811,-100,11,2,2,80,0,0
81967,-100,11,2,12,80,0,0
82280,-100,11,2,2,80,0,0
83061,-100,11,2,3,80,0,0
83686,-100,11,2,2,80,0,0
85405,-100,11,2,12,80,0,0
85717,-100,11,2,2,80,0,0
86420,-100,11,2,2,5,0,0
86499,-100,11,2,3,82,0,0
87124,-100,11,2,2,80,0,0
88608,-100,11,2,2,5,0,0
88686,-100,11,2,2,80,0,0
88842,-100,11,2,12,80,0,0
89155,-100,11,2,2,80,0,0
89936,-100,11,2,3,75,0,0
90249,-100,11,2,3,83,0,0
90561,312.5,5,2,2,77,1,0
90561,-105.263157894737,5,2,2,77,0,0
92045,-105.263157894737,5,2,2,5,0,0
92123,-105.263157894737,5,2,2,77,0,0
92279,-105.263157894737,5,2,12,77,0,0
92592,-105.263157894737,5,2,2,72,0,0
93061,-105.263157894737,5,2,2,72,0,0
93373,-105.263157894737,5,2,2,55,0,0
93451,-105.263157894737,5,2,2,65,0,0
93529,-105.263157894737,5,2,2,75,0,0
93607,-105.263157894737,5,2,2,85,0,0
93686,312.5,11,2,11,80,1,0
93686,-100,11,2,11,80,0,0
93998,-100,11,2,2,80,0,0
95170,-100,11,2,2,5,0,0
95248,-100,11,2,2,80,0,0
95404,-100,11,2,12,80,0,0
95717,-100,11,2,2,80,0,0
96498,-100,11,2,3,80,0,0
97123,-100,11,2,2,80,0,0
98842,-100,11,2,12,80,0,0
99154,-100,11,2,2,80,0,0
99857,-100,11,2,2,5,0,0
99936,-100,11,2,3,83,0,0
100561,-100,11,2,2,80,0,0
102045,-100,11,2,2,5,0,0
102123,-100,11,2,2,80,0,0
102279,-100,11,2,12,80,0,0
102592,-100,11,2,2,80,0,0
103373,-100,11,2,3,77,0,0
103686,-100,11,2,3,84,0,0
103998,312.5,5,2,2,77,1,0
103998,-105.263157894737,5,2,2,77,0,0
105482,-105.263157894737,5,2,2,5,0,0
105560,-105.263157894737,5,2,2,77,0,0
105716,-105.263157894737,5,2,12,77,0,0
106029,-105.263157894737,5,2,2,70,0,0
106498,-111.111111111111,5,2,2,60,0,0
107123,-117.647058823529,5,2,5,60,0,0
107435,-117.647058823529,5,2,2,60,0,0
110248,312.5,11,2,2,60,1,0
110248,-117.647058823529,11,2,2,60,0,0
112044,-117.647058823529,11,2,2,5,0,0
112123,-117.647058823529,11,2,2,60,0,0
113685,-117.647058823529,11,2,2,65,0,0
114857,-117.647058823529,11,2,2,5,0,0
114935,-117.647058823529,11,2,2,65,0,0
116419,-117.647058823529,11,2,2,5,0,0
116498,-117.647058823529,11,2,2,65,0,0
117123,312.5,6,2,4,60,1,0
117123,-117.647058823529,6,2,4,60,0,0
118373,-117.647058823529,6,2,2,60,0,0
118607,-117.647058823529,6,2,2,5,0,0
118685,-117.647058823529,6,2,2,60,0,0
118919,-117.647058823529,6,2,2,5,0,0
118998,-117.647058823529,6,2,2,68,0,0
119466,-117.647058823529,6,2,3,60,0,0
119779,-117.647058823529,6,2,2,60,0,0
119935,-133.333333333333,6,2,2,60,0,0
120248,-133.333333333333,6,2,2,55,0,0
120560,-133.333333333333,6,2,2,50,0,0
120873,310.880829015544,6,2,2,45,1,0
120873,-133.333333333333,6,2,2,45,0,0
122427,-142.857142857143,6,2,3,60,0,0
122748,312.5,3,2,2,55,1,0
122748,-142.857142857143,3,2,2,55,0,0
122982,-117.647058823529,3,2,2,5,0,0
123060,-131.578947368421,3,2,2,60,0,0
123294,-117.647058823529,3,2,2,5,0,0
123373,-121.951219512195,3,2,2,65,0,0
123607,-117.647058823529,3,2,2,5,0,0
123685,-117.647058823529,3,2,2,70,0,0
123919,-117.647058823529,3,2,2,5,0,0
123998,-111.111111111111,3,2,2,75,0,0
124232,-117.647058823529,3,2,2,5,0,0
124310,-105.263157894737,3,2,2,85,0,0
124623,312.5,11,2,5,83,1,0
124623,-98.0392156862745,11,2,5,83,0,0
124935,-98.0392156862745,11,2,2,83,0,0
126107,-100,11,2,2,5,0,0
126185,-98.0392156862745,11,2,2,83,0,0
126341,-98.0392156862745,11,2,12,83,0,0
126654,-98.0392156862745,11,2,2,83,0,0
127435,-98.0392156862745,11,2,3,83,0,0
128060,-98.0392156862745,11,2,2,83,0,0
129779,-98.0392156862745,11,2,12,83,0,0
130091,-98.0392156862745,11,2,2,83,0,0
130794,-100,11,2,2,5,0,0
130873,-98.0392156862745,11,2,3,86,0,0
131498,-98.0392156862745,11,2,2,83,0,0
132982,-100,11,2,2,5,0,0
133060,-98.0392156862745,11,2,2,83,0,0
133216,-98.0392156862745,11,2,12,83,0,0
133529,-98.0392156862745,11,2,2,83,0,0
134310,-98.0392156862745,11,2,3,77,0,0
134623,-98.0392156862745,11,2,3,87,0,0
134935,312.5,5,2,2,77,1,0
134935,-103.092783505155,5,2,2,77,0,0
136419,-105.263157894737,5,2,2,5,0,0
136497,-105.263157894737,5,2,2,70,0,0
137122,-105.263157894737,5,2,3,75,0,0
137435,-121.951219512195,5,2,2,65,0,0
138060,312.5,11,2,5,83,1,0
138060,-95.2380952380952,11,2,5,83,0,0
138372,-95.2380952380952,11,2,2,83,0,0
139544,-95.2380952380952,11,2,2,5,0,0
139622,-95.2380952380952,11,2,2,83,0,0
139778,-95.2380952380952,11,2,12,83,0,0
140091,-95.2380952380952,11,2,2,83,0,0
140794,-95.2380952380952,11,2,2,5,0,0
140872,-95.2380952380952,11,2,3,87,0,0
141497,-95.2380952380952,11,2,2,83,0,0
143216,-95.2380952380952,11,2,12,83,0,0
143528,-95.2380952380952,11,2,2,83,0,0
144231,-95.2380952380952,11,2,2,5,0,0
144310,-95.2380952380952,11,2,3,87,0,0
144935,-95.2380952380952,11,2,2,83,0,0
146419,-95.2380952380952,11,2,2,5,0,0
146497,-95.2380952380952,11,2,2,83,0,0
146653,-95.2380952380952,11,2,12,83,0,0
146966,-95.2380952380952,11,2,2,83,0,0
147747,-95.2380952380952,11,2,3,75,0,0
148060,-95.2380952380952,11,2,3,90,0,0
148372,312.5,5,2,2,77,1,0
148372,-100,5,2,2,77,0,0
149309,-100,5,2,2,74,0,0
149856,-100,5,2,2,5,0,0
149934,-97.0873786407767,5,2,5,80,0,0
150090,-97.0873786407767,5,2,4,80,0,0
151497,-97.0873786407767,5,2,2,80,0,0
151965,-97.0873786407767,5,2,4,80,0,0
152434,-97.0873786407767,5,2,4,73,0,0
153059,312.5,6,2,2,83,1,0
153059,-97.0873786407767,6,2,2,83,0,0
153371,-97.0873786407767,6,2,4,80,0,0
153996,-97.0873786407767,6,2,4,74,0,0
154621,-97.0873786407767,6,2,2,80,0,0
154855,-100,6,2,2,5,0,0
154934,-95.2380952380952,6,2,11,83,0,0
155090,-95.2380952380952,6,2,2,70,0,0
155402,-95.2380952380952,6,2,2,85,0,0
155715,-95.2380952380952,6,2,2,70,0,0
155871,-95.2380952380952,6,2,2,83,0,0
156184,-95.2380952380952,6,2,2,75,0,0
156340,-95.2380952380952,6,2,2,85,0,0
156496,-95.2380952380952,6,2,2,77,0,0
156652,-100,6,2,2,69,0,0
156809,-100,6,2,5,90,0,0
156887,-100,6,2,2,60,0,0

[Colours]
Combo1 : 250,173,175
Combo2 : 158,214,122
Combo3 : 157,201,255
Combo4 : 222,190,239

[HitObjects]
323,296,19002,6,0,P|351:286|380:285,2,58,4|0|2,1:2|0:0|0:2,0:0:0:0:
247,328,19470,2,0,P|228:306|203:290,2,58,2|0|0,1:2|0:0|0:0,0:0:0:0:
313,380,19939,1,2,0:2:0:0:
465,311,20252,1,2,0:2:0:0:
346,194,20564,2,0,B|328:186|328:186|281:196,1,58,2|0,1:2|0:0,0:0:0:0:
211,222,20877,6,0,B|144:209,2,58,2|0|2,1:2|0:0|0:2,0:0:0:0:
230,142,21345,1,2,1:2:0:0:
230,142,21502,2,0,P|226:113|216:86,1,58,0|0,0:0|0:0,0:0:0:0:
151,0,21814,2,0,P|148:42|116:69,1,87,2|0,0:2|0:0,0:0:0:0:
90,74,22127,6,0,P|55:79|19:86,1,72.5,2|2,1:2|0:0,0:0:0:0:
74,170,22439,1,2,1:2:0:0:
74,170,22595,1,2,0:0:0:0:
0,238,22752,6,0,P|60:221|107:263,1,130.499996017456,6|0,1:2|0:0,0:0:0:0:
215,288,23220,2,0,P|154:304|107:262,1,130.499996017456,0|0,1:0|0:0,0:0:0:0:
7,335,23689,2,0,P|38:329|69:339,1,65.2499980087281,2|0,0:2|0:0,0:0:0:0:
166,384,24002,2,0,P|230:374|293:357,1,130.499996017456,2|0,0:2|1:0,0:0:0:0:
300,274,24470,5,2,0:2:0:0:
300,274,24548,1,2,0:2:0:0:
300,274,24627,2,0,P|358:296|381:360,1,130.499996017456,2|0,1:2|0:0,0:0:0:0:
473,384,25095,1,0,1:0:0:0:
512,289,25252,2,0,B|526:200|526:200|490:138,2,130.499996017456,2|2|2,0:2|0:2|1:2,0:0:0:0:
352,186,26189,2,0,L|314:179,2,32.624999004364,0|0|0,1:0|0:0|0:0,0:0:0:0:
424,140,26502,6,0,P|431:109|447:81,1,65.2499980087281,2|0,1:2|0:0,0:0:0:0:
408,0,26814,1,2,0:2:0:0:
408,0,26970,2,0,L|320:-13,2,65.2499980087281,2|0|0,1:2|0:0|0:0,0:0:0:0:
349,89,27439,2,0,P|297:52|235:33,1,130.499996017456,2|2,0:2|0:2,0:0:0:0:
191,214,28064,5,2,1:2:0:0:
258,290,28220,1,2,0:2:0:0:
306,206,28377,6,0,B|261:195|261:195|231:219|231:219|170:228,1,130.499996017456,2|0,1:2|0:0,0:0:0:0:
108,286,28845,1,0,1:0:0:0:
108,286,29002,2,0,P|77:273|45:271,1,65.2499980087281,8|8,0:0|0:0,0:0:0:0:
0,198,29314,1,10,0:0:0:0:
0,198,29392,1,10,0:0:0:0:
0,198,29470,1,10,0:0:0:0:
26,107,29627,6,0,B|60:128|60:128|127:113,1,97.8749970130921,0|0,1:0|0:0,0:0:0:0:
137,110,29939,1,0,1:0:0:0:
216,57,30095,1,0,0:0:0:0:
259,143,30252,6,0,P|322:142|369:186,1,130.499996017456,4|0,1:2|0:0,0:0:0:0:
451,102,30720,2,0,P|471:162|445:220,1,130.499996017456,2|0,1:2|0:0,0:0:0:0:
465,321,31189,2,0,P|434:313|401:315,1,65.2499980087281,2|0,0:2|0:0,0:0:0:0:
305,348,31502,2,0,P|274:335|249:315,1,65.2499980087281,2|0,0:2|0:0,0:0:0:0:
192,232,31814,6,0,B|171:217|141:221|141:221|116:250|111:298,1,130.499996017456,2|0,1:2|0:0,0:0:0:0:
0,328,32283,2,0,B|21:343|51:339|51:339|76:310|81:262,1,130.499996017456,2|0,1:2|0:0,0:0:0:0:
0,204,32752,2,0,P|5:173|25:147,1,65.2499980087281,2|0,0:2|0:0,0:0:0:0:
27,62,33064,2,0,P|56:47|88:48,1,65.2499980087281,2|0,1:2|0:0,0:0:0:0:
157,0,33377,1,2,1:2:0:0:
186,173,33689,6,0,P|243:148|255:87,1,130.499996017456,6|0,1:2|0:0,0:0:0:0:
337,32,34158,1,0,1:0:0:0:
337,32,34314,2,0,L|414:44,1,65.2499980087281,2|0,0:2|0:0,0:0:0:0:
448,126,34627,2,0,L|383:116,1,65.2499980087281,2|0,0:2|0:0,0:0:0:0:
311,180,34939,2,0,L|388:192,1,65.2499980087281,2|0,0:2|0:0,0:0:0:0:
235,212,35252,6,0,P|254:237|259:269,1,65.2499980087281,2|8,0:2|0:2,0:0:0:0:
220,359,35564,1,8,0:2:0:0:
220,359,35642,1,8,0:2:0:0:
220,359,35720,1,8,0:2:0:0:
314,341,35877,2,0,L|384:327,1,65.2499980087281,0|0,1:0|0:0,0:0:0:0:
425,255,36189,5,0,1:0:0:0:
481,334,36345,1,0,0:0:0:0:
509,232,36502,6,0,P|476:178|492:117,1,130.499996017456,4|0,1:2|0:0,0:0:0:0:
512,27,36970,1,2,1:2:0:0:
426,71,37127,2,0,P|393:72|361:65,1,65.2499980087281,8|8,0:0|0:0,0:0:0:0:
267,17,37439,2,0,B|252:57|252:57|208:51|160:79,1,130.499996017456,2|2,1:2|1:2,0:0:0:0:
274,239,38064,6,0,P|211:245|164:203,1,130.499996017456,2|0,1:2|0:0,0:0:0:0:
74,229,38533,1,0,1:0:0:0:
134,300,38689,2,0,P|143:330|137:362,1,65.2499980087281,8|8,0:0|0:0,0:0:0:0:
240,384,39002,2,0,B|254:343|254:343|298:349|346:321,1,130.499996017456,2|2,1:2|1:2,0:0:0:0:
510,352,39626,6,0,P|503:296|467:252,1,116,6|0,1:2|0:0,0:0:0:0:
426,157,40094,2,0,P|370:170|314:155,1,116,2|0,1:2|0:0,0:0:0:0:
224,184,40563,2,0,L|163:171,1,58,2|0,0:2|0:0,0:0:0:0:
120,241,40876,1,2,0:2:0:0:
36,92,41188,2,0,P|44:65|42:36,2,58,2|0|0,1:2|0:0|0:0,0:0:0:0:
132,104,41657,1,2,1:2:0:0:
132,104,41813,2,0,L|206:90,1,58,2|0,0:2|0:0,0:0:0:0:
229,0,42126,2,0,P|266:20|309:17,1,87,2|0,0:2|0:0,0:0:0:0:
335,29,42438,6,0,L|404:42,1,58,8|8,1:2|0:2,0:0:0:0:
291,99,42751,2,0,L|339:150,1,58,8|8,1:2|0:2,0:0:0:0:
209,103,43063,6,0,P|167:141|170:197,1,116,2|0,1:2|0:0,0:0:0:0:
108,269,43532,2,0,P|160:245|217:250,1,116,2|0,1:2|0:0,0:0:0:0:
227,341,44001,2,0,L|165:355,1,58,2|0,0:2|0:0,0:0:0:0:
306,384,44313,1,2,0:2:0:0:
444,284,44626,2,0,L|506:296,2,58,2|0|0,1:2|0:0|0:0,0:0:0:0:
391,207,45094,1,2,1:2:0:0:
391,207,45251,2,0,P|387:179|395:152,1,58,2|0,0:2|0:0,0:0:0:0:
459,83,45563,2,0,P|416:96|375:77,1,87,2|0,0:2|0:0,0:0:0:0:
355,70,45876,6,0,L|342:-6,1,58,8|8,1:2|0:2,0:0:0:0:
281,106,46188,2,0,L|225:52,1,58,8|8,1:2|0:2,0:0:0:0:
259,185,46501,6,0,P|203:180|157:212,1,116,2|0,1:2|0:0,0:0:0:0:
73,272,46969,2,0,B|85:236|85:236|57:161,1,116,2|0,1:2|0:0,0:0:0:0:
0,96,47438,2,0,L|14:26,1,58,2|0,0:2|0:0,0:0:0:0:
93,0,47751,1,2,0:2:0:0:
172,144,48063,2,0,P|166:172|171:200,2,58,2|0|0,1:2|0:0|0:0,0:0:0:0:
227,72,48532,1,0,1:2:0:0:
227,72,48688,2,0,P|255:78|284:79,1,58,2|0,0:2|0:0,0:0:0:0:
367,24,49001,2,0,P|383:63|380:106,1,87,2|0,0:2|0:0,0:0:0:0:
359,125,49313,6,0,L|346:197,1,58,8|8,1:2|0:2,0:0:0:0:
402,261,49626,1,8,1:2:0:0:
402,261,49782,1,8,0:2:0:0:
345,337,49938,6,0,P|296:310|240:318,1,116,2|8,1:2|0:2,0:0:0:0:
174,384,50406,1,2,1:2:0:0:
116,312,50563,2,0,B|91:298|91:298|21:316,1,87,2|0,0:2|0:0,0:0:0:0:
15,296,50875,2,0,P|19:268|14:239,1,58,2|0,0:2|0:0,0:0:0:0:
79,138,51188,2,0,P|80:181|112:210,1,87,2|0,1:2|0:0,0:0:0:0:
133,217,51500,6,0,P|162:228|186:245,2,60.1750008722878,2|8|8,1:2|0:3|0:3,0:0:0:0:
225,167,51969,1,0,1:0:0:0:
184,0,52281,1,0,0:0:0:0:
184,0,52438,2,0,B|177:45|177:45|154:63|154:63|129:133,1,120.350001744576,0|0,1:0|1:0,0:0:0:0:
55,159,52906,5,2,0:2:0:0:
55,159,52984,1,2,0:2:0:0:
55,159,53063,2,0,B|25:197|25:197|41:238|30:288,1,137.749996321678,4|0,1:2|0:0,0:0:0:0:
131,236,53531,2,0,L|281:259,1,137.749996321678,2|0,1:2|0:0,0:0:0:0:
342,317,54000,2,0,L|358:394,1,68.8749981608391,2|0,0:2|0:0,0:0:0:0:
450,347,54313,1,2,0:2:0:0:
370,171,54625,6,0,B|334:190|302:234|302:234|298:177,1,137.749996321678,2|0,1:2|0:3,0:0:0:0:
234,113,55094,1,2,1:2:0:0:
234,113,55250,2,0,L|161:101,1,68.8749981608391,2|0,0:2|0:0,0:0:0:0:
88,0,55563,2,0,B|52:10|52:10|66:57|34:112,1,137.749996321678,2|8,0:2|1:2,0:0:0:0:
0,194,56031,5,8,0:2:0:0:
79,250,56188,1,8,1:2:0:0:
0,202,56344,1,8,0:2:0:0:
88,176,56500,6,0,B|109:205|109:205|157:217|214:188,1,137.749996321678,2|0,1:2|0:0,0:0:0:0:
289,252,56969,2,0,B|282:209|282:209|307:170|307:170|315:121,1,137.749996321678,2|0,1:2|0:0,0:0:0:0:
386,58,57438,2,0,P|419:61|447:81,1,68.8749981608391,2|0,0:2|0:0,0:0:0:0:
504,158,57750,2,0,P|511:191|501:223,1,68.8749981608391,2|0,0:2|0:0,0:0:0:0:
444,92,58063,2,0,P|444:57|461:28,2,68.8749981608391,2|8|8,1:2|0:3|0:3,0:0:0:0:
410,190,58531,5,2,1:2:0:0:
410,190,58688,1,2,0:2:0:0:
228,89,59000,2,0,P|194:126|185:176,1,103.312497241259,2|0,0:2|0:0,0:0:0:0:
177,201,59313,6,0,L|192:269,1,68.8749981608391,8|8,1:2|0:2,0:0:0:0:
293,302,59625,1,8,1:2:0:0:
226,384,59781,1,8,0:2:0:0:
290,305,59938,6,0,B|325:296|356:316|356:316|383:337|424:329,1,137.749996321678,6|0,1:2|0:0,0:0:0:0:
488,241,60406,2,0,P|424:237|412:174,1,137.749996321678,2|0,1:2|0:0,0:0:0:0:
499,126,60875,2,0,L|512:56,1,68.8749981608391,2|0,0:2|0:0,0:0:0:0:
441,0,61188,1,2,0:2:0:0:
326,143,61500,6,0,B|311:43|311:43|264:22,1,137.749996321678,2|0,1:2|0:3,0:0:0:0:
175,60,61969,1,2,1:2:0:0:
175,60,62125,2,0,P|140:60|109:47,1,68.8749981608391,2|0,0:2|0:0,0:0:0:0:
169,149,62438,2,0,P|150:178|143:212,1,68.8749981608391,2|0,0:2|0:0,0:0:0:0:
252,247,62750,6,0,P|286:245|320:250,1,68.8749981608391,8|8,1:2|0:2,0:0:0:0:
394,328,63063,1,8,1:2:0:0:
423,225,63219,1,8,0:2:0:0:
390,333,63375,6,0,B|334:345|334:345|307:332|307:332|253:346,1,137.749996321678,6|0,1:2|0:0,0:0:0:0:
164,342,63843,1,2,1:2:0:0:
168,249,64000,2,0,L|149:163,1,68.8749981608391,2|0,0:2|0:0,0:0:0:0:
226,104,64312,2,0,L|240:171,1,68.8749981608391,2|0,0:2|0:0,0:0:0:0:
143,99,64625,2,0,P|99:72|48:76,1,103.312497241259,2|0,1:2|0:0,0:0:0:0:
33,94,64937,6,0,B|40:117|40:117|27:160,1,68.8749981608391,2|8,1:2|0:3,0:0:0:0:
68,240,65250,1,8,0:3:0:0:
0,299,65406,2,0,B|36:307|63:291|63:291|94:270|133:279,1,137.749996321678,0|0,1:0|0:0,0:0:0:0:
163,189,65875,1,0,1:0:0:0:
284,352,66187,2,0,P|315:340|339:315,1,68.8749981608391,2|2,1:2|0:2,0:0:0:0:
267,264,66500,6,0,L|254:194,2,61.6250011754036,4|0|0,1:2|0:0|0:0,0:0:0:0:
199,324,66968,2,0,L|186:394,2,61.6250011754036,0|0|0,1:0|0:0|0:0,0:0:0:0:
125,269,67437,2,0,B|118:221|148:195|148:195|126:185|107:155,1,123.250002350807,2|0,0:2|0:0,0:0:0:0:
198,117,67906,5,2,0:2:0:0:
198,117,67984,1,2,0:2:0:0:
198,117,68062,2,0,P|257:113|285:61,1,123.250002350807,2|0,1:2|0:0,0:0:0:0:
358,0,68531,2,0,P|388:0|417:9,2,61.6250011754036,0|0|0,1:0|0:0|0:0,0:0:0:0:
371,93,69000,2,0,P|396:108|427:109,1,61.6250011754036,2|0,0:2|0:0,0:0:0:0:
433,203,69312,2,0,P|463:200|488:182,1,61.6250011754036,2|0,1:2|0:0,0:0:0:0:
407,294,69625,6,0,B|381:286|355:291|355:291|343:280|343:280|310:286|282:274,1,123.250002350807,2|0,1:2|0:0,0:0:0:0:
206,332,70093,2,0,L|130:357,2,61.6250011754036,0|0|0,1:0|0:0|0:0,0:0:0:0:
203,237,70562,2,0,P|212:207|233:184,1,61.6250011754036,2|0,0:2|0:0,0:0:0:0:
163,122,70875,1,2,0:2:0:0:
0,203,71187,6,0,P|45:208|85:187,1,92.4375017631054,2|0,1:2|0:0,0:0:0:0:
81,168,71499,2,0,L|63:86,1,61.6250011754036,2|0,0:2|1:0,0:0:0:0:
163,122,71812,2,0,L|172:42,1,61.6250011754036,2|0,0:2|0:0,0:0:0:0:
259,154,72124,2,0,P|319:157|361:200,1,123.250002350807,2|0,0:2|1:0,0:0:0:0:
470,348,72749,5,2,1:2:0:0:
512,270,72905,1,2,0:2:0:0:
439,218,73062,6,0,P|461:162|513:130,1,123.250002350807,6|0,1:2|0:0,0:0:0:0:
489,37,73530,1,2,1:2:0:0:
489,37,73687,2,0,L|427:26,1,61.6250011754036,2|0,0:2|0:0,0:0:0:0:
334,0,73999,2,0,L|236:18,1,92.4375017631054,2|0,0:2|0:0,0:0:0:0:
222,29,74312,2,0,P|216:59|217:90,1,61.6250011754036,2|0,1:2|0:0,0:0:0:0:
136,156,74624,6,0,B|216:130|216:130|251:166,1,123.250002350807,2|0,1:2|0:0,0:0:0:0:
192,238,75093,1,2,1:2:0:0:
192,238,75249,2,0,L|181:298,1,61.6250011754036,2|0,0:2|0:0,0:0:0:0:
109,365,75562,2,0,P|61:371|22:343,1,92.4375017631054,2|0,0:2|0:0,0:0:0:0:
20,330,75874,2,0,L|8:261,1,61.6250011754036,2|0,1:2|0:0,0:0:0:0:
81,206,76187,2,0,L|93:137,1,61.6250011754036,2|0,1:2|0:0,0:0:0:0:
60,54,76499,6,0,P|29:49|0:57,2,61.6250011754036,2|0|0,1:2|0:3|0:0,0:0:0:0:
141,3,76967,2,0,P|171:7|200:0,2,61.6250011754036,2|2|2,1:2|0:2|0:2,0:0:0:0:
151,97,77436,2,0,P|175:115|189:142,1,61.6250011754036,2|0,1:2|0:0,0:0:0:0:
283,148,77749,1,2,1:2:0:0:
239,310,78061,1,2,1:2:0:0:
286,137,78374,6,0,P|321:186|305:244,1,123.250002350807,2|0,1:2|0:0,0:0:0:0:
222,226,78842,1,10,0:0:0:0:
222,226,78920,1,10,0:0:0:0:
222,226,78999,1,10,0:0:0:0:
152,281,79155,1,0,1:0:0:0:
119,196,79311,2,0,B|112:142|146:105|146:105|150:154,2,123.250002350807,2|2|2,1:2|1:2|1:2,0:0:0:0:
258,371,80249,6,0,B|280:360|299:334|299:334|349:321|396:351,1,145,4|0,1:2|0:0,0:0:0:0:
508,384,80717,2,0,B|497:362|471:343|471:343|458:293|488:246,1,145,2|0,1:2|0:0,0:0:0:0:
394,198,81186,2,0,P|360:188|330:168,1,72.5,2|0,0:2|0:0,0:0:0:0:
432,100,81499,2,0,P|491:86|500:30,1,108.75,2|0,0:2|0:0,0:0:0:0:
490,25,81811,6,0,P|418:25|359:-12,1,145,2|0,1:2|0:3,0:0:0:0:
249,0,82280,1,2,1:2:0:0:
249,0,82436,2,0,L|232:81,1,72.5,2|0,0:2|0:0,0:0:0:0:
280,172,82749,2,0,P|236:117|166:116,1,145,2|8,1:2|1:2,0:0:0:0:
197,199,83217,5,8,0:2:0:0:
96,173,83374,1,8,1:2:0:0:
193,203,83530,1,8,0:2:0:0:
100,169,83686,6,0,P|118:233|61:269,1,145,6|0,1:2|0:0,0:0:0:0:
0,376,84155,2,0,P|71:363|143:355,1,145,2|0,1:2|0:0,0:0:0:0:
219,285,84624,2,0,P|252:297|288:300,1,72.5,2|0,0:2|0:0,0:0:0:0:
353,381,84936,2,0,P|387:371|418:352,1,72.5,2|0,0:2|0:0,0:0:0:0:
297,294,85249,2,0,P|262:303|231:322,2,72.5,2|8|8,1:2|0:3|0:3,0:0:0:0:
326,193,85717,5,2,1:2:0:0:
326,193,85874,1,2,0:2:0:0:
512,143,86186,2,0,B|473:144|436:159|436:159|385:132,1,108.75,2|0,1:2|0:0,0:0:0:0:
389,130,86499,5,8,1:2:0:0:
423,39,86655,1,8,0:2:0:0:
332,0,86811,2,0,P|302:18|266:21,1,72.5,8|8,1:2|0:2,0:0:0:0:
148,20,87124,6,0,B|188:8|219:32|219:32|248:53|287:45,1,145,6|0,1:2|0:0,0:0:0:0:
222,131,87592,2,0,B|171:140|171:140|125:118|125:118|76:142,1,145,2|0,1:2|0:0,0:0:0:0:
0,182,88061,2,0,P|-1:145|-13:111,1,72.5,2|0,0:2|0:0,0:0:0:0:
74,219,88374,1,2,0:2:0:0:
214,384,88686,6,0,P|222:312|216:240,1,145,2|0,1:2|0:3,0:0:0:0:
313,292,89155,1,2,1:2:0:0:
313,292,89311,2,0,P|339:267|373:257,1,72.5,2|0,0:2|0:0,0:0:0:0:
449,345,89624,2,0,P|415:333|380:339,1,72.5,2|0,0:2|0:0,0:0:0:0:
463,257,89936,6,0,B|469:231|469:231|448:170,1,72.5,8|8,1:2|0:2,0:0:0:0:
349,176,90249,1,8,1:2:0:0:
412,91,90405,1,8,0:2:0:0:
345,172,90561,6,0,P|334:105|294:49,1,137.749996321678,6|0,1:2|0:0,0:0:0:0:
375,0,91029,1,2,1:2:0:0:
283,56,91186,2,0,P|250:46|215:47,1,68.8749981608391,2|0,0:2|0:0,0:0:0:0:
127,106,91498,2,0,P|155:124|189:133,1,68.8749981608391,2|0,0:2|0:0,0:0:0:0:
129,12,91811,2,0,B|99:4|99:4|74:32|29:32,1,103.312497241259,2|0,1:2|0:0,0:0:0:0:
20,50,92123,6,0,P|30:84|31:118,1,68.8749981608391,2|8,1:2|0:3,0:0:0:0:
8,217,92436,1,8,0:3:0:0:
108,203,92592,2,0,B|156:194|192:222|192:222|211:287,1,137.749996321678,0|0,1:0|0:0,0:0:0:0:
179,372,93061,1,0,1:0:0:0:
305,233,93373,2,0,P|321:237|338:239,3,34.4374990804196,2|2|2|2,0:2|0:2|0:2|0:2,0:0:0:0:
285,218,93686,6,0,B|298:150|298:150|326:122|370:123,1,145,4|0,1:2|0:0,0:0:0:0:
327,16,94154,2,0,P|396:5|453:47,1,145,2|0,1:2|0:0,0:0:0:0:
445,154,94623,2,0,P|475:135|511:130,1,72.5,2|0,0:2|0:0,0:0:0:0:
512,235,94936,2,0,P|479:275|426:280,1,108.75,2|0,0:2|0:0,0:0:0:0:
397,289,95248,6,0,B|451:293|478:329|478:329|461:349|435:362,1,145,2|0,1:2|0:3,0:0:0:0:
322,343,95717,1,2,1:2:0:0:
322,343,95873,2,0,P|290:327|254:323,1,72.5,2|0,0:2|0:0,0:0:0:0:
156,243,96186,2,0,P|191:182|260:176,1,145,2|8,1:2|1:2,0:0:0:0:
303,92,96654,5,8,0:2:0:0:
204,128,96811,1,8,1:2:0:0:
288,76,96967,1,8,0:2:0:0:
189,112,97123,6,0,B|135:108|95:78|95:78|104:101|99:123,1,145,6|0,1:2|0:0,0:0:0:0:
0,184,97592,2,0,P|50:229|27:294,1,145,2|0,1:2|0:0,0:0:0:0:
75,384,98061,2,0,P|111:384|144:370,1,72.5,2|0,0:2|0:0,0:0:0:0:
203,286,98373,2,0,P|214:251|212:215,1,72.5,2|0,0:2|0:0,0:0:0:0:
142,362,98686,2,0,P|177:368|207:387,2,72.5,2|8|8,1:2|0:3|0:3,0:0:0:0:
116,265,99154,5,2,1:2:0:0:
116,265,99311,1,2,0:2:0:0:
0,112,99623,2,0,P|53:118|100:94,1,108.75,2|0,0:2|0:0,0:0:0:0:
113,73,99936,5,8,1:2:0:0:
172,149,100092,1,8,0:2:0:0:
247,91,100248,2,0,P|272:113|319:129,1,72.5,8|8,1:2|0:2,0:0:0:0:
162,178,100561,6,0,B|149:148|149:148|118:203|160:260,1,145,6|0,1:2|0:0,0:0:0:0:
264,207,101029,2,0,P|334:216|384:267,1,145,2|0,1:2|0:0,0:0:0:0:
288,306,101498,2,0,P|253:310|225:332,1,72.5,2|0,0:2|0:0,0:0:0:0:
348,367,101811,2,0,B|459:347,1,108.75,2|0,0:2|0:0,0:0:0:0:
472,330,102123,6,0,P|481:261|434:209,1,145,2|0,1:2|0:3,0:0:0:0:
512,148,102592,1,2,1:2:0:0:
512,148,102748,2,0,L|497:73,1,72.5,2|0,0:2|0:0,0:0:0:0:
407,67,103061,2,0,P|424:35|425:0,1,72.5,2|0,0:2|0:0,0:0:0:0:
317,53,103373,6,0,B|296:143,1,72.5,8|8,1:2|0:2,0:0:0:0:
217,193,103686,1,8,1:2:0:0:
179,93,103842,1,8,0:2:0:0:
297,127,103998,6,0,B|309:183|309:183|296:210|296:210|310:264,1,137.749996321678,6|0,1:2|0:0,0:0:0:0:
250,334,104466,1,2,1:2:0:0:
158,307,104623,2,0,P|125:312|97:331,1,68.8749981608391,2|0,0:2|0:0,0:0:0:0:
36,255,104935,2,0,P|11:278|0:310,1,68.8749981608391,2|0,0:2|0:0,0:0:0:0:
118,232,105248,2,0,B|99:207|99:207|120:131,1,103.312497241259,2|0,1:2|0:0,0:0:0:0:
104,118,105560,6,0,P|138:113|171:103,1,68.8749981608391,2|8,1:2|0:3,0:0:0:0:
278,108,105873,1,8,0:3:0:0:
210,176,106029,2,0,P|273:192|286:256,1,137.749996321678,0|0,1:0|0:0,0:0:0:0:
360,316,106498,1,0,1:0:0:0:
511,187,106810,2,0,P|484:203|452:207,1,65.2499980087281,2|2,1:2|0:2,0:0:0:0:
378,154,107123,6,0,P|390:97|349:54,1,123.250002350807,4|0,1:2|0:0,0:0:0:0:
271,0,107591,2,0,P|241:9|211:13,2,61.6250011754036,0|0|0,1:0|0:0|0:0,0:0:0:0:
266,93,108060,2,0,B|241:122|241:122|267:213,1,123.250002350807,2|0,0:2|0:0,0:0:0:0:
338,272,108529,5,2,0:2:0:0:
338,272,108607,1,2,0:2:0:0:
338,272,108685,2,0,P|281:252|220:258,1,123.250002350807,2|0,1:2|0:0,0:0:0:0:
157,325,109154,2,0,P|157:355|148:384,2,61.6250011754036,0|0|0,1:0|0:0|0:0,0:0:0:0:
78,275,109623,2,0,L|15:258,1,61.6250011754036,2|0,0:2|0:0,0:0:0:0:
144,224,109935,2,0,L|120:163,1,61.6250011754036,2|0,1:2|0:0,0:0:0:0:
15,126,110248,6,0,P|75:128|122:91,1,123.250002350807,2|0,1:2|0:0,0:0:0:0:
205,41,110716,2,0,P|214:11|231:-14,2,61.6250011754036,0|0|0,1:0|0:0|0:0,0:0:0:0:
205,135,111185,2,0,P|235:144|258:165,1,61.6250011754036,2|0,0:2|0:0,0:0:0:0:
301,73,111498,1,2,0:2:0:0:
300,235,111810,6,0,P|265:265|253:308,1,92.4375017631054,2|0,1:2|0:0,0:0:0:0:
265,326,112122,2,0,P|277:353|278:384,1,61.6250011754036,2|0,0:2|1:0,0:0:0:0:
344,305,112435,2,0,P|370:320|389:344,1,61.6250011754036,2|0,0:2|0:0,0:0:0:0:
484,295,112747,2,0,P|486:233|505:175,1,123.250002350807,2|0,0:2|1:0,0:0:0:0:
307,105,113372,5,2,1:2:0:0:
381,158,113528,1,2,0:2:0:0:
373,63,113685,6,0,B|341:42|313:51|313:51|279:60|251:45,1,123.250002350807,6|0,1:2|0:0,0:0:0:0:
172,0,114153,1,2,1:2:0:0:
172,0,114310,2,0,P|175:30|163:58,1,61.6250011754036,2|0,0:2|0:0,0:0:0:0:
235,137,114622,2,0,L|217:235,1,92.4375017631054,2|0,0:2|0:0,0:0:0:0:
202,243,114935,2,0,P|174:232|143:234,1,61.6250011754036,2|0,1:2|0:0,0:0:0:0:
97,330,115247,6,0,P|106:271|65:228,1,123.250002350807,2|0,1:2|0:0,0:0:0:0:
0,155,115716,1,2,1:2:0:0:
0,155,115872,2,0,L|60:144,1,61.6250011754036,2|0,0:2|0:0,0:0:0:0:
113,63,116185,2,0,L|215:82,1,92.4375017631054,2|0,0:2|0:0,0:0:0:0:
217,101,116497,2,0,P|244:114|274:112,1,61.6250011754036,2|0,1:2|0:0,0:0:0:0:
330,32,116810,2,0,P|302:18|272:20,1,61.6250011754036,2|0,1:2|0:0,0:0:0:0:
357,110,117123,6,0,L|371:178,2,61.6250011754036,2|0|0,1:2|0:0|0:0,0:0:0:0:
289,198,117591,2,0,L|275:266,2,61.6250011754036,2|0|0,1:2|0:0|0:0,0:0:0:0:
375,253,118059,2,0,P|403:244|434:246,1,61.6250011754036,2|0,0:2|0:0,0:0:0:0:
512,192,118373,1,2,1:2:0:0:
414,334,118685,1,2,1:2:0:0:
504,183,118997,6,0,B|527:92|527:92|504:53,1,123.250002350807,2|0,1:2|0:0,0:0:0:0:
450,0,119465,1,10,0:0:0:0:
450,0,119543,1,10,0:0:0:0:
450,0,119622,1,10,0:0:0:0:
422,79,119778,1,0,1:0:0:0:
354,22,119935,2,0,B|326:5|326:5|337:42|333:81,2,108.750004148483,2|0|0,1:2|1:0|1:0,0:0:0:0:
272,153,120873,5,4,0:2:0:0:
0,0,122427,1,8,0:0:0:0:
115,101,122748,6,0,P|64:103|24:132,1,101.499996902466,2|2,1:2|0:0,0:0:0:0:
0,222,123216,1,0,1:0:0:0:
0,222,123373,1,2,0:0:0:0:
180,219,123685,6,0,P|184:188|191:158,1,61.6250011754036,2|0,1:2|0:0,0:0:0:0:
195,296,123998,2,0,P|220:316|244:338,1,65.2499980087281,2|0,1:2|0:0,0:0:0:0:
121,271,124310,2,0,P|88:283|54:293,1,68.8749981608391,2|0,1:2|0:0,0:0:0:0:
124,134,124623,6,0,B|156:159|197:141|197:141|235:124|272:153,1,147.90000090271,4|0,1:2|0:0,0:0:0:0:
352,226,125091,2,0,P|421:222|445:156,1,147.90000090271,2|0,1:2|0:0,0:0:0:0:
376,91,125560,2,0,P|412:85|440:62,1,73.950000451355,2|0,0:2|0:0,0:0:0:0:
315,19,125873,2,0,P|262:36|207:34,1,110.925000677032,2|0,0:2|0:0,0:0:0:0:
187,25,126185,6,0,B|170:41|146:45|146:45|109:8|49:0,1,147.90000090271,2|0,1:2|0:3,0:0:0:0:
47,106,126654,1,2,1:2:0:0:
47,106,126810,2,0,P|46:142|31:176,1,73.950000451355,2|0,0:2|0:0,0:0:0:0:
149,166,127123,2,0,P|217:181|225:250,1,147.90000090271,2|8,0:2|1:2,0:0:0:0:
126,264,127591,5,8,0:2:0:0:
112,369,127748,1,8,1:2:0:0:
121,269,127904,1,8,0:2:0:0:
117,364,128060,6,0,P|179:328|250:341,1,147.90000090271,6|0,1:2|0:0,0:0:0:0:
373,383,128529,2,0,P|355:319|419:299,1,147.90000090271,2|0,1:2|0:0,0:0:0:0:
347,223,128998,2,0,P|311:223|277:209,1,73.950000451355,2|0,0:2|0:0,0:0:0:0:
368,135,129310,2,0,P|403:145|432:167,1,73.950000451355,2|0,1:2|0:0,0:0:0:0:
287,215,129623,2,0,B|255:161|268:105|268:105|306:78,1,147.90000090271,2|0,1:2|0:3,0:0:0:0:
332,0,130091,5,2,1:2:0:0:
332,0,130248,1,2,0:2:0:0:
512,102,130560,2,0,P|458:148|472:218,1,147.90000090271,2|8,1:2|1:2,0:0:0:0:
512,305,131029,5,8,0:2:0:0:
411,273,131185,1,8,1:2:0:0:
434,376,131341,1,8,0:2:0:0:
333,345,131498,6,0,B|220:326|220:326|181:350,1,147.90000090271,6|0,1:2|0:0,0:0:0:0:
250,241,131966,2,0,P|235:173|166:164,1,147.90000090271,2|0,1:2|0:0,0:0:0:0:
71,114,132435,2,0,P|36:123|0:132,1,73.950000451355,2|0,0:2|0:0,0:0:0:0:
49,227,132748,2,0,P|103:222|148:253,1,110.925000677032,2|0,0:2|0:0,0:0:0:0:
140,275,133060,6,0,P|212:261|285:249,1,147.90000090271,2|0,1:2|0:3,0:0:0:0:
245,151,133529,1,2,1:2:0:0:
245,151,133685,2,0,P|211:139|175:143,1,73.950000451355,2|0,0:2|0:0,0:0:0:0:
104,64,133998,2,0,P|142:71|178:55,1,73.950000451355,2|0,0:2|0:0,0:0:0:0:
257,0,134310,1,8,1:2:0:0:
257,0,134466,1,8,0:2:0:0:
314,79,134623,5,8,1:2:0:0:
402,32,134779,1,8,0:2:0:0:
310,83,134935,6,0,B|353:112|353:112|323:146|328:202,1,140.650003326531,6|0,1:2|0:0,0:0:0:0:
412,247,135403,1,2,1:2:0:0:
333,305,135560,2,0,P|298:307|266:321,1,70.3250016632653,2|0,0:2|0:0,0:0:0:0:
196,248,135872,2,0,P|165:266|131:273,1,70.3250016632653,2|0,0:2|0:0,0:0:0:0:
253,329,136185,2,0,P|304:320|349:345,1,105.487502494898,2|0,1:2|0:0,0:0:0:0:
366,360,136497,6,0,B|402:371|433:354|433:354|462:334|499:341,1,137.749996321678,2|0,1:2|0:0,0:0:0:0:
512,251,136966,1,0,1:0:0:0:
427,231,137122,1,10,0:0:0:0:
427,231,137200,1,10,0:0:0:0:
427,231,137278,1,10,0:0:0:0:
401,140,137435,2,0,P|343:136|313:87,1,118.90000181427,0|0,1:0|1:0,0:0:0:0:
119,0,138060,6,0,B|152:38|152:38|168:86|135:137,1,152.249995353699,4|0,1:2|0:0,0:0:0:0:
10,166,138528,2,0,B|5:194|5:194|55:261|55:261|41:326,1,152.249995353699,2|0,1:2|0:0,0:0:0:0:
125,371,138997,2,0,P|87:370|52:384,1,76.1249976768494,2|0,0:2|0:0,0:0:0:0:
141,274,139310,2,0,P|195:263|228:218,1,114.187496515274,2|0,0:2|0:0,0:0:0:0:
221,198,139622,6,0,P|200:270|214:344,1,152.249995353699,2|0,1:2|0:3,0:0:0:0:
325,333,140091,1,2,1:2:0:0:
325,333,140247,2,0,B|349:350|349:350|412:335,1,76.1249976768494,2|0,0:2|0:0,0:0:0:0:
337,241,140560,2,0,P|335:170|400:139,1,152.249995353699,2|8,0:2|1:2,0:0:0:0:
498,178,141028,5,8,0:2:0:0:
478,84,141185,1,8,1:2:0:0:
488,176,141341,1,8,0:2:0:0:
488,82,141497,6,0,B|470:41|470:41|420:71|359:55,1,152.249995353699,6|0,1:2|0:0,0:0:0:0:
262,0,141966,2,0,P|319:42|295:108,1,152.249995353699,2|0,1:2|0:0,0:0:0:0:
203,78,142435,2,0,P|166:78|128:69,1,76.1249976768494,2|0,0:2|0:0,0:0:0:0:
38,141,142747,2,0,P|75:140|113:149,1,76.1249976768494,2|0,0:2|0:0,0:0:0:0:
65,246,143060,2,0,B|50:271|50:271|96:321|168:294,1,152.249995353699,2|0,1:2|0:3,0:0:0:0:
201,383,143528,5,2,1:2:0:0:
201,383,143685,1,2,0:2:0:0:
300,215,143997,2,0,B|279:165|283:113|283:113|319:72,1,152.249995353699,2|8,0:2|1:2,0:0:0:0:
384,0,144466,5,8,0:2:0:0:
418,97,144622,1,8,1:2:0:0:
501,33,144778,1,8,0:2:0:0:
512,141,144935,6,0,B|484:144|467:166|467:166|502:214|470:264,1,152.249995353699,6|0,1:2|0:0,0:0:0:0:
361,224,145403,2,0,B|338:221|315:205|315:205|335:318,1,152.249995353699,2|0,1:2|0:0,0:0:0:0:
266,384,145872,2,0,P|228:384|193:370,1,76.1249976768494,2|0,0:2|0:0,0:0:0:0:
87,297,146185,2,0,P|135:266|191:270,1,114.187496515274,2|0,1:2|0:0,0:0:0:0:
213,282,146497,6,0,P|225:211|237:118,1,152.249995353699,2|0,1:2|0:3,0:0:0:0:
329,185,146966,1,2,1:2:0:0:
329,185,147122,2,0,P|364:171|401:167,1,76.1249976768494,2|0,0:2|0:0,0:0:0:0:
473,90,147435,2,0,P|435:86|400:71,1,76.1249976768494,2|0,0:2|0:0,0:0:0:0:
325,0,147747,1,8,1:2:0:0:
325,0,147903,1,8,0:2:0:0:
238,58,148060,5,8,1:2:0:0:
153,0,148216,1,8,0:2:0:0:
151,107,148372,6,0,B|141:159|141:159|175:192|175:192|182:260,1,145,6|0,1:2|0:0,0:0:0:0:
114,310,148840,1,2,1:2:0:0:
200,370,148997,2,0,L|276:385,1,72.5,2|0,0:2|0:0,0:0:0:0:
355,318,149309,2,0,L|282:302,1,72.5,2|0,0:2|0:0,0:0:0:0:
369,223,149622,2,0,B|391:194|391:194|389:161|360:123,1,108.75,2|0,1:2|0:0,0:0:0:0:
346,114,149934,6,0,P|383:114|416:99,2,74.6749993733025,4|2|0,1:2|0:2|0:0,0:0:0:0:
252,71,150403,2,0,P|263:35|259:0,2,74.6749993733025,2|2|0,1:2|0:2|0:0,0:0:0:0:
182,147,150872,2,0,P|152:124|116:117,1,74.6749993733025,2|2,0:2|0:2,0:0:0:0:
20,160,151184,1,2,1:2:0:0:
169,270,151497,6,0,B|206:284|238:263|238:263|275:239|314:252,1,149.349998746605,4|0,1:2|0:0,0:0:0:0:
401,197,151965,2,0,P|388:231|399:266,1,74.6749993733025,2|2,1:2|0:2,0:0:0:0:
431,358,152278,1,2,0:2:0:0:
333,384,152434,6,0,L|236:361,1,74.6749993733025,2|0,1:2|0:0,0:0:0:0:
181,303,152747,2,0,L|84:280,1,74.6749993733025,2|0,1:2|0:0,0:0:0:0:
188,208,153059,6,0,P|193:171|217:143,1,74.6749993733025,4|0,1:2|0:0,0:0:0:0:
312,160,153371,1,2,0:2:0:0:
211,147,153527,6,0,P|176:160|140:153,1,74.6749993733025,2|0,1:2|0:0,0:0:0:0:
107,63,153839,1,2,0:2:0:0:
198,40,153996,6,0,P|235:50|272:51,1,74.6749993733025,2|0,0:2|0:0,0:0:0:0:
356,0,154309,1,2,1:2:0:0:
511,96,154621,2,0,P|457:90|413:122,1,112.012499059954,2|0,1:2|0:0,0:0:0:0:
416,144,154934,6,0,P|414:181|400:217,1,76.1249976768494,4|2,1:2|0:2,0:0:0:0:
300,183,155246,1,2,0:2:0:0:
220,252,155402,2,0,B|193:246|172:227|172:227|188:279|176:329,1,152.249995353699,2|2,1:2|0:0,0:0:0:0:
311,306,155871,6,0,P|348:307|380:327,1,76.1249976768494,2|0,1:2|0:0,0:0:0:0:
469,384,156184,1,2,0:2:0:0:
469,384,156340,2,0,L|486:304,1,76.1249976768494,2|2,1:2|0:2,0:0:0:0:
404,240,156652,1,2,0:2:0:0:
512,200,156809,5,4,1:2:0:0:
