osu file format v14

[General]
AudioFilename: audio.mp3
AudioLeadIn: 0
PreviewTime: 19002
Countdown: 0
SampleSet: Soft
StackLeniency: 0.4
Mode: 0
LetterboxInBreaks: 0
WidescreenStoryboard: 1

[Editor]
Bookmarks: 30252,39626,53063,66500,80249,93686,107123,120873,124623,138060,149934,156809
DistanceSpacing: 1.1
BeatDivisor: 4
GridSize: 32
TimelineZoom: 1.200001

[Metadata]
Title:fairy ring
TitleUnicode:fairy ring
Artist:Cororo
ArtistUnicode:Cororo
Creator:August
Version:easy
Source:東方輝針城 ~ Double Dealing Character.
Tags:東方Project kodama instrumental touhou 2hu すのうまん Château Bleu riverside c85 comiket 85 RSCD-0014 folk video game 不思議な不思議な道具達 strange instruments 九十九弁々 Tsukumo Benben chateau
BeatmapID:2322479
BeatmapSetID:1110174

[Difficulty]
HPDrainRate:3
CircleSize:3
OverallDifficulty:3
ApproachRate:4.2
SliderMultiplier:0.799999999999999
SliderTickRate:1

[Events]
//Background and Video events
0,0,"bg.jpg",0,0
//Break Periods
2,50138,51767
2,90761,92390
//Storyboard Layer 0 (Background)
//Storyboard Layer 1 (Fail)
//Storyboard Layer 2 (Pass)
//Storyboard Layer 3 (Foreground)
//Storyboard Layer 4 (Overlay)
//Storyboard Sound Samples

[TimingPoints]
245,365.853658536585,6,2,2,60,1,0
336,275.229357798165,6,2,2,60,1,0
404,280.439354989484,6,2,2,60,1,0
1525,319.148936170213,6,2,2,60,1,0
2163,389.61038961039,6,2,2,60,1,0
2260,392.156862745098,6,2,2,60,1,0
2848,387.096774193548,6,2,2,60,1,0
4009,348.837209302326,6,2,2,60,1,0
4096,410.958904109589,6,2,2,60,1,0
4917,337.078651685393,6,2,2,60,1,0
5254,333.333333333333,6,2,2,60,1,0
5587,331.491712707182,6,2,2,60,1,0
5918,434.782608695652,6,2,2,60,1,0
6026,375,6,2,2,60,1,0
7151,314.13612565445,6,2,2,60,1,0
7779,400,6,2,2,60,1,0
7829,394.736842105263,6,2,2,60,1,0
8421,318.979266347687,6,2,2,60,1,0
9058,322.58064516129,6,2,2,60,1,0
9380,344.827586206897,6,2,2,60,1,0
9724,375,6,2,2,60,1,0
9817,356.294536817102,6,2,2,60,1,0
11242,335.195530726257,6,2,2,60,1,0
11912,363.636363636364,6,2,2,60,1,0
12033,267.857142857143,6,2,2,60,1,0
12122,274.725274725275,6,2,2,60,1,0
14319,337.078651685393,6,2,2,60,1,0
14403,297.029702970297,6,2,2,60,1,0
14440,301.810865191147,6,2,2,60,1,0
18061,309.278350515464,6,2,2,60,1,0
18370,316.038978140637,6,2,2,60,1,0
19002,312.5,6,2,4,60,1,0
19002,-100,6,2,4,60,0,0
20798,-100,6,2,4,5,0,0
20877,-100,6,2,4,60,0,0
22048,-100,6,2,2,5,0,0
22127,-100,6,2,2,70,0,0
22752,-100,6,2,2,65,0,0
23689,-100,6,2,4,65,0,0
24002,-100,6,2,2,65,0,0
25564,-100,6,2,4,65,0,0
26111,-100,6,2,2,5,0,0
26189,-100,6,2,2,65,0,0
27439,-100,6,2,4,65,0,0
28064,-100,6,2,2,65,0,0
29627,-100,6,2,2,60,0,0
29861,-100,6,2,2,5,0,0
29939,-100,6,2,2,65,0,0
30252,312.5,11,2,2,70,1,0
30252,-100,11,2,2,70,0,0
34314,-100,11,2,4,70,0,0
35252,-100,11,2,2,70,0,0
35408,-100,11,2,3,65,0,0
35877,-100,11,2,2,65,0,0
36502,312.5,5,2,2,70,1,0
36502,-100,5,2,2,70,0,0
37673,-100,5,2,2,5,0,0
37752,-100,5,2,2,65,0,0
37986,-100,5,2,2,5,0,0
38064,-100,5,2,2,70,0,0
39236,-100,5,2,2,5,0,0
39314,-100,5,2,2,65,0,0
39548,-100,5,2,2,5,0,0
39626,312.5,11,2,4,50,1,0
39626,-100,11,2,4,50,0,0
41110,-100,11,2,4,5,0,0
41188,-100,11,2,4,50,0,0
42360,-100,11,2,4,5,0,0
42438,-100,11,2,3,50,0,0
43063,-100,11,2,4,50,0,0
44547,-100,11,2,4,5,0,0
44626,-100,11,2,4,50,0,0
45797,-100,11,2,4,5,0,0
45876,-100,11,2,3,50,0,0
46501,-100,11,2,4,50,0,0
47985,-100,11,2,4,5,0,0
48063,-100,11,2,4,50,0,0
49235,-100,11,2,4,5,0,0
49313,-100,11,2,3,55,0,0
49938,312.5,5,2,4,55,1,0
49938,-100,5,2,4,55,0,0
50172,-100,5,2,3,55,0,0
50406,-100,5,2,4,55,0,0
50797,-100,5,2,4,5,0,0
50875,-100,5,2,4,60,0,0
51422,-100,5,2,4,5,0,0
51500,-100,5,2,4,63,0,0
51656,-100,5,2,12,63,0,0
51969,-100,5,2,4,66,0,0
52203,-100,5,2,4,5,0,0
52281,-100,5,2,4,66,0,0
52672,-100,5,2,4,5,0,0
52750,-100,5,2,2,70,0,0
53063,312.5,11,2,11,75,1,0
53063,-100,11,2,11,75,0,0
53375,-100,11,2,2,75,0,0
54547,-100,11,2,2,5,0,0
54625,-100,11,2,2,75,0,0
54781,-100,11,2,12,75,0,0
55094,-100,11,2,2,75,0,0
55875,-100,11,2,3,75,0,0
56500,-100,11,2,2,75,0,0
58219,-100,11,2,12,75,0,0
58531,-100,11,2,2,75,0,0
59234,-100,11,2,2,5,0,0
59313,-100,11,2,3,75,0,0
59938,-100,11,2,2,75,0,0
61422,-100,11,2,2,5,0,0
61500,-100,11,2,2,75,0,0
61656,-100,11,2,12,75,0,0
61969,-100,11,2,2,75,0,0
62750,-100,11,2,3,72,0,0
63063,-100,11,2,3,78,0,0
63375,312.5,5,2,2,70,1,0
63375,-100,5,2,2,70,0,0
64859,-100,5,2,2,5,0,0
64937,-100,5,2,2,70,0,0
65093,-100,5,2,12,70,0,0
65406,-100,5,2,2,67,0,0
66500,-100,5,2,11,60,0,0
66656,-100,5,2,2,60,0,0
71187,312.5,6,2,2,60,1,0
71187,-100,6,2,2,60,0,0
71421,-100,6,2,2,5,0,0
71499,-100,6,2,2,60,0,0
73062,312.5,11,2,2,65,1,0
73062,-100,11,2,2,65,0,0
74233,-100,11,2,2,5,0,0
74312,-100,11,2,2,65,0,0
75796,-100,11,2,2,5,0,0
75874,-100,11,2,2,65,0,0
76499,312.5,6,2,4,60,1,0
76499,-100,6,2,4,60,0,0
77749,-100,6,2,2,60,0,0
77983,-100,6,2,2,5,0,0
78061,-100,6,2,2,60,0,0
78295,-100,6,2,2,5,0,0
78374,-100,6,2,2,66,0,0
78842,-100,6,2,2,60,0,0
79311,-100,6,2,2,55,0,0
79624,-100,6,2,2,70,0,0
79936,-100,6,2,2,85,0,0
80249,312.5,11,2,5,80,1,0
80249,-100,11,2,5,80,0,0
80561,-100,11,2,2,80,0,0
81733,-100,11,2,2,5,0,0
81811,-100,11,2,2,80,0,0
81967,-100,11,2,12,80,0,0
82280,-100,11,2,2,80,0,0
83061,-100,11,2,3,80,0,0
83686,-100,11,2,2,80,0,0
85405,-100,11,2,12,80,0,0
85717,-100,11,2,2,80,0,0
86420,-100,11,2,2,5,0,0
86499,-100,11,2,3,82,0,0
87124,-100,11,2,2,80,0,0
88608,-100,11,2,2,5,0,0
88686,-100,11,2,2,80,0,0
88842,-100,11,2,12,80,0,0
89155,-100,11,2,2,80,0,0
89936,-100,11,2,3,75,0,0
90249,-100,11,2,3,83,0,0
90561,312.5,5,2,2,77,1,0
90561,-100,5,2,2,77,0,0
92045,-100,5,2,2,5,0,0
92123,-100,5,2,2,77,0,0
92279,-100,5,2,12,77,0,0
92592,-100,5,2,2,72,0,0
93373,-100,5,2,2,50,0,0
93451,-100,5,2,2,60,0,0
93529,-100,5,2,2,70,0,0
93607,-100,5,2,2,80,0,0
93686,312.5,11,2,11,80,1,0
93686,-97.0873786407767,11,2,11,80,0,0
93998,-97.0873786407767,11,2,2,80,0,0
95170,-97.0873786407767,11,2,2,5,0,0
95248,-97.0873786407767,11,2,2,80,0,0
95404,-97.0873786407767,11,2,12,80,0,0
95717,-97.0873786407767,11,2,2,80,0,0
96498,-97.0873786407767,11,2,3,80,0,0
97123,-97.0873786407767,11,2,2,80,0,0
98842,-97.0873786407767,11,2,12,80,0,0
99154,-97.0873786407767,11,2,2,80,0,0
99857,-97.0873786407767,11,2,2,5,0,0
99936,-97.0873786407767,11,2,3,83,0,0
100561,-97.0873786407767,11,2,2,80,0,0
102045,-97.0873786407767,11,2,2,5,0,0
102123,-97.0873786407767,11,2,2,80,0,0
102279,-97.0873786407767,11,2,12,80,0,0
102592,-97.0873786407767,11,2,2,80,0,0
103373,-97.0873786407767,11,2,3,77,0,0
103686,-97.0873786407767,11,2,3,84,0,0
103998,312.5,5,2,2,77,1,0
103998,-100,5,2,2,77,0,0
105482,-100,5,2,2,5,0,0
105560,-100,5,2,2,77,0,0
105716,-100,5,2,12,77,0,0
106029,-100,5,2,2,70,0,0
106498,-100,5,2,2,60,0,0
107123,-100,5,2,5,60,0,0
107435,-100,5,2,2,60,0,0
110248,312.5,11,2,2,60,1,0
110248,-100,11,2,2,60,0,0
112044,-100,11,2,2,5,0,0
112123,-100,11,2,2,60,0,0
113685,-100,11,2,2,65,0,0
114857,-100,11,2,2,5,0,0
114935,-100,11,2,2,65,0,0
116419,-100,11,2,2,5,0,0
116498,-100,11,2,2,65,0,0
117123,312.5,6,2,4,60,1,0
117123,-100,6,2,4,60,0,0
118373,-100,6,2,2,60,0,0
118607,-100,6,2,2,5,0,0
118685,-100,6,2,2,60,0,0
118919,-100,6,2,2,5,0,0
118998,-100,6,2,2,68,0,0
119466,-100,6,2,2,60,0,0
120248,-100,6,2,2,55,0,0
120560,-100,6,2,2,50,0,0
120873,310.880829015544,6,2,2,45,1,0
120873,-100,6,2,2,45,0,0
122427,-100,6,2,3,60,0,0
122748,312.5,3,2,2,55,1,0
122748,-100,3,2,2,55,0,0
122982,-100,3,2,2,5,0,0
123060,-100,3,2,2,60,0,0
123294,-100,3,2,2,5,0,0
123373,-100,3,2,2,65,0,0
123607,-100,3,2,2,5,0,0
123685,-100,3,2,2,70,0,0
123919,-100,3,2,2,5,0,0
123998,-100,3,2,2,75,0,0
124232,-100,3,2,2,5,0,0
124310,-100,3,2,2,85,0,0
124623,312.5,11,2,5,83,1,0
124623,-95.2380952380952,11,2,5,83,0,0
124935,-95.2380952380952,11,2,2,83,0,0
126107,-95.2380952380952,11,2,2,5,0,0
126185,-95.2380952380952,11,2,2,83,0,0
126341,-95.2380952380952,11,2,12,83,0,0
126654,-95.2380952380952,11,2,2,83,0,0
127435,-95.2380952380952,11,2,3,83,0,0
128060,-95.2380952380952,11,2,2,83,0,0
129779,-95.2380952380952,11,2,12,83,0,0
130091,-95.2380952380952,11,2,2,83,0,0
130794,-95.2380952380952,11,2,2,5,0,0
130873,-95.2380952380952,11,2,3,86,0,0
131498,-95.2380952380952,11,2,2,83,0,0
132982,-95.2380952380952,11,2,2,5,0,0
133060,-95.2380952380952,11,2,2,83,0,0
133216,-95.2380952380952,11,2,12,83,0,0
133529,-95.2380952380952,11,2,2,83,0,0
134310,-95.2380952380952,11,2,3,77,0,0
134623,-95.2380952380952,11,2,3,87,0,0
134935,312.5,5,2,2,77,1,0
134935,-95.2380952380952,5,2,2,77,0,0
136419,-95.2380952380952,5,2,2,5,0,0
136497,-95.2380952380952,5,2,2,70,0,0
137122,-95.2380952380952,5,2,2,75,0,0
137435,-95.2380952380952,5,2,2,65,0,0
138060,312.5,11,2,5,83,1,0
138060,-95.2380952380952,11,2,5,83,0,0
138372,-95.2380952380952,11,2,2,83,0,0
139544,-95.2380952380952,11,2,2,5,0,0
139622,-95.2380952380952,11,2,2,83,0,0
139778,-95.2380952380952,11,2,12,83,0,0
140091,-95.2380952380952,11,2,2,83,0,0
140794,-95.2380952380952,11,2,2,5,0,0
140872,-95.2380952380952,11,2,3,87,0,0
141497,-95.2380952380952,11,2,2,83,0,0
143216,-95.2380952380952,11,2,12,83,0,0
143528,-95.2380952380952,11,2,2,83,0,0
144231,-95.2380952380952,11,2,2,5,0,0
144310,-95.2380952380952,11,2,3,87,0,0
144935,-95.2380952380952,11,2,2,83,0,0
146419,-95.2380952380952,11,2,2,5,0,0
146497,-95.2380952380952,11,2,2,83,0,0
146653,-95.2380952380952,11,2,12,83,0,0
146966,-95.2380952380952,11,2,2,83,0,0
147747,-95.2380952380952,11,2,3,75,0,0
148060,-95.2380952380952,11,2,3,90,0,0
148372,312.5,5,2,2,77,1,0
148372,-95.2380952380952,5,2,2,77,0,0
149309,-95.2380952380952,5,2,2,74,0,0
149856,-95.2380952380952,5,2,2,5,0,0
149934,-95.2380952380952,5,2,5,80,0,0
150090,-95.2380952380952,5,2,4,80,0,0
151497,-95.2380952380952,5,2,2,80,0,0
151965,-95.2380952380952,5,2,4,80,0,0
152434,-95.2380952380952,5,2,4,73,0,0
153059,312.5,6,2,2,83,1,0
153059,-97.0873786407767,6,2,2,83,0,0
153371,-97.0873786407767,6,2,4,80,0,0
153996,-97.0873786407767,6,2,4,74,0,0
154621,-97.0873786407767,6,2,2,80,0,0
154855,-97.0873786407767,6,2,2,5,0,0
154934,-97.0873786407767,6,2,11,83,0,0
155090,-97.0873786407767,6,2,2,70,0,0
155402,-97.0873786407767,6,2,2,85,0,0
155715,-97.0873786407767,6,2,2,70,0,0
155871,-97.0873786407767,6,2,2,83,0,0
156184,-97.0873786407767,6,2,2,75,0,0
156340,-97.0873786407767,6,2,2,85,0,0
156496,-97.0873786407767,6,2,2,77,0,0
156652,-97.0873786407767,6,2,2,69,0,0
156809,-97.0873786407767,6,2,5,90,0,0
156887,-97.0873786407767,6,2,2,60,0,0

[Colours]
Combo1 : 250,173,175
Combo2 : 158,214,122
Combo3 : 157,201,255
Combo4 : 222,190,239

[HitObjects]
350,109,19002,6,0,P|292:113|254:68,2,120,4|2|2,1:2|1:2|0:2,0:0:0:0:
512,177,20564,1,2,1:2:0:0:
509,265,20877,2,0,P|500:324|496:384,2,120,2|2|2,1:2|1:2|0:2,0:0:0:0:
446,203,22127,2,0,B|409:190|409:190|356:200,1,79.9999999999999,2|2,1:2|1:2,0:0:0:0:
300,253,22752,6,0,B|229:245|204:189|204:189|167:237|95:225,1,240,6|2,1:2|0:2,0:0:0:0:
13,195,24002,1,2,0:2:0:0:
26,19,24627,1,2,1:2:0:0:
201,2,25252,2,0,P|276:6|300:77,1,160,2|2,0:2|1:2,0:0:0:0:
183,210,26502,5,2,1:2:0:0:
265,240,26814,2,0,B|311:213|311:213|357:242|413:227,1,160,2|2,0:2|0:2,0:0:0:0:
512,369,28064,1,2,1:2:0:0:
425,384,28377,2,0,P|366:333|291:352,1,160,2|0,1:2|0:0,0:0:0:0:
207,374,29314,1,2,1:2:0:0:
159,299,29627,1,0,1:0:0:0:
217,132,30252,5,4,1:2:0:0:
104,63,30720,2,0,P|47:61|11:107,1,120,2|2,1:2|0:2,0:0:0:0:
30,193,31502,1,2,0:2:0:0:
105,238,31814,2,0,L|127:365,1,120,2|2,1:2|1:2,0:0:0:0:
255,380,32752,2,0,P|292:367|332:364,1,79.9999999999999,2|2,0:2|1:2,0:0:0:0:
408,319,33377,1,2,1:2:0:0:
417,232,33689,6,0,P|360:145|252:210,1,240,6|0,1:2|0:2,0:0:0:0:
84,153,35252,1,2,0:2:0:0:
63,67,35564,2,0,P|125:21|203:28,1,160,2|0,1:2|1:0,0:0:0:0:
255,99,36502,6,0,B|387:78,1,120,4|2,1:2|1:2,0:0:0:0:
501,51,37439,2,0,P|498:90|511:128,1,79.9999999999999,2|2,1:2|1:2,0:0:0:0:
467,204,38064,6,0,P|439:254|382:260,1,120,2|2,1:2|1:2,0:0:0:0:
259,206,39002,2,0,P|271:168|268:128,1,79.9999999999999,2|2,1:2|1:2,0:0:0:0:
183,106,39626,6,0,B|162:81|162:81|70:93,2,120,6|2|2,1:2|1:2|0:2,0:0:0:0:
95,261,41188,1,2,1:2:0:0:
157,377,41657,1,2,1:2:0:0:
288,371,42126,2,0,P|353:316|431:322,1,160,2|0,0:2|1:2,0:0:0:0:
509,293,43063,6,0,L|527:169,2,120,2|2|2,1:2|1:2|0:2,0:0:0:0:
337,253,44626,1,2,1:2:0:0:
210,217,45094,2,0,B|176:190|133:179|133:179|114:140,1,120,2|2,1:2|0:2,0:0:0:0:
191,99,45876,2,0,P|228:113|267:122,1,79.9999999999999,0|0,1:2|1:2,0:0:0:0:
342,168,46501,6,0,B|352:109|352:109|408:77,2,120,2|2|2,1:2|1:2|0:2,0:0:0:0:
446,309,48063,2,0,P|396:341|338:336,1,120,2|0,1:2|1:2,0:0:0:0:
213,295,49001,2,0,P|186:223|113:198,1,160,2|2,0:2|1:2,0:0:0:0:
31,232,49938,5,2,1:2:0:0:
169,159,53063,5,4,1:2:0:0:
237,46,53531,2,0,P|292:24|351:32,1,120,2|2,1:2|0:2,0:0:0:0:
417,93,54313,2,0,L|427:176,1,79.9999999999999,2|2,0:2|1:2,0:0:0:0:
503,280,55094,1,2,1:2:0:0:
389,348,55563,2,0,P|333:296|257:311,1,160,2|0,0:2|1:2,0:0:0:0:
185,361,56500,6,0,L|67:382,2,120,2|2|2,1:2|1:2|0:2,0:0:0:0:
209,186,58063,2,0,P|200:128|149:102,1,120,2|2,1:2|1:2,0:0:0:0:
26,151,59000,1,2,0:2:0:0:
40,238,59313,2,0,P|51:277|94:300,1,79.9999999999999,8|8,1:2|1:2,0:0:0:0:
165,268,59938,6,0,P|223:267|266:307,2,120,6|2|2,1:2|1:2|0:2,0:0:0:0:
45,138,61500,2,0,P|55:80|81:26,1,120,2|2,1:2|1:2,0:0:0:0:
211,0,62438,2,0,B|254:36|254:36|366:17,1,160,2|2,0:2|1:2,0:0:0:0:
443,8,63375,5,2,1:2:0:0:
508,120,63843,2,0,P|459:149|460:206,1,120,2|2,1:2|0:2,0:0:0:0:
413,281,64625,1,2,1:2:0:0:
349,219,64937,2,0,B|300:161|231:177|231:177|200:147|200:147|176:169|136:167,1,240,2|0,1:2|1:0,0:0:0:0:
31,305,66500,6,0,B|-13:227|32:148|32:148|37:101|10:65,1,240,4|2,1:2|0:2,0:0:0:0:
182,14,68062,2,0,B|177:84|243:106|243:106|197:162|197:162|212:221,1,240,2|2,1:2|0:2,0:0:0:0:
159,280,69312,1,2,1:2:0:0:
206,354,69625,2,0,P|316:369|355:265,1,240,2|2,1:2|0:2,0:0:0:0:
299,195,70875,1,2,0:2:0:0:
246,124,71187,2,0,B|254:72|254:72|281:56,2,79.9999999999999,2|2|2,1:2|0:2|0:0,0:0:0:0:
212,205,72124,1,2,0:2:0:0:
386,181,72749,1,2,1:2:0:0:
473,165,73062,6,0,L|504:322,2,160,6|2|2,1:2|0:2|1:2,0:0:0:0:
419,94,74624,2,0,P|361:92|322:48,1,120,2|2,1:2|1:2,0:0:0:0:
199,0,75562,1,2,0:2:0:0:
124,46,75874,2,0,L|136:130,1,79.9999999999999,2|2,1:2|1:2,0:0:0:0:
217,157,76499,5,4,1:2:0:0:
256,192,76577,12,2,78374,1:2:0:0:
125,325,80249,5,4,1:2:0:0:
26,237,80717,2,0,P|25:177|40:119,1,120,2|2,1:2|0:2,0:0:0:0:
120,80,81499,2,0,P|158:72|197:81,1,79.9999999999999,2|2,0:2|1:2,0:0:0:0:
315,21,82280,1,2,1:2:0:0:
430,83,82749,2,0,P|396:148|451:198,1,160,2|0,1:2|1:2,0:0:0:0:
431,283,83686,6,0,B|401:308|401:308|311:293,2,120,6|2|2,1:2|1:2|0:2,0:0:0:0:
452,198,84936,2,0,P|436:163|447:125,1,79.9999999999999,2|2,0:2|1:2,0:0:0:0:
496,2,85717,1,2,1:2:0:0:
367,34,86186,2,0,P|298:-1|220:10,1,160,2|0,1:2|1:2,0:0:0:0:
139,45,87124,5,6,1:2:0:0:
32,121,87592,2,0,B|12:155|12:155|27:237,1,120,2|2,1:2|0:2,0:0:0:0:
63,314,88374,1,2,0:2:0:0:
150,319,88686,2,0,P|204:297|262:310,1,120,2|2,1:2|1:2,0:0:0:0:
394,324,89624,2,0,B|386:251|386:251|371:236|371:236|362:169,1,160,2|2,0:2|1:2,0:0:0:0:
306,103,90561,5,6,1:2:0:0:
369,260,93686,5,4,1:2:0:0:
283,365,94154,2,0,P|230:333|169:334,1,123.599998962707,2|2,1:2|0:2,0:0:0:0:
79,342,94936,2,0,L|66:259,1,82.3999993084716,2|2,0:2|1:2,0:0:0:0:
162,164,95717,1,2,1:2:0:0:
70,62,96186,2,0,P|135:28|226:42,1,164.799998616943,2|0,1:2|1:2,0:0:0:0:
275,114,97123,6,0,B|331:90|331:90|393:110,2,123.599998962707,6|2|2,1:2|1:2|0:2,0:0:0:0:
227,191,98373,2,0,P|210:228|211:269,1,82.3999993084716,2|2,0:2|1:2,0:0:0:0:
297,374,99154,1,2,1:2:0:0:
433,369,99623,2,0,P|462:293|444:213,1,164.799998616943,2|0,0:2|1:2,0:0:0:0:
382,148,100561,5,6,1:2:0:0:
289,48,101029,2,0,B|258:65|258:65|158:52,1,123.599998962707,2|2,1:2|0:2,0:0:0:0:
82,75,101811,1,2,0:2:0:0:
40,155,102123,2,0,B|63:235|63:235|47:277,1,123.599998962707,2|2,1:2|1:2,0:0:0:0:
135,378,103061,2,0,P|210:357|229:281,1,164.799998616943,2|2,0:2|1:2,0:0:0:0:
187,204,103998,6,0,B|212:142|189:83|189:83|151:70|130:37,2,200,6|0|2,1:2|0:0|1:2,0:0:0:0:
463,74,107123,6,0,B|451:123|416:154|416:154|446:201|446:201|415:238|419:290,1,240,4|2,1:2|0:2,0:0:0:0:
270,379,108685,2,0,B|258:333|258:333|296:299|293:245|293:245|241:247|207:198,1,240,2|2,1:2|0:2,0:0:0:0:
125,222,109935,1,2,1:2:0:0:
42,187,110248,2,0,P|25:81|131:66,1,240,2|2,1:2|0:2,0:0:0:0:
209,108,111498,1,2,0:2:0:0:
282,59,111810,2,0,B|301:6|301:6|336:-7|336:-7,2,79.9999999999999,2|2|2,1:2|0:2|0:0,0:0:0:0:
290,146,112748,1,2,0:0:0:0:
134,65,113372,1,2,1:2:0:0:
133,153,113685,6,0,B|107:218|107:218|132:321,2,160,6|2|2,1:2|0:2|1:2,0:0:0:0:
217,178,115247,2,0,P|268:205|324:188,1,120,2|2,1:2|1:2,0:0:0:0:
435,116,116185,1,2,0:2:0:0:
509,162,116497,2,0,L|493:249,1,79.9999999999999,2|2,1:2|1:2,0:0:0:0:
407,254,117123,2,0,B|359:251|328:282|328:282|347:319|327:355,2,160,2|0|2,1:2|0:0|1:2,0:0:0:0:
488,287,118685,1,2,1:2:0:0:
510,201,118998,6,0,B|465:153|459:66|459:66|422:88|376:71|376:71|333:55|284:77,1,320,2|0,1:2|1:0,0:0:0:0:
207,100,120560,1,0,1:0:0:0:
256,192,120873,12,2,122427,1:2:0:0:
149,209,124623,5,4,1:2:0:0:
272,270,125091,2,0,P|331:288|391:273,1,125.999996154785,2|2,1:2|0:2,0:0:0:0:
456,207,125873,2,0,L|441:124,1,83.9999974365234,2|2,0:2|1:2,0:0:0:0:
359,12,126654,1,2,1:2:0:0:
229,61,127123,2,0,B|206:29|164:22|164:22|72:33,1,167.999994873047,2|0,0:2|1:2,0:0:0:0:
6,95,128060,6,0,P|56:128|49:188,1,125.999996154785,6|2,1:2|1:2,0:0:0:0:
183,218,128998,2,0,P|224:228|265:218,1,83.9999974365234,2|2,0:2|1:2,0:0:0:0:
334,157,129623,1,2,1:2:0:0:
431,255,130091,2,0,P|375:284|343:337,1,125.999996154785,2|2,1:2|1:2,0:0:0:0:
253,359,130873,2,0,P|216:343|174:345,1,83.9999974365234,8|8,1:2|1:2,0:0:0:0:
85,319,131498,5,6,1:2:0:0:
54,184,131966,2,0,B|63:99|63:99|102:72,1,125.999996154785,2|2,1:2|0:2,0:0:0:0:
189,84,132748,1,2,0:2:0:0:
211,173,133060,2,0,B|257:170|257:170|288:149|288:149|331:161,1,125.999996154785,2|2,1:2|1:2,0:0:0:0:
467,147,133998,2,0,B|450:260|450:260|399:311,1,167.999994873047,2|2,0:2|1:2,0:0:0:0:
321,311,134935,5,6,1:2:0:0:
256,192,135013,12,2,136497,1:2:0:0:
362,131,138060,5,4,1:2:0:0:
232,82,138528,2,0,P|170:78|119:113,1,125.999996154785,2|2,1:2|0:2,0:0:0:0:
55,182,139310,2,0,B|69:210|69:210|55:261,1,83.9999974365234,2|2,0:2|1:2,0:0:0:0:
144,367,140091,1,2,1:2:0:0:
244,271,140560,2,0,B|282:291|322:275|322:275|366:262|411:288,1,167.999994873047,2|0,0:2|1:2,0:0:0:0:
495,307,141497,6,0,B|483:217|483:217|511:176,1,125.999996154785,6|2,1:2|1:2,0:0:0:0:
477,50,142435,2,0,P|437:63|395:57,1,83.9999974365234,2|2,0:2|0:2,0:0:0:0:
310,21,143060,1,2,1:2:0:0:
244,142,143528,2,0,P|184:122|121:125,1,125.999996154785,2|2,1:2|0:2,0:0:0:0:
32,101,144310,2,0,P|39:59|62:25,1,83.9999974365234,8|8,1:2|1:2,0:0:0:0:
152,2,144935,5,6,1:2:0:0:
258,87,145403,2,0,P|255:150|221:202,1,125.999996154785,2|2,1:2|0:2,0:0:0:0:
188,289,146185,1,2,1:2:0:0:
245,362,146497,2,0,P|296:328|356:343,1,125.999996154785,2|2,1:2|1:2,0:0:0:0:
489,381,147435,1,2,0:2:0:0:
510,197,148060,1,2,1:2:0:0:
430,150,148372,5,6,1:2:0:0:
302,204,148840,2,0,B|275:183|275:183|229:201|187:173,1,125.999996154785,2|2,1:2|0:2,0:0:0:0:
95,188,149622,1,2,1:2:0:0:
24,128,149934,6,0,B|42:43|42:43|87:22,1,125.999996154785,4|2,1:2|1:2,0:0:0:0:
211,62,150872,2,0,P|251:47|292:50,1,83.9999974365234,2|2,0:2|1:2,0:0:0:0:
332,134,151497,2,0,B|308:196|308:196|331:239|331:239|325:299,2,167.999994873047,4|2|2,1:2|0:2|1:2,0:0:0:0:
389,63,153059,5,4,1:2:0:0:
509,306,153996,2,0,L|416:327,1,82.3999993084716,2|2,0:2|1:2,0:0:0:0:
358,382,154621,1,2,1:2:0:0:
291,320,154934,6,0,P|245:281|186:292,1,123.599998962707,4|2,1:2|1:2,0:0:0:0:
65,354,155871,2,0,P|42:277|89:212,1,164.799998616943,2|2,1:2|0:2,0:0:0:0:
177,200,156809,5,4,1:2:0:0:
