osu file format v14

[General]
AudioFilename: Fairy ring.mp3
AudioLeadIn: 0
PreviewTime: 124563
Countdown: 0
SampleSet: Soft
StackLeniency: 0.5
Mode: 0
LetterboxInBreaks: 0
WidescreenStoryboard: 1

[Editor]
Bookmarks: 106749,113397,117147,149959
DistanceSpacing: 1.36
BeatDivisor: 4
GridSize: 4
TimelineZoom: 1

[Metadata]
Title:Fairy ring
TitleUnicode:Fairy ring
Artist:Cororo
ArtistUnicode:Cororo
Creator:Kite
Version:Easy
Source:東方Project
Tags:touhou okoratu jonathanlfj _dog folklore instrumental harmonic c85 chateau bleu riverside comiket 85 strange instruments
BeatmapID:743192
BeatmapSetID:316761

[Difficulty]
HPDrainRate:3
CircleSize:2.5
OverallDifficulty:2
ApproachRate:3
SliderMultiplier:0.8
SliderTickRate:1

[Events]
//Background and Video events
0,0,"Konachan.com - 197994 black_hair dress grass landscape leaves necklace original scenic signed taka_(fishdrive) tree twintails wings.jpg",0,0
//Break Periods
//Storyboard Layer 0 (Background)
//Storyboard Layer 1 (Fail)
//Storyboard Layer 2 (Pass)
//Storyboard Layer 3 (Foreground)
//Storyboard Sound Samples

[TimingPoints]
19022,312.5,6,2,2,80,1,0
19022,-133.333333333333,6,2,2,80,0,0
30272,312.5,11,2,2,80,1,0
30272,-117.647058823529,11,2,2,80,0,0
36522,312.5,5,2,2,80,1,0
36522,-117.647058823529,5,2,2,80,0,0
39646,312.5,11,2,2,80,1,0
39646,-133.333333333333,11,2,2,80,0,0
49958,312.5,5,2,2,80,1,0
49958,-133.333333333333,5,2,2,80,0,0
53083,312.5,11,2,2,80,1,0
53083,-117.647058823529,11,2,2,80,0,0
63395,312.5,5,2,2,80,1,0
63395,-117.647058823529,5,2,2,80,0,0
71207,312.5,6,2,2,80,1,0
71207,-117.647058823529,6,2,2,80,0,0
73082,312.5,11,2,2,80,1,0
73082,-117.647058823529,11,2,2,80,0,0
76519,312.5,6,2,2,80,1,0
76519,-117.647058823529,6,2,2,80,0,0
80269,312.5,11,2,2,80,1,0
80269,-105.263157894737,11,2,2,80,0,0
90581,312.5,5,2,2,80,1,0
90581,-105.263157894737,5,2,2,80,0,0
93706,312.5,11,2,2,80,1,0
93706,-105.263157894737,11,2,2,80,0,0
104018,312.5,5,2,2,80,1,0
104018,-105.263157894737,5,2,2,80,0,0
110268,312.5,11,2,2,80,1,0
110268,-105.263157894737,11,2,2,80,0,0
117143,312.5,6,2,2,80,1,0
117143,-105.263157894737,6,2,2,80,0,0
120893,310.880829015544,6,2,2,80,1,0
122768,312.5,6,2,2,80,1,0
124643,312.5,11,2,2,80,1,1
134955,312.5,5,2,2,80,1,1
137455,-100,5,2,2,80,0,0
138080,312.5,11,2,2,80,1,1
138080,-95.2380952380952,11,2,2,80,0,1
148392,312.5,5,2,2,80,1,1
148392,-95.2380952380952,5,2,2,80,0,1
153079,312.5,6,2,2,80,1,1
153079,-95.2380952380952,6,2,2,80,0,1
156829,-95.2380952380952,6,2,2,80,0,0

[Colours]
Combo1 : 191,255,255
Combo2 : 215,215,255
Combo3 : 255,166,210
Combo4 : 255,164,164

[HitObjects]
162,123,19022,6,0,L|206:44,2,90.0000034332277,8|8|0,0:0|0:0|0:0,0:0:0:0:
72,292,20584,1,8,0:0:0:0:
156,338,20897,2,0,P|199:347|242:330,2,90.0000034332277,8|8|0,0:0|0:0|0:0,0:0:0:0:
72,292,22147,2,0,L|69:228,1,60.0000022888184,8|8,0:0|0:0,0:0:0:0:
69,135,22772,6,0,P|123:58|238:109,1,240.000009155274,8|0,0:0|0:0,0:0:0:0:
283,296,24647,2,0,P|330:317|394:298,2,120.000004577637,8|0|8,0:0|0:0|0:0,0:0:0:0:
251,205,26209,1,8,0:0:0:0:
268,110,26522,6,0,P|185:28|57:119,1,300.000011444092,8|8,0:0|0:0,0:0:0:0:
65,215,28397,2,0,P|70:268|73:308,2,90.0000034332277,8|8|8,0:0|0:0|0:0,0:0:0:0:
157,190,29647,2,0,L|164:124,1,60.0000022888184,8|8,0:0|0:0,0:0:0:0:
226,54,30272,6,0,P|310:32|370:119,1,204.000003890991,12|0,0:0|0:0,0:0:0:0:
338,214,31522,1,0,0:0:0:0:
380,306,31834,2,0,P|430:328|481:315,2,102.000001945496,12|8|0,0:0|0:0|0:0,0:0:0:0:
338,214,33084,2,0,L|269:210,1,68.0000012969971,8|8,0:0|0:0,0:0:0:0:
265,312,33709,6,0,L|57:299,1,204.000003890991,12|8,0:0|0:0,0:0:0:0:
30,202,34959,2,0,L|97:205,1,68.0000012969971,8|8,0:0|0:0,0:0:0:0:
199,192,35584,6,0,P|244:133|176:39,2,204.000003890991,12|12|8,0:0|0:0|0:0,0:0:0:0:
97,205,37772,1,8,0:0:0:0:
150,293,38084,2,0,L|353:329,1,204.000003890991,12|8,0:0|0:0,0:0:0:0:
451,348,39334,1,8,0:0:0:0:
454,246,39646,6,0,L|439:158,2,90.0000034332277,4|8|0,0:0|0:0|0:0,0:0:0:0:
451,348,40896,1,0,0:0:0:0:
365,294,41208,2,0,P|280:264|216:318,1,180.000006866455,8|0,0:0|0:0,0:0:0:0:
119,346,42458,2,0,L|59:334,1,60.0000022888184,8|8,0:0|0:0,0:0:0:0:
20,240,43083,6,0,L|37:152,1,90.0000034332277,12|8,0:0|0:0,0:0:0:0:
141,39,44021,2,0,L|128:103,1,60.0000022888184,0|0,0:0|0:0,0:0:0:0:
150,197,44646,2,0,P|211:235|303:194,1,180.000006866455,8|0,0:0|0:0,0:0:0:0:
351,104,45896,2,0,L|411:86,1,60.0000022888184,8|8,0:0|0:0,0:0:0:0:
479,160,46521,6,0,P|494:218|485:249,2,90.0000034332277,12|8|0,0:0|0:0|0:0,0:0:0:0:
408,86,47771,1,0,0:0:0:0:
332,154,48083,2,0,P|236:180|181:132,1,180.000006866455,8|0,0:0|0:0,0:0:0:0:
143,37,49333,2,0,L|79:43,1,60.0000022888184,8|8,0:0|0:0,0:0:0:0:
32,131,49958,6,0,L|23:251,1,120.000004577637,12|0,0:0|0:0,0:0:0:0:
78,336,50895,1,0,0:0:0:0:
179,320,51208,1,8,0:0:0:0:
279,302,51520,2,0,P|323:204|218:162,1,240.000009155274,12|8,0:0|0:0,0:0:0:0:
124,181,53083,6,0,B|83:138|83:138|63:89,2,102.000001945496,12|8|2,0:0|0:0|0:0,0:0:0:0:
191,257,54333,1,2,0:0:0:0:
225,161,54645,2,0,B|357:129|357:129|423:142,1,204.000003890991,8|10,0:0|0:0,0:0:0:0:
472,231,55895,1,8,0:0:0:0:
446,330,56208,1,10,0:0:0:0:
372,260,56520,6,0,B|314:254|314:254|266:264,1,102.000001945496,12|8,0:0|0:0,0:0:0:0:
132,328,57458,2,0,L|62:313,1,68.0000012969971,2|2,0:0|0:0,0:0:0:0:
22,220,58083,2,0,P|10:140|105:80,1,204.000003890991,8|2,0:0|0:0,0:0:0:0:
192,129,59333,1,8,0:0:0:0:
275,70,59645,1,10,0:0:0:0:
364,119,59958,6,0,P|386:173|370:216,2,102.000001945496,12|8|2,0:0|0:0|0:0,0:0:0:0:
275,70,61208,1,2,0:0:0:0:
192,129,61520,2,0,B|156:260|156:260|167:340,1,204.000003890991,8|2,0:0|0:0,0:0:0:0:
264,353,62770,1,8,0:0:0:0:
351,300,63083,1,10,0:0:0:0:
449,325,63395,6,0,P|483:264|465:205,1,136.000002593994,12|0,0:0|0:0,0:0:0:0:
391,132,64332,2,0,L|323:138,1,68.0000012969971,10|10,0:0|0:0,0:0:0:0:
237,82,64957,2,0,P|143:67|128:211,1,272.000005187988,12|10,0:0|0:0,0:0:0:0:
202,277,66520,6,0,B|344:335|344:335|399:317,1,204.000003890991,4|2,0:0|0:0,0:0:0:0:
472,132,68082,2,0,P|381:67|303:106,1,204.000003890991,12|2,0:0|0:0,0:0:0:0:
235,175,69332,1,2,0:0:0:0:
139,139,69645,6,0,B|71:117|71:117|39:126,2,102.000001945496,12|8|2,0:0|0:0|0:0,0:0:0:0:
235,175,70895,1,2,0:0:0:0:
157,241,71207,2,0,P|147:275|157:310,1,68.0000012969971,12|2,0:0|0:0,0:0:0:0:
232,372,71832,1,0,0:0:0:0:
306,302,72144,2,0,L|442:286,1,136.000002593994,2|2,0:0|0:0,0:0:0:0:
472,187,73082,6,0,P|438:99|307:158,1,272.000005187988,12|2,0:0|0:0,0:0:0:0:
204,157,74644,2,0,P|106:85|40:187,1,272.000005187988,12|10,0:0|0:0,0:0:0:0:
62,286,76207,1,8,0:0:0:0:
144,346,76519,6,0,L|346:325,1,204.000003890991,12|12,0:0|0:0,0:0:0:0:
448,313,77769,1,12,0:0:0:0:
455,211,78081,1,12,0:0:0:0:
461,109,78394,6,0,P|393:47|301:100,1,204.000003890991,12|12,0:0|0:0,0:0:0:0:
266,187,79644,1,12,0:0:0:0:
200,108,79956,1,12,0:0:0:0:
108,164,80269,6,0,L|87:278,2,113.999996955872,12|8|2,0:0|0:0|0:0,0:0:0:0:
200,108,81519,1,2,0:0:0:0:
266,187,81831,2,0,P|338:228|440:147,1,227.999993911743,8|2,0:0|0:0,0:0:0:0:
417,35,83081,2,0,L|338:24,1,75.9999979705811,10|8,0:0|0:0,0:0:0:0:
251,94,83706,6,0,P|197:110|148:85,1,113.999996955872,12|8,0:0|0:0,0:0:0:0:
45,222,84644,2,0,L|54:301,1,75.9999979705811,2|2,0:0|0:0,0:0:0:0:
153,352,85269,2,0,B|222:322|222:322|270:262,1,151.999995941162,8|0,0:0|0:0,0:0:0:0:
333,167,86206,2,0,P|367:156|407:162,1,75.9999979705811,2|10,0:0|0:0,0:0:0:0:
491,237,86831,1,8,0:0:0:0:
432,334,87144,6,0,L|316:353,2,113.999996955872,12|8|2,0:0|0:0|0:0,0:0:0:0:
491,237,88394,1,2,0:0:0:0:
454,129,88706,2,0,P|366:71|283:141,1,227.999993911743,12|2,0:0|0:0,0:0:0:0:
251,249,89956,2,0,L|194:298,1,75.9999979705811,10|8,0:0|0:0,0:0:0:0:
81,277,90581,6,0,P|41:224|68:139,1,151.999995941162,12|0,0:0|0:0,0:0:0:0:
141,65,91518,1,6,0:0:0:0:
226,140,91831,1,14,0:0:0:0:
321,78,92143,2,0,P|419:110|317:209,1,303.999991882324,12|12,0:0|0:0,0:0:0:0:
226,140,93706,6,0,P|147:121|118:136,2,113.999996955872,4|8|2,0:0|0:0|0:0,0:0:0:0:
207,252,94956,1,2,0:0:0:0:
276,341,95268,2,0,P|351:364|394:246,1,227.999993911743,8|2,0:0|0:0,0:0:0:0:
330,153,96518,1,10,0:0:0:0:
221,116,96831,1,8,0:0:0:0:
111,147,97143,6,0,B|94:219|94:219|100:266,2,113.999996955872,12|8|2,0:0|0:0|0:0,0:0:0:0:
145,38,98393,1,2,0:0:0:0:
254,71,98706,2,0,P|350:67|406:53,1,151.999995941162,8|0,0:0|0:0,0:0:0:0:
495,121,99643,2,0,P|503:158|487:201,1,75.9999979705811,2|10,0:0|0:0,0:0:0:0:
418,281,100268,1,8,0:0:0:0:
315,230,100581,6,0,B|257:206|257:206|195:273|102:233,1,227.999993911743,12|2,0:0|0:0,0:0:0:0:
52,134,101831,1,2,0:0:0:0:
166,133,102143,2,0,P|174:71|149:23,2,113.999996955872,8|8|2,0:0|0:0|0:0,0:0:0:0:
52,134,103393,2,0,L|39:212,1,75.9999979705811,10|8,0:0|0:0,0:0:0:0:
72,318,104018,6,0,P|157:357|211:252,1,227.999993911743,12|6,0:0|0:0,0:0:0:0:
175,150,105268,1,8,0:0:0:0:
239,56,105580,2,0,P|287:33|353:49,2,113.999996955872,14|14|14,0:0|0:0|0:0,0:0:0:0:
175,150,106830,1,14,0:0:0:0:
206,259,107143,6,0,P|165:342|88:222,1,303.999991882324,12|2,0:0|0:0,0:0:0:0:
174,149,108705,2,0,P|256:46|336:150,1,303.999991882324,12|2,0:0|0:0,0:0:0:0:
305,259,110268,2,0,P|397:344|424:222,1,303.999991882324,12|2,0:0|0:0,0:0:0:0:
336,150,111830,2,0,P|305:127|270:113,1,75.9999979705811,12|2,0:0|0:0,0:0:0:0:
157,102,112455,1,0,0:0:0:0:
44,123,112768,2,0,B|25:215|25:215|38:275,1,151.999995941162,2|8,0:0|0:0,0:0:0:0:
103,364,113705,6,0,P|185:378|237:337,1,151.999995941162,4|0,0:0|0:0,0:0:0:0:
296,241,114643,2,0,P|326:231|370:240,1,75.9999979705811,2|10,0:0|0:0,0:0:0:0:
472,286,115268,2,0,B|493:186|493:186|483:135,1,151.999995941162,12|0,0:0|0:0,0:0:0:0:
444,30,116205,1,2,0:0:0:0:
348,93,116518,1,10,0:0:0:0:
247,40,116830,1,8,0:0:0:0:
136,70,117143,6,0,P|42:144|200:256,1,379.999989852906,12|12,0:0|0:0,0:0:0:0:
312,256,119018,2,0,P|468:205|376:70,1,379.999989852906,12|12,0:0|0:0,0:0:0:0:
256,192,120893,12,4,123705,0:0:0:0:
65,174,124643,6,0,B|43:100|43:100|47:53,2,120,12|8|2,0:0|0:0|0:0,0:0:0:0:
104,279,125893,1,2,0:0:0:0:
180,197,126205,2,0,P|232:170|309:293,1,240,12|6,0:0|0:0,0:0:0:0:
405,350,127455,2,0,L|481:322,1,80,10|8,0:0|0:0,0:0:0:0:
438,218,128080,6,0,P|430:154|465:111,1,120,12|8,0:0|0:0,0:0:0:0:
302,60,129018,2,0,L|214:41,1,80,2|2,0:0|0:0,0:0:0:0:
112,58,129643,2,0,P|68:103|86:193,1,160,12|0,0:0|0:0,0:0:0:0:
160,274,130580,1,6,0:0:0:0:
263,231,130893,1,10,0:0:0:0:
343,308,131205,1,8,0:0:0:0:
436,246,131518,6,0,B|472:182|472:182|481:131,2,120,12|8|2,0:0|0:0|0:0,0:0:0:0:
343,308,132768,1,10,0:0:0:0:
263,231,133080,2,0,B|106:200|106:200|25:222,1,240,12|6,0:0|0:0,0:0:0:0:
37,109,134330,2,0,L|122:87,1,80,10|8,0:0|0:0,0:0:0:0:
226,99,134955,6,0,B|343:71|343:71|384:74,1,160,12|0,0:0|0:0,0:0:0:0:
469,144,135892,1,10,0:0:0:0:
498,252,136205,1,10,0:0:0:0:
426,337,136517,2,0,P|322:353|400:230,1,320,12|12,0:0|0:0,0:0:0:0:
498,252,138080,6,0,B|508:171|508:171|499:125,1,125.999996154785,12|8,0:0|0:0,0:0:0:0:
349,43,139017,2,0,L|294:109,1,83.9999974365235,2|10,0:0|0:0,0:0:0:0:
187,69,139642,2,0,P|113:46|61:183,1,251.999992309571,12|6,0:0|0:0,0:0:0:0:
109,281,140892,1,10,0:0:0:0:
206,220,141205,1,8,0:0:0:0:
267,315,141517,6,0,P|325:344|388:329,2,125.999996154785,12|8|2,0:0|0:0|0:0,0:0:0:0:
206,220,142767,1,10,0:0:0:0:
319,208,143080,2,0,B|336:104|336:104|315:44,1,167.999994873047,12|0,0:0|0:0,0:0:0:0:
202,30,144017,1,2,0:0:0:0:
104,90,144330,2,0,P|90:128|96:171,1,83.9999974365235,10|10,0:0|0:0,0:0:0:0:
159,265,144955,6,0,B|127:337|127:337|83:369,2,125.999996154785,6|8|2,0:0|0:0|0:0,0:0:0:0:
199,157,146205,1,10,0:0:0:0:
276,240,146517,2,0,P|372:260|421:136,1,251.999992309571,12|2,0:0|0:0,0:0:0:0:
344,52,147767,2,0,L|258:82,1,83.9999974365235,10|8,0:0|0:0,0:0:0:0:
152,53,148392,6,0,P|59:84|164:220,1,335.999989746094,12|10,0:0|0:0,0:0:0:0:
266,174,149954,6,0,P|330:159|387:191,1,125.999996154785,12|12,0:0|0:0,0:0:0:0:
343,352,150892,2,0,B|300:357|262:339,1,83.9999974365235,12|0,0:0|0:0,0:0:0:0:
187,255,151517,6,0,B|106:227|106:227|64:235,2,125.999996154785,12|12|12,0:0|0:0|0:0,0:0:0:0:
263,340,152767,1,12,0:0:0:0:
375,318,153079,6,0,P|408:254|390:200,1,125.999996154785,12|12,0:0|0:0,0:0:0:0:
238,132,154016,2,0,P|226:80|236:47,1,83.9999974365235,12|12,0:0|0:0,0:0:0:0:
342,88,154641,1,8,0:0:0:0:
332,201,154954,6,0,P|285:245|226:244,1,125.999996154785,12|12,0:0|0:0,0:0:0:0:
73,167,155891,2,0,B|47:210|47:210|30:286,2,125.999996154785,12|12|12,0:0|0:0|0:0,0:0:0:0:
