osu file format v14

[General]
AudioFilename: machikado mazoku.mp3
AudioLeadIn: 0
PreviewTime: 56997
Countdown: 0
SampleSet: Drum
StackLeniency: 0.7
Mode: 2
LetterboxInBreaks: 0
WidescreenStoryboard: 1

[Editor]
DistanceSpacing: 1
BeatDivisor: 4
GridSize: 4
TimelineZoom: 2.899999

[Metadata]
Title:YOIMACHI CANTARE (TV Size)
TitleUnicode:よいまちカンターレ (TV Size)
Artist:CORO MACHIKADO (Shamiko, Momo, Lilith, Mikan)
ArtistUnicode:コーロまちカド(シャミ子・桃・リリス・ミカン)
Creator:Yumeno Himiko
Version:RAIN
Source:まちカドまぞく
Tags:Machikado Mazoku The Demon Girl Next Door ed ending 芳文社 Houbunsha 小原好美 Kohara Konomi 鬼頭明里 Kitou Akari 高橋未奈美 Takahashi Minami 高柳知葉 Takayanagi Tomoyo 吉田優子 Yoshida Yuko 千代田桃 Chiyoda Momo リリス 陽夏木ミカン Hinatsuki Mikan examination exam
BeatmapID:2145333
BeatmapSetID:1025070

[Difficulty]
HPDrainRate:6
CircleSize:3.6
OverallDifficulty:9
ApproachRate:9
SliderMultiplier:1.9
SliderTickRate:2

[Events]
//Background and Video events
0,0,"BG.jpg",0,0
Video,-10,"ed.avi"
//Break Periods
//Storyboard Layer 0 (Background)
//Storyboard Layer 1 (Fail)
//Storyboard Layer 2 (Pass)
//Storyboard Layer 3 (Foreground)
//Storyboard Layer 4 (Overlay)
//Storyboard Sound Samples

[TimingPoints]
594,350.877192982456,4,3,1,60,1,0
1997,-100,4,2,0,80,0,0
2085,-100,4,2,1,80,0,0
4804,-100,4,2,0,80,0,0
4892,-100,4,2,1,80,0,0
7611,-100,4,2,0,80,0,0
7699,-100,4,2,1,80,0,0
13225,-100,4,2,0,80,0,0
13401,-100,4,2,0,50,0,0
14629,-100,4,2,0,80,0,0
14804,-100,4,2,0,50,0,0
16032,-100,4,2,0,80,0,0
16208,-100,4,2,0,50,0,0
17260,-100,4,2,0,80,0,0
17611,-100,4,2,0,50,0,0
17786,-100,4,2,0,60,0,0
18137,-100,4,2,0,70,0,0
18488,-100,4,2,0,80,0,0
18927,-100,4,2,0,60,0,0
30067,-83.3333333333333,4,2,0,80,0,0
30155,-83.3333333333333,4,2,1,80,0,0
35681,-83.3333333333333,4,2,0,80,0,0
35769,-83.3333333333333,4,2,1,80,0,0
37085,-83.3333333333333,4,2,0,60,0,0
37172,-83.3333333333333,4,2,1,80,0,0
39892,-83.3333333333333,4,2,0,60,0,0
39979,-83.3333333333333,4,2,1,60,0,0
45506,-83.3333333333333,4,2,0,60,0,0
45593,-83.3333333333333,4,2,1,60,0,0
55155,-83.3333333333333,4,2,1,70,0,0
57085,-100,4,2,1,80,0,0
58137,-83.3333333333333,4,2,0,90,0,1
58225,-83.3333333333333,4,2,1,90,0,1
60418,-83.3333333333333,4,2,0,90,0,1
60506,-83.3333333333333,4,2,1,90,0,1
63225,-83.3333333333333,4,2,0,90,0,1
63313,-83.3333333333333,4,2,1,90,0,1
69365,-83.3333333333333,4,2,0,90,0,1
69453,-83.3333333333333,4,2,1,90,0,1
71646,-83.3333333333333,4,2,0,90,0,1
71734,-83.3333333333333,4,2,1,90,0,1
77786,-83.3333333333333,4,2,1,60,0,1
78137,-83.3333333333333,4,2,1,70,0,1
78488,-83.3333333333333,4,2,1,80,0,1
78839,-83.3333333333333,4,2,1,90,0,1
79190,-83.3333333333333,4,2,0,70,0,1
80593,-100,4,2,0,80,0,0
80681,-100,4,2,0,50,0,0
81997,-100,4,2,0,80,0,0
82172,-100,4,2,0,50,0,0
83401,-100,4,2,0,80,0,0
83576,-100,4,2,0,50,0,0
84453,-100,4,2,1,50,0,0
85155,-100,4,2,0,70,0,0
85243,-100,4,2,1,70,0,0
85506,-100,4,2,1,50,0,0
86383,-100,4,2,0,50,0,0
87611,-100,4,2,0,20,0,0

[Colours]
Combo1 : 247,172,60
Combo2 : 254,167,167
Combo3 : 254,29,34
Combo4 : 124,103,245

[HitObjects]
144,284,594,5,0,0:0:0:0:
288,284,769,1,0,0:0:0:0:
332,268,856,1,0,0:0:0:0:
364,234,944,1,0,0:0:0:0:
375,188,1032,1,0,0:0:0:0:
364,142,1119,1,0,0:0:0:0:
332,108,1207,1,0,0:0:0:0:
287,93,1295,5,4,0:0:0:0:
144,84,1471,2,0,L|76:80,1,47.5,0|0,0:0|0:0,0:0:0:0:
212,60,1646,2,0,L|200:132,1,47.5,0|0,0:0|0:0,0:0:0:0:
136,136,1822,2,0,L|112:212,1,47.5,0|0,0:0|0:0,0:0:0:0:
316,256,1997,6,0,L|436:280,2,95,4|6|0,0:0|0:0|0:0,0:0:0:0:
176,240,2523,1,0,0:0:0:0:
133,222,2610,1,0,0:0:0:0:
115,179,2698,1,2,0:0:0:0:
134,137,2786,1,2,0:0:0:0:
177,120,2873,1,6,0:0:0:0:
432,60,3050,1,6,0:0:0:0:
272,60,3225,6,0,P|224:84|300:176,1,190,10|2,0:0|0:0,0:0:0:0:
448,188,3751,2,0,L|336:204,1,95,2|4,0:0|0:0,0:0:0:0:
192,204,4102,1,2,0:0:0:0:
146,214,4189,1,2,0:0:0:0:
122,253,4277,1,2,0:0:0:0:
132,298,4365,1,2,0:0:0:0:
312,272,4453,1,2,0:0:0:0:
329,228,4540,1,0,0:0:0:0:
312,185,4628,1,2,0:0:0:0:
270,166,4716,1,0,0:0:0:0:
120,136,4804,6,0,L|12:128,2,95,6|2|0,0:0|0:0|0:0,0:0:0:0:
280,148,5330,1,2,0:0:0:0:
325,154,5417,1,0,0:0:0:0:
352,192,5505,1,2,0:0:0:0:
343,237,5593,1,2,0:0:0:0:
304,261,5680,1,6,0:0:0:0:
56,300,5857,1,6,0:0:0:0:
216,304,6032,6,0,P|280:280|224:188,1,190,10|0,0:0|0:0,0:0:0:0:
80,168,6558,2,0,L|184:152,1,95,2|6,0:0|0:0,0:0:0:0:
336,140,6909,2,0,L|344:60,1,47.5,2|0,0:0|0:0,0:0:0:0:
280,56,7085,2,0,L|224:48,1,47.5,2|0,0:0|0:0,0:0:0:0:
408,56,7260,1,10,0:0:0:0:
460,96,7347,1,0,0:0:0:0:
452,164,7435,1,2,0:0:0:0:
392,192,7523,1,0,0:0:0:0:
184,212,7611,6,0,L|64:228,1,95,6|2,0:0|0:0,0:0:0:0:
356,320,7962,2,0,L|472:300,1,95,6|2,0:0|0:0,0:0:0:0:
372,280,8225,1,0,0:0:0:0:
184,216,8313,1,2,0:0:0:0:
144,176,8400,1,2,0:0:0:0:
136,120,8488,1,2,0:0:0:0:
172,76,8576,1,2,0:0:0:0:
228,60,8663,1,6,0:0:0:0:
392,76,8839,1,0,0:0:0:0:
152,312,9015,6,0,L|40:292,1,95,0|2,0:0|0:0,0:0:0:0:
328,208,9365,2,0,L|352:88,1,95,6|2,0:0|0:0,0:0:0:0:
100,96,9716,1,2,0:0:0:0:
52,128,9803,1,2,0:0:0:0:
48,184,9891,1,2,0:0:0:0:
80,232,9979,1,2,0:0:0:0:
136,236,10066,1,6,0:0:0:0:
292,240,10243,1,2,0:0:0:0:
116,336,10418,6,0,L|12:332,1,95,0|2,0:0|0:0,0:0:0:0:
308,136,10769,2,0,L|428:120,1,95,6|0,0:0|0:0,0:0:0:0:
324,104,11032,1,0,0:0:0:0:
156,80,11120,1,2,0:0:0:0:
104,104,11207,1,2,0:0:0:0:
92,152,11295,1,2,0:0:0:0:
120,200,11383,1,2,0:0:0:0:
168,212,11470,1,6,0:0:0:0:
420,208,11646,6,0,P|468:232|404:316,1,190,2|2,0:0|0:0,0:0:0:0:
132,312,12172,2,0,L|20:304,1,95,6|0,0:0|0:0,0:0:0:0:
336,256,12523,1,2,0:0:0:0:
388,220,12610,1,0,0:0:0:0:
384,160,12698,1,2,0:0:0:0:
324,136,12786,1,0,0:0:0:0:
100,92,12874,1,6,0:0:0:0:
52,136,12962,1,0,0:0:0:0:
64,192,13050,1,6,0:0:0:0:
120,204,13137,1,0,0:0:0:0:
440,240,13225,6,0,L|324:232,1,95,4|2,0:0|0:3,0:0:0:0:
184,220,13576,2,0,L|120:216,2,47.5,0|0|0,0:0|0:0|0:0,0:0:0:0:
352,148,13927,1,0,0:0:0:0:
192,116,14102,1,0,0:0:0:0:
352,84,14278,2,0,L|424:72,2,47.5,0|0|0,0:0|0:0|0:0,0:0:0:0:
92,324,14629,6,0,L|76:224,1,95,4|2,0:0|0:3,0:0:0:0:
236,196,14979,1,0,0:0:0:0:
282,188,15066,1,0,0:0:0:0:
329,181,15154,1,0,0:0:0:0:
144,120,15330,1,0,0:0:0:0:
300,168,15506,1,0,0:0:0:0:
136,256,15681,1,0,0:0:0:0:
88,251,15768,1,0,0:0:0:0:
41,246,15856,1,0,0:0:0:0:
304,320,16032,6,0,L|404:316,1,95,4|2,0:0|0:3,0:0:0:0:
224,216,16383,2,0,L|164:208,2,47.5,0|0|0,0:0|0:0|0:0,0:0:0:0:
384,236,16734,1,0,0:0:0:0:
196,128,16909,1,0,0:0:0:0:
356,116,17085,2,0,L|412:112,1,47.5,0|0,0:0|0:0,0:0:0:0:
192,304,17260,6,2,P|120:284|92:160,1,190,6|2,0:0|0:3,0:0:0:0:
340,164,17786,2,0,L|448:160,1,95,2|2,0:3|0:3,0:0:0:0:
148,296,18137,2,0,L|48:300,1,95,2|2,0:3|0:3,0:0:0:0:
384,224,18488,2,0,L|264:232,1,95,2|2,0:3|0:3,0:0:0:0:
52,224,18839,5,4,0:0:0:0:
176,224,19015,2,2,L|184:124,1,95,0|0,0:0|0:0,0:0:0:0:
60,116,19365,1,0,0:0:0:0:
212,108,19541,6,0,P|252:144|200:236,1,142.5,2|0,0:0|0:0,0:0:0:0:
84,260,19979,1,2,0:0:0:0:
140,268,20067,1,0,0:0:0:0:
380,280,20243,6,0,L|396:152,1,95,0|2,0:0|0:0,0:0:0:0:
240,128,20593,2,0,L|224:24,1,95,2|2,0:0|0:0,0:0:0:0:
288,40,20857,1,0,0:0:0:0:
348,44,20944,1,2,0:0:0:0:
408,52,21032,1,2,0:0:0:0:
256,92,21208,2,0,P|216:128|264:188,1,142.5,2|2,0:0|0:0,0:0:0:0:
504,188,21646,6,0,L|408:200,1,95,2|2,0:0|0:0,0:0:0:0:
272,216,21997,1,2,0:0:0:0:
404,252,22172,1,0,0:0:0:0:
248,312,22348,2,0,L|92:292,2,142.5,2|2|2,0:0|0:0|0:0,0:0:0:0:
484,124,23050,6,0,L|352:136,1,95,2|0,0:0|0:0,0:0:0:0:
252,144,23401,2,0,L|136:152,1,95,2|0,0:0|0:0,0:0:0:0:
292,140,23751,2,0,L|300:256,1,95,2|0,0:0|0:0,0:0:0:0:
148,256,24102,1,2,0:0:0:0:
112,208,24189,1,0,0:0:0:0:
128,156,24277,1,0,0:0:0:0:
184,144,24365,1,0,0:0:0:0:
376,128,24453,6,0,L|488:128,2,95,2|2|2,0:0|0:0|0:0,0:0:0:0:
224,132,24979,1,0,0:0:0:0:
376,128,25155,2,0,P|384:188|312:252,1,142.5,2|2,0:0|0:0,0:0:0:0:
184,268,25593,2,0,L|248:264,1,47.5,2|0,0:0|0:0,0:0:0:0:
472,104,25857,5,0,0:0:0:0:
344,100,26032,2,0,L|232:100,1,95,2|2,0:0|0:0,0:0:0:0:
388,100,26383,1,2,0:0:0:0:
144,108,26558,2,0,L|-4:132,2,142.5,2|2|2,0:0|0:0|0:0,0:0:0:0:
384,72,27260,6,0,L|496:52,1,95,2|0,0:0|0:0,0:0:0:0:
328,168,27611,2,0,L|220:156,1,95,0|0,0:0|0:0,0:0:0:0:
384,176,27962,2,0,L|392:280,1,95,2|0,0:3|0:0,0:0:0:0:
216,336,28225,2,0,L|208:232,1,95,2|0,0:3|0:0,0:0:0:0:
404,228,28488,6,0,P|448:176|368:104,1,190,4|0,0:0|3:0,0:0:0:0:
224,96,29015,2,0,L|100:88,1,95,0|2,3:0|3:0,0:0:0:0:
376,300,29365,2,0,L|480:288,1,95,0|0,3:0|3:0,0:0:0:0:
168,248,29716,1,2,3:0:0:0:
108,204,29803,1,0,3:0:0:0:
100,128,29891,1,0,3:0:0:0:
164,84,29979,1,0,3:0:0:0:
376,72,30067,6,0,L|500:60,1,113.999996520996,4|2,0:0|0:0,0:0:0:0:
308,84,30418,2,0,L|316:204,1,113.999996520996,2|2,0:0|0:0,0:0:0:0:
176,316,30769,2,0,L|320:288,1,113.999996520996,2|0,0:0|0:0,0:0:0:0:
368,248,31032,1,2,0:0:0:0:
288,204,31120,1,4,0:0:0:0:
148,128,31295,1,2,0:0:0:0:
392,96,31471,6,0,L|512:84,1,113.999996520996,2|0,1:2|0:0,0:0:0:0:
432,56,31734,1,0,0:0:0:0:
356,36,31822,1,2,0:0:0:0:
200,0,31997,1,2,0:0:0:0:
372,224,32172,2,0,L|204:320,2,170.999994781494,2|2|2,0:0|0:0|0:0,0:0:0:0:
88,176,32874,6,0,L|76:44,1,113.999996520996,2|2,1:2|0:0,0:0:0:0:
236,52,33225,1,2,0:0:0:0:
80,80,33401,1,0,0:0:0:0:
336,228,33576,2,0,L|516:240,2,170.999994781494,2|2|2,0:0|0:0|0:0,0:0:0:0:
80,220,34278,6,0,P|48:148|164:72,1,227.999993041992,2|2,1:2|0:0,0:0:0:0:
404,288,34804,2,0,L|164:276,1,227.999993041992,2|2,0:0|0:0,0:0:0:0:
440,200,35330,2,0,L|452:56,1,113.999996520996,4|0,0:0|0:0,0:0:0:0:
144,72,35681,6,0,P|88:120|192:224,1,227.999993041992,4|2,0:0|0:0,0:0:0:0:
316,244,36208,2,0,L|388:252,1,56.9999982604981,0|0,0:0|0:0,0:0:0:0:
188,328,36383,2,0,L|16:376,2,170.999994781494,2|2|2,0:0|0:0|0:0,0:0:0:0:
444,280,37085,6,0,P|460:208|328:136,1,227.999993041992,4|2,0:0|0:0,0:0:0:0:
188,148,37611,1,0,0:0:0:0:
444,328,37786,2,0,L|236:316,2,170.999994781494,2|2|2,3:2|3:2|3:2,0:0:0:0:
196,324,38488,6,0,P|120:216|200:160,1,227.999993041992,0|0,3:0|3:0,0:0:0:0:
332,156,39015,1,4,3:2:0:0:
80,324,39190,2,0,L|68:188,1,113.999996520996,2|2,0:0|0:0,0:0:0:0:
412,180,39541,2,0,L|432:24,1,113.999996520996,2|2,0:0|0:0,0:0:0:0:
104,60,39892,6,0,P|32:112|128:208,1,227.999993041992,4|4,0:0|0:0,0:0:0:0:
404,280,40593,2,0,L|144:268,1,227.999993041992,0|6,0:0|0:0,0:0:0:0:
472,84,41295,6,0,L|264:112,1,170.999994781494,2|2,0:0|0:0,0:0:0:0:
224,120,41646,1,4,0:0:0:0:
380,200,41822,1,2,0:0:0:0:
188,204,41997,6,0,P|116:248|224:312,1,227.999993041992,0|6,0:0|0:0,0:0:0:0:
488,280,42699,5,2,0:0:0:0:
196,144,43050,1,6,0:0:0:0:
488,84,43401,1,2,0:0:0:0:
192,216,43751,1,6,0:0:0:0:
464,212,44102,6,0,P|480:284|340:360,1,227.999993041992,2|4,0:0|0:0,0:0:0:0:
212,344,44629,1,2,0:0:0:0:
356,280,44804,2,0,L|364:192,1,56.9999982604981,0|0,0:0|0:0,0:0:0:0:
204,204,45067,2,0,L|136:192,1,56.9999982604981,0|4,0:0|0:0,0:0:0:0:
344,116,45330,1,4,0:0:0:0:
76,116,45506,6,0,P|24:164|116:264,1,227.999993041992,4|4,0:0|0:0,0:0:0:0:
400,244,46208,2,0,L|200:264,2,170.999994781494,2|2|2,0:0|0:0|0:0,0:0:0:0:
148,204,46909,6,0,P|88:148|180:64,1,227.999993041992,2|4,0:0|0:0,0:0:0:0:
332,80,47436,1,0,0:0:0:0:
136,320,47611,2,0,L|332:312,2,170.999994781494,2|2|2,0:0|0:0|0:0,0:0:0:0:
400,324,48313,6,0,P|436:256|344:156,1,227.999993041992,0|4,0:0|0:0,0:0:0:0:
104,120,49015,2,0,L|364:108,1,227.999993041992,0|4,0:0|0:0,0:0:0:0:
32,104,49716,6,0,P|28:176|164:252,1,227.999993041992,0|4,0:0|0:0,0:0:0:0:
440,128,50418,2,0,L|216:148,1,170.999994781494,2|2,0:0|0:0,0:0:0:0:
200,152,50769,1,4,0:0:0:0:
448,312,50944,6,0,P|464:244|336:156,1,227.999993041992,2|0,0:0|0:0,0:0:0:0:
200,152,51471,2,0,L|108:148,1,56.9999982604981,0|0,0:0|0:0,0:0:0:0:
280,212,51734,2,0,L|352:216,1,56.9999982604981,0|0,0:0|0:0,0:0:0:0:
196,260,51997,1,0,0:0:0:0:
456,272,52172,2,0,L|464:144,1,113.999996520996,4|0,0:0|0:0,0:0:0:0:
204,100,52523,6,0,L|68:92,1,113.999996520996,2|0,0:0|0:0,0:0:0:0:
252,104,52874,2,0,L|260:176,1,56.9999982604981,0|0,0:0|0:0,0:0:0:0:
124,248,53137,2,0,L|216:232,1,56.9999982604981,0|0,0:0|0:0,0:0:0:0:
340,216,53401,1,0,0:0:0:0:
88,136,53576,2,0,L|112:280,1,113.999996520996,4|0,0:0|0:0,0:0:0:0:
360,296,53927,6,0,L|496:276,1,113.999996520996,2|0,0:0|0:0,0:0:0:0:
228,196,54278,2,0,L|212:120,1,56.9999982604981,4|0,0:0|0:0,0:0:0:0:
296,128,54453,2,0,L|304:56,1,56.9999982604981,4|0,0:0|0:0,0:0:0:0:
216,272,54629,2,0,L|172:200,1,56.9999982604981,4|0,0:0|0:0,0:0:0:0:
300,236,54804,2,0,L|356:172,1,56.9999982604981,4|0,0:0|0:0,0:0:0:0:
216,336,54979,2,0,L|148:328,1,56.9999982604981,4|0,0:0|0:0,0:0:0:0:
372,340,55155,6,0,P|428:284|316:196,1,227.999993041992,2|4,0:0|0:0,0:0:0:0:
88,184,55681,2,0,P|36:136|144:40,1,227.999993041992,4|4,0:0|0:0,0:0:0:0:
388,32,56208,2,0,L|504:32,1,113.999996520996,4|4,0:0|0:0,0:0:0:0:
196,320,56558,6,0,P|124:300|212:216,1,227.999993041992,4|4,0:0|0:0,0:0:0:0:
448,184,57085,1,6,0:0:0:0:
316,188,57260,6,0,P|268:136|352:56,1,190,2|2,0:0|0:0,0:0:0:0:
488,48,57786,1,2,0:0:0:0:
312,56,57962,1,2,0:0:0:0:
56,152,58137,6,0,L|200:164,1,113.999996520996,4|0,0:0|0:0,0:0:0:0:
352,176,58488,2,0,L|500:188,1,113.999996520996,6|0,0:0|0:0,0:0:0:0:
204,284,58839,2,0,L|72:296,2,113.999996520996,2|2|4,0:0|0:0|0:0,0:0:0:0:
464,272,59365,6,0,P|464:188|324:128,1,227.999993041992,2|2,0:0|0:0,0:0:0:0:
164,128,59892,2,0,L|312:124,1,113.999996520996,6|0,0:0|0:0,0:0:0:0:
456,164,60243,2,0,L|324:172,1,113.999996520996,2|8,0:0|0:0,0:0:0:0:
160,184,60593,2,0,L|136:316,1,113.999996520996,6|0,0:0|0:0,0:0:0:0:
440,320,60944,6,0,L|464:188,1,113.999996520996,2|0,0:0|0:0,0:0:0:0:
280,184,61295,2,0,L|152:168,1,113.999996520996,6|0,0:0|0:0,0:0:0:0:
424,80,61646,2,0,L|288:64,2,113.999996520996,2|2|6,0:0|0:0|0:0,0:0:0:0:
144,72,62172,6,0,P|96:112|184:224,1,227.999993041992,2|2,0:0|0:0,0:0:0:0:
352,212,62699,2,0,L|484:196,1,113.999996520996,6|0,0:0|0:0,0:0:0:0:
284,220,63050,2,0,L|264:88,1,113.999996520996,2|8,0:0|0:0,0:0:0:0:
444,60,63401,2,0,L|304:80,1,113.999996520996,6|0,0:0|0:0,0:0:0:0:
72,104,63751,6,0,P|40:168|156:256,1,227.999993041992,2|4,0:0|0:0,0:0:0:0:
324,252,64278,1,0,0:0:0:0:
64,328,64453,6,0,L|328:320,1,227.999993041992,2|4,0:0|0:0,0:0:0:0:
132,228,64979,1,0,0:0:0:0:
408,92,65155,6,0,P|456:144|332:236,1,227.999993041992,2|4,0:0|0:0,0:0:0:0:
208,228,65681,1,0,0:0:0:0:
464,324,65857,6,0,L|216:300,1,227.999993041992,2|4,0:0|0:0,0:0:0:0:
404,224,66383,1,0,0:0:0:0:
108,212,66558,6,0,L|92:80,1,113.999996520996,2|0,0:0|0:0,0:0:0:0:
392,324,66909,2,0,L|408:192,1,113.999996520996,4|0,0:0|0:0,0:0:0:0:
152,292,67260,2,0,L|28:288,2,113.999996520996,2|2|4,0:0|0:0|0:0,0:0:0:0:
420,72,67786,6,0,P|456:132|372:208,1,170.999994781494,2|0,0:0|0:0,0:0:0:0:
236,208,68137,2,0,L|108:208,1,113.999996520996,2|0,0:0|0:0,0:0:0:0:
276,208,68488,1,2,0:0:0:0:
32,304,68664,5,0,0:0:0:0:
4,252,68751,1,0,0:0:0:0:
24,192,68839,1,2,0:0:0:0:
84,172,68927,1,0,0:0:0:0:
264,168,69015,2,0,L|340:160,1,56.9999982604981,6|0,0:0|0:0,0:0:0:0:
128,72,69190,2,0,L|60:68,1,56.9999982604981,6|0,0:0|0:0,0:0:0:0:
296,72,69365,6,0,L|416:64,1,113.999996520996,4|0,0:0|0:0,0:0:0:0:
228,72,69716,2,0,L|104:64,1,113.999996520996,6|0,0:0|0:0,0:0:0:0:
372,224,70067,2,0,L|508:216,2,113.999996520996,2|2|4,0:0|0:0|0:0,0:0:0:0:
108,224,70593,6,0,P|100:156|248:84,1,227.999993041992,2|2,0:0|0:0,0:0:0:0:
404,72,71120,2,0,L|420:220,1,113.999996520996,6|2,0:0|0:0,0:0:0:0:
240,240,71471,2,0,L|376:224,2,113.999996520996,2|10|6,0:0|0:0|0:0,0:0:0:0:
420,280,71997,1,0,0:0:0:0:
144,284,72172,6,0,P|116:224|244:128,1,227.999993041992,2|4,0:0|0:0,0:0:0:0:
488,112,72699,2,0,L|332:96,1,113.999996520996,2|0,0:0|0:0,0:0:0:0:
124,76,73050,2,0,L|4:64,1,113.999996520996,2|4,0:0|0:0,0:0:0:0:
272,304,73401,6,0,P|368:284|408:148,1,227.999993041992,2|0,0:0|0:0,0:0:0:0:
232,152,73927,2,0,L|104:140,1,113.999996520996,4|0,0:0|0:0,0:0:0:0:
300,108,74278,1,0,0:0:0:0:
356,103,74365,1,0,0:0:0:0:
413,98,74453,1,0,0:0:0:0:
232,116,74629,2,0,L|212:248,1,113.999996520996,6|2,0:0|0:0,0:0:0:0:
468,320,74979,6,0,P|488:252|352:172,1,227.999993041992,2|6,0:0|0:0,0:0:0:0:
196,156,75506,2,0,L|440:140,1,227.999993041992,2|2,0:0|0:0,0:0:0:0:
280,84,76032,1,4,0:0:0:0:
28,88,76208,6,0,P|32:192|160:228,1,227.999993041992,2|2,0:0|0:0,0:0:0:0:
296,220,76734,1,6,0:0:0:0:
140,184,76909,1,2,0:0:0:0:
436,120,77085,6,0,L|252:128,2,170.999994781494,2|2|2,0:0|0:0|0:0,0:0:0:0:
176,312,77786,5,4,0:0:0:0:
124,284,77873,1,0,0:0:0:0:
76,256,77961,1,4,0:0:0:0:
128,228,78049,1,0,0:0:0:0:
280,200,78137,1,4,0:0:0:0:
332,180,78224,1,0,0:0:0:0:
280,160,78312,1,4,0:0:0:0:
224,144,78400,1,0,0:0:0:0:
400,104,78488,5,4,0:0:0:0:
456,88,78575,1,0,0:0:0:0:
512,72,78663,1,4,0:0:0:0:
456,56,78751,1,0,0:0:0:0:
284,68,78839,1,4,0:0:0:0:
232,92,78926,1,0,0:0:0:0:
284,112,79014,1,4,0:0:0:0:
340,128,79102,1,0,0:0:0:0:
112,336,79190,5,6,0:0:0:0:
256,304,79365,2,0,P|132:244|128:112,1,227.999993041992,2|2,0:0|0:0,0:0:0:0:
384,96,79892,2,0,L|400:232,1,113.999996520996,6|0,0:0|0:0,0:0:0:0:
232,224,80243,2,0,L|220:104,1,113.999996520996,2|0,0:0|0:0,0:0:0:0:
460,84,80593,6,0,L|328:96,1,95,4|0,0:0|0:0,0:0:0:0:
212,108,80944,2,0,L|140:112,2,47.5,0|0|0,0:0|0:0|0:0,0:0:0:0:
356,156,81295,1,0,0:0:0:0:
192,248,81471,1,0,0:0:0:0:
344,244,81646,2,0,L|424:240,2,47.5,0|0|0,0:0|0:0|0:0,0:0:0:0:
104,248,81997,6,0,L|92:124,1,95,4|0,0:0|0:0,0:0:0:0:
244,132,82348,1,0,0:0:0:0:
291,126,82435,1,0,0:0:0:0:
338,121,82523,1,0,0:0:0:0:
188,140,82699,1,0,0:0:0:0:
336,180,82874,1,0,0:0:0:0:
184,204,83050,1,0,0:0:0:0:
137,210,83138,1,0,0:0:0:0:
90,216,83225,1,0,0:0:0:0:
328,324,83401,6,0,L|336:200,1,95,4|0,0:0|0:0,0:0:0:0:
188,192,83751,1,0,0:0:0:0:
140,152,83839,1,0,0:0:0:0:
144,92,83927,1,0,0:0:0:0:
196,64,84015,1,0,0:0:0:0:
344,64,84102,5,0,0:0:0:0:
384,112,84190,1,0,0:0:0:0:
368,172,84278,1,0,0:0:0:0:
308,192,84365,1,0,0:0:0:0:
156,200,84453,2,0,L|92:204,1,47.5,4|0,0:0|0:0,0:0:0:0:
276,296,84629,2,0,L|328:292,1,47.5,4|0,0:0|0:0,0:0:0:0:
124,296,85155,6,0,P|92:236|176:204,1,142.5,4|0,0:0|0:0,0:0:0:0:
340,136,85506,1,0,3:0:0:0:
400,184,85593,1,0,3:0:0:0:
388,260,85681,1,0,3:0:0:0:
323,292,85769,1,0,3:0:0:0:
168,284,85857,1,0,3:0:0:0:
104,276,85944,1,0,3:0:0:0:
168,284,86032,1,0,3:0:0:0:
452,288,86383,6,0,L|464:176,1,95,4|4,0:2|0:2,0:0:0:0:
156,144,86734,1,4,0:2:0:0:
256,192,86909,12,0,87611,0:0:0:0:
