osu file format v14

[General]
AudioFilename: machikado mazoku.mp3
AudioLeadIn: 0
PreviewTime: 56997
Countdown: 0
SampleSet: Drum
StackLeniency: 0.7
Mode: 2
LetterboxInBreaks: 0
WidescreenStoryboard: 1

[Editor]
DistanceSpacing: 1.2
BeatDivisor: 4
GridSize: 16
TimelineZoom: 2.899999

[Metadata]
Title:YOIMACHI CANTARE (TV Size)
TitleUnicode:よいまちカンターレ (TV Size)
Artist:CORO MACHIKADO (Shamiko, Momo, Lilith, Mikan)
ArtistUnicode:コーロまちカド(シャミ子・桃・リリス・ミカン)
Creator:Yumeno Himiko
Version:CUP
Source:まちカドまぞく
Tags:Machikado Mazoku The Demon Girl Next Door ed ending 芳文社 Houbunsha 小原好美 Kohara Konomi 鬼頭明里 Kitou Akari 高橋未奈美 Takahashi Minami 高柳知葉 Takayanagi Tomoyo 吉田優子 Yoshida Yuko 千代田桃 Chiyoda Momo リリス 陽夏木ミカン Hinatsuki Mikan examination exam
BeatmapID:2148353
BeatmapSetID:1025070

[Difficulty]
HPDrainRate:3
CircleSize:2
OverallDifficulty:6
ApproachRate:6
SliderMultiplier:1.3
SliderTickRate:1

[Events]
//Background and Video events
0,0,"BG.jpg",0,0
Video,-10,"ed.avi"
//Break Periods
//Storyboard Layer 0 (Background)
//Storyboard Layer 1 (Fail)
//Storyboard Layer 2 (Pass)
//Storyboard Layer 3 (Foreground)
//Storyboard Layer 4 (Overlay)
//Storyboard Sound Samples

[TimingPoints]
594,350.877192982456,4,3,1,60,1,0
1997,-100,4,2,0,80,0,0
2085,-100,4,2,1,80,0,0
4804,-100,4,2,0,80,0,0
4892,-100,4,2,1,80,0,0
7611,-100,4,2,0,80,0,0
7699,-100,4,2,1,80,0,0
13225,-100,4,2,0,80,0,0
13401,-100,4,2,0,50,0,0
14629,-100,4,2,0,80,0,0
14804,-100,4,2,0,50,0,0
16032,-100,4,2,0,80,0,0
16208,-100,4,2,0,50,0,0
17260,-100,4,2,0,80,0,0
17611,-100,4,2,0,50,0,0
17786,-100,4,2,0,60,0,0
18137,-100,4,2,0,70,0,0
18488,-100,4,2,0,80,0,0
18927,-100,4,2,0,60,0,0
30067,-100,4,2,0,80,0,0
30155,-100,4,2,1,80,0,0
35681,-100,4,2,0,80,0,0
35769,-100,4,2,1,80,0,0
37085,-100,4,2,0,60,0,0
37172,-100,4,2,1,80,0,0
39892,-100,4,2,0,60,0,0
39979,-100,4,2,1,60,0,0
45506,-100,4,2,0,60,0,0
45593,-100,4,2,1,60,0,0
55155,-100,4,2,1,70,0,0
57085,-100,4,2,1,80,0,0
58137,-100,4,2,0,90,0,1
58225,-100,4,2,1,90,0,1
60418,-100,4,2,0,90,0,1
60506,-100,4,2,1,90,0,1
63225,-100,4,2,0,90,0,1
63313,-100,4,2,1,90,0,1
69365,-100,4,2,0,90,0,1
69453,-100,4,2,1,90,0,1
77786,-100,4,2,1,60,0,1
78137,-100,4,2,1,70,0,1
78488,-100,4,2,1,80,0,1
78839,-100,4,2,1,90,0,1
79190,-100,4,2,0,70,0,1
80593,-100,4,2,0,80,0,0
80681,-100,4,2,0,50,0,0
81997,-100,4,2,0,80,0,0
82172,-100,4,2,0,50,0,0
83401,-100,4,2,0,80,0,0
83576,-100,4,2,0,50,0,0
84453,-100,4,2,1,50,0,0
85155,-100,4,2,0,70,0,0
85243,-100,4,2,1,70,0,0
85506,-100,4,2,1,50,0,0
86383,-100,4,2,0,50,0,0
87611,-100,4,2,0,20,0,0

[Colours]
Combo1 : 247,172,60
Combo2 : 254,167,167
Combo3 : 254,29,34
Combo4 : 124,103,245

[HitObjects]
304,288,594,6,0,P|256:192|384:128,1,260,0|4,0:0|0:0,0:0:0:0:
496,144,1646,1,0,0:0:0:0:
320,144,1997,5,4,0:0:0:0:
48,144,2874,2,0,L|32:224,1,65,6|6,0:0|0:0,0:0:0:0:
112,208,3225,1,10,0:0:0:0:
384,272,3927,2,0,L|176:272,1,195,4|2,0:0|0:0,0:0:0:0:
384,192,4804,5,6,0:0:0:0:
80,192,5682,1,6,0:0:0:0:
112,128,5857,1,6,0:0:0:0:
192,128,6032,1,10,0:0:0:0:
448,112,6558,1,2,0:0:0:0:
288,112,6909,2,0,P|256:176|288:224,1,130,2|10,0:0|0:0,0:0:0:0:
432,224,7611,6,0,P|448:288|384:336,1,130,6|6,0:0|0:0,0:0:0:0:
256,288,8313,1,2,0:0:0:0:
416,256,8664,1,6,0:0:0:0:
240,240,9015,6,0,L|80:224,1,130,0|6,0:0|0:0,0:0:0:0:
256,208,9716,2,0,P|253:147|186:107,1,130,2|6,0:0|0:0,0:0:0:0:
30,61,10418,6,0,L|174:45,1,130,0|6,0:0|0:0,0:0:0:0:
304,48,11120,2,0,P|336:112|288:160,1,130,2|6,0:0|0:0,0:0:0:0:
160,192,11822,5,0,0:0:0:0:
320,224,12172,1,6,0:0:0:0:
160,240,12523,2,0,P|128:176|176:144,1,130,2|6,0:0|0:0,0:0:0:0:
336,144,13225,5,4,0:0:0:0:
448,192,13576,1,0,0:0:0:0:
448,288,13927,1,0,0:0:0:0:
336,320,14278,1,0,0:0:0:0:
160,256,14629,5,4,0:0:0:0:
288,208,14979,1,0,0:0:0:0:
288,96,15330,1,0,0:0:0:0:
160,48,15681,1,0,0:0:0:0:
0,128,16032,5,4,0:0:0:0:
160,112,16383,1,0,0:0:0:0:
320,96,16734,1,0,0:0:0:0:
160,112,17085,1,0,0:0:0:0:
288,112,17260,6,2,P|320:144|224:240,1,195,6|2,0:0|0:3,0:0:0:0:
96,240,18137,2,0,P|64:192|128:144,1,130,2|2,0:3|0:3,0:0:0:0:
288,144,18839,6,0,L|448:144,1,130,4|0,0:0|0:0,0:0:0:0:
256,144,19541,2,0,L|224:288,1,130,2|0,0:0|0:0,0:0:0:0:
400,272,20243,5,0,0:0:0:0:
272,272,20593,1,2,0:0:0:0:
416,272,20944,2,0,P|432:208|384:160,1,130,2|0,0:0|0:0,0:0:0:0:
224,160,21646,6,0,L|80:160,2,130,2|2|2,0:0|0:0|0:0,0:0:0:0:
64,160,22699,1,0,0:0:0:0:
240,160,23050,6,0,P|240:208|176:272,1,130,2|2,0:0|0:0,0:0:0:0:
64,272,23751,1,2,0:0:0:0:
224,272,24102,1,2,0:0:0:0:
384,272,24453,6,0,L|400:128,1,130,2|2,0:0|0:0,0:0:0:0:
240,112,25155,2,0,P|208:64|256:0,1,130,2|0,0:0|0:0,0:0:0:0:
432,16,25857,5,0,0:0:0:0:
304,112,26208,1,2,0:0:0:0:
176,192,26558,2,0,L|32:192,1,130,2|0,0:0|0:0,0:0:0:0:
224,192,27260,6,0,P|288:160|288:96,1,130,2|0,0:0|0:0,0:0:0:0:
144,80,27962,2,0,L|128:224,1,130,2|0,0:3|0:0,0:0:0:0:
240,208,28488,6,0,P|272:224|224:336,1,195,4|0,0:0|3:0,0:0:0:0:
128,336,29190,1,2,3:0:0:0:
224,336,29365,2,0,L|368:336,1,130,0|2,3:0|3:0,0:0:0:0:
160,176,30067,5,4,0:0:0:0:
320,176,30418,1,2,0:0:0:0:
160,176,30769,2,0,L|48:176,2,97.5,2|2|2,0:0|0:0|0:0,0:0:0:0:
256,176,31471,6,0,P|288:224|240:288,1,130,2|2,1:2|0:0,0:0:0:0:
96,304,32172,2,0,L|240:288,1,130,2|0,0:0|0:0,0:0:0:0:
416,272,32874,6,0,P|464:256|496:160,1,130,2|2,1:2|0:0,0:0:0:0:
352,160,33576,1,2,0:0:0:0:
496,112,33927,1,0,0:0:0:0:
304,112,34278,6,0,P|272:112|192:192,1,130,2|2,1:2|0:0,0:0:0:0:
320,272,34979,1,0,0:0:0:0:
160,272,35330,1,4,0:0:0:0:
352,272,35681,6,0,P|368:208|304:160,1,130,4|2,0:0|0:0,0:0:0:0:
176,128,36383,2,0,P|160:96|224:16,1,130,2|0,0:0|0:0,0:0:0:0:
352,16,37085,5,4,0:0:0:0:
192,16,37436,1,2,0:0:0:0:
384,128,37786,2,0,L|512:112,2,97.5,2|2|2,3:2|3:2|3:2,0:0:0:0:
288,128,38488,6,0,P|256:160|288:240,1,130,0|0,3:0|3:0,0:0:0:0:
432,240,39190,2,0,P|448:192|384:128,1,130,2|2,0:0|0:0,0:0:0:0:
224,112,39892,6,0,L|80:48,1,130,4|4,0:0|0:0,0:0:0:0:
256,48,40593,2,0,L|240:192,1,130,0|6,0:0|0:0,0:0:0:0:
96,224,41295,6,0,L|239:241,1,130,2|4,0:0|0:0,0:0:0:0:
379,262,41997,1,0,0:0:0:0:
224,320,42348,1,6,0:0:0:0:
416,256,42699,6,0,L|432:96,1,130,2|6,0:0|0:0,0:0:0:0:
272,96,43401,1,2,0:0:0:0:
432,112,43751,1,6,0:0:0:0:
240,96,44102,6,0,P|192:128|224:192,1,130,2|4,0:0|0:0,0:0:0:0:
368,192,44804,2,0,L|224:192,1,130,0|4,0:0|0:0,0:0:0:0:
48,192,45506,6,0,L|32:48,1,130,4|4,0:0|0:0,0:0:0:0:
192,32,46208,2,0,L|352:16,1,130,2|4,0:0|0:0,0:0:0:0:
512,128,46909,6,0,P|496:176|400:208,1,130,2|4,0:0|0:0,0:0:0:0:
272,208,47611,2,0,L|144:208,2,97.5,2|2|2,0:0|0:0|0:0,0:0:0:0:
368,208,48313,6,0,P|384:144|320:96,1,130,0|4,0:0|0:0,0:0:0:0:
192,64,49015,1,0,0:0:0:0:
352,64,49365,1,4,0:0:0:0:
160,64,49716,6,0,P|128:96|176:176,1,130,0|4,0:0|0:0,0:0:0:0:
304,176,50418,2,0,L|432:160,2,97.5,2|2|2,0:0|0:0|0:0,0:0:0:0:
128,192,51295,5,0,0:0:0:0:
208,192,51471,2,0,P|288:128|192:32,1,260,0|4,0:0|0:0,0:0:0:0:
32,112,52523,6,0,L|176:112,1,130,2|0,0:0|0:0,0:0:0:0:
320,112,53225,2,0,L|336:256,1,130,0|4,0:0|0:0,0:0:0:0:
144,240,53927,6,0,P|144:176|208:128,1,130,2|4,0:0|0:0,0:0:0:0:
352,128,54629,2,0,L|512:128,1,130,4|4,0:0|0:0,0:0:0:0:
384,128,55155,5,2,0:0:0:0:
224,128,55506,2,0,L|208:208,1,65,4|4,0:0|0:0,0:0:0:0:
368,192,56032,2,0,L|448:192,2,65,4|4|4,0:0|0:0|0:0,0:0:0:0:
256,192,56558,6,0,P|178:202|125:243,1,130,4|4,0:0|0:0,0:0:0:0:
112,304,57085,1,6,0:0:0:0:
288,208,57786,1,2,0:0:0:0:
448,144,58137,5,4,0:0:0:0:
288,128,58488,1,6,0:0:0:0:
448,144,58839,2,0,L|432:64,1,65,2|2,0:0|0:0,0:0:0:0:
288,48,59365,6,0,L|144:48,1,130,2|0,0:0|0:0,0:0:0:0:
80,48,59892,1,4,0:0:0:0:
240,64,60243,2,0,P|320:48|352:0,1,130,2|6,0:0|0:0,0:0:0:0:
160,48,60944,6,0,P|128:80|176:144,1,130,2|6,0:0|0:0,0:0:0:0:
320,144,61646,2,0,L|400:144,2,65,2|2|6,0:0|0:0|0:0,0:0:0:0:
160,144,62348,5,0,0:0:0:0:
320,144,62699,1,6,0:0:0:0:
160,144,63050,2,0,P|96:144|48:208,1,130,2|6,0:0|0:0,0:0:0:0:
240,256,63751,6,0,L|384:256,1,130,2|4,0:0|0:0,0:0:0:0:
208,256,64453,2,0,L|192:112,1,130,2|4,0:0|0:0,0:0:0:0:
336,80,65155,5,2,0:0:0:0:
176,64,65506,1,4,0:0:0:0:
352,64,65857,2,0,P|368:112|320:176,1,130,2|4,0:0|0:0,0:0:0:0:
128,176,66558,6,0,L|288:176,1,130,2|4,0:0|0:0,0:0:0:0:
176,176,67085,2,0,P|96:192|64:240,1,130,2|2,0:0|0:0,0:0:0:0:
256,240,67786,2,0,P|272:192|208:128,1,130,2|2,0:0|0:0,0:0:0:0:
48,96,68488,6,0,P|48:48|128:16,1,130,2|2,0:0|0:0,0:0:0:0:
208,16,69015,2,0,L|288:16,1,65,6|6,0:0|0:0,0:0:0:0:
352,16,69365,5,4,0:0:0:0:
192,16,69716,1,6,0:0:0:0:
352,16,70067,2,0,L|336:96,1,65,2|2,0:0|0:0,0:0:0:0:
160,80,70593,6,0,P|144:144|208:192,1,130,2|2,0:0|0:0,0:0:0:0:
288,192,71120,1,6,0:0:0:0:
112,192,71471,2,0,P|99:247|160:304,1,130,2|6,0:0|0:0,0:0:0:0:
320,304,72172,6,0,P|352:256|304:192,1,130,2|4,0:0|0:0,0:0:0:0:
224,176,72699,2,0,L|80:160,2,130,2|2|2,0:0|0:0|0:0,0:0:0:0:
464,208,73927,5,4,0:0:0:0:
304,208,74278,2,0,P|240:224|224:304,1,130,0|6,0:0|0:0,0:0:0:0:
400,288,74979,6,0,L|416:128,1,130,2|6,0:0|0:0,0:0:0:0:
256,128,75681,2,0,L|96:112,1,130,0|4,0:0|0:0,0:0:0:0:
320,64,76383,6,0,P|320:96|240:176,1,130,0|6,0:0|0:0,0:0:0:0:
112,176,77085,1,2,0:0:0:0:
272,176,77436,1,4,0:0:0:0:
80,176,77786,6,0,P|64:208|112:288,1,130,4|4,0:0|0:0,0:0:0:0:
272,288,78488,2,0,L|416:288,1,130,4|4,0:0|0:0,0:0:0:0:
224,192,79190,5,6,0:0:0:0:
480,128,79892,1,6,0:0:0:0:
176,128,80593,6,0,P|160:176|224:240,1,130,4|0,0:0|0:0,0:0:0:0:
368,240,81295,2,0,L|224:240,1,130,0|0,0:0|0:0,0:0:0:0:
432,240,81997,6,0,L|448:80,1,130,4|0,0:0|0:0,0:0:0:0:
288,80,82699,1,0,0:0:0:0:
448,96,83050,1,0,0:0:0:0:
256,96,83401,6,0,P|192:96|112:144,1,130,4|0,0:0|0:0,0:0:0:0:
288,112,84102,2,0,P|336:176|320:240,1,130,0|4,0:0|0:0,0:0:0:0:
272,288,84629,1,4,0:0:0:0:
32,272,85155,6,0,L|192:272,1,130,4|0,0:0|3:0,0:0:0:0:
240,272,85681,1,0,3:0:0:0:
208,192,85857,1,0,3:0:0:0:
128,192,86032,1,0,3:0:0:0:
304,192,86383,6,0,L|384:192,1,65,4|4,0:2|0:2,0:0:0:0:
256,192,86734,1,4,0:0:0:0:
256,192,87085,12,0,87611,0:0:0:0:
