osu file format v14

[General]
AudioFilename: audio.mp3
AudioLeadIn: 0
PreviewTime: 28780
Countdown: 0
SampleSet: Soft
StackLeniency: 0.7
Mode: 0
LetterboxInBreaks: 0
WidescreenStoryboard: 1

[Editor]
Bookmarks: 29934,42857
DistanceSpacing: 0.6
BeatDivisor: 6
GridSize: 32
TimelineZoom: 1.8

[Metadata]
Title:Astronomia (Medieval Style)
TitleUnicode:Astronomia (Medieval Style)
Artist:Cornelius Link
ArtistUnicode:Cornelius Link
Creator:Seto Kousuke
Version:My Funeral
Source:
Tags:Enerugi Trynna senhor srskyplayer instrumental cover Funeral dancing coffin ghana meme world dance other Vicetone Tony Igy seto's
BeatmapID:2419371
BeatmapSetID:1159452

[Difficulty]
HPDrainRate:6
CircleSize:4.2
OverallDifficulty:9.4
ApproachRate:9
SliderMultiplier:2
SliderTickRate:1

[Events]
//Background and Video events
0,0,"The legend of the 4 legendary legend cavaliers of the legend.jpg",0,0
//Break Periods
//Storyboard Layer 0 (Background)
//Storyboard Layer 1 (Fail)
//Storyboard Layer 2 (Pass)
//Storyboard Layer 3 (Foreground)
//Storyboard Layer 4 (Overlay)
//Storyboard Sound Samples

[TimingPoints]
404,461.538461538462,4,2,0,40,1,0
404,-222.222222222221,4,2,0,40,0,0
7788,-100,4,2,0,60,0,0
29942,-86.9565217391304,4,2,0,60,0,0
42865,759.493670886076,4,2,0,60,1,0
43624,769.230769230769,4,2,0,60,1,0
43912,1176.47058823529,4,2,0,60,1,0
44206,810.810810810811,4,2,0,60,1,0
44510,895.522388059701,4,2,0,60,1,0
45182,487.80487804878,4,2,0,60,1,0
45182,-500,4,2,0,60,0,0

[Colours]
Combo1 : 191,140,238
Combo2 : 245,213,114
Combo3 : 140,199,247
Combo4 : 133,234,128

[HitObjects]
123,185,404,6,0,P|75:176|26:180,1,89.9999972534181,0|0,3:0|0:0,0:0:0:0:
189,25,1096,1,0,3:0:0:0:
189,25,1327,2,0,P|194:69|187:120,1,89.9999972534181,8|0,3:0|0:0,0:0:0:0:
224,314,2250,2,0,P|176:305|127:309,1,89.9999972534181,0|0,3:0|0:0,0:0:0:0:
290,154,2942,1,0,3:0:0:0:
290,154,3173,2,0,P|295:198|288:249,1,89.9999972534181,8|0,3:0|0:0,0:0:0:0:
416,380,4096,2,0,P|368:371|319:375,1,89.9999972534181,0|0,3:0|0:0,0:0:0:0:
482,220,4788,1,0,3:0:0:0:
482,220,5019,2,0,P|487:264|480:315,1,89.9999972534181,8|0,3:0|0:0,0:0:0:0:
97,362,5942,2,0,P|144:353|194:357,1,89.9999972534181,0|0,3:0|0:0,0:0:0:0:
31,202,6634,1,0,3:0:0:0:
31,202,6865,2,0,P|26:246|33:297,1,89.9999972534181,8|0,3:0|0:0,0:0:0:0:
351,181,7788,6,0,P|347:229|338:176,1,150,4|0,3:3|0:0,0:0:0:0:
442,168,8250,1,2,3:2:0:0:
227,175,8480,1,2,0:2:0:0:
327,29,8711,2,0,P|336:117|308:219,1,150,10|0,3:2|0:2,0:2:0:0:
350,180,9173,2,0,P|362:107|353:33,1,150,2|0,3:2|0:2,0:2:0:0:
260,107,9634,6,0,P|183:99|88:114,1,150,2|0,3:2|0:2,0:2:0:0:
52,37,10096,1,2,0:2:0:0:
82,193,10327,1,2,0:2:0:0:
205,20,10557,2,0,P|253:12|307:21,1,100,10|0,3:2|0:2,0:2:0:0:
250,125,10904,2,0,L|230:140,2,25,2|2|2,0:2|0:2|0:2,0:2:0:0:
142,263,11250,1,2,0:2:0:0:
334,265,11480,2,0,P|290:248|135:266,1,200,2|0,3:2|0:2,0:2:0:0:
94,168,12173,5,2,0:1:0:0:
162,353,12404,1,2,0:1:0:0:
384,157,12634,1,2,0:1:0:0:
306,339,12865,1,2,0:1:0:0:
243,55,13096,1,2,0:1:0:0:
89,288,13327,2,2,P|60:312|90:260,1,200,2|0,0:1|0:1,0:1:0:0:
145,18,14019,5,2,0:1:0:0:
334,338,14250,1,2,0:1:0:0:
339,23,14480,1,2,0:1:0:0:
124,340,14711,1,2,0:1:0:0:
122,17,14942,1,2,0:1:0:0:
389,209,15173,6,0,P|444:190|385:177,1,150,4|0,0:3|0:0,0:0:0:0:
390,303,15634,1,2,3:2:0:0:
398,77,15865,1,2,0:2:0:0:
152,192,16096,2,8,P|196:201|319:187,1,150,10|0,3:2|0:0,0:0:0:0:
298,220,16557,2,0,P|223:229|149:218,1,150,2|0,3:2|0:0,0:0:0:0:
139,347,17019,6,0,P|174:334|294:349,1,150,2|0,3:2|0:0,0:0:0:0:
361,372,17480,1,2,3:2:0:0:
473,251,17711,1,2,0:0:0:0:
261,119,17942,2,0,P|303:106|366:128,1,100,10|0,3:2|0:0,0:0:0:0:
304,207,18288,2,0,L|302:231,2,25,2|2|2,0:0|0:0|0:0,0:0:0:0:
437,95,18634,1,2,0:0:0:0:
253,21,18865,2,0,P|208:27|172:127,1,150,2|0,0:0|0:0,0:0:0:0:
203,200,19327,1,2,0:0:0:0:
56,51,19557,5,2,0:1:0:0:
94,324,19788,1,2,0:1:0:0:
265,52,20019,1,2,0:1:0:0:
261,347,20250,1,2,0:1:0:0:
430,50,20480,1,2,0:1:0:0:
479,314,20711,2,2,P|452:362|408:271,1,200,2|0,0:1|0:0,0:1:0:0:
329,37,21404,5,2,0:1:0:0:
136,354,21634,1,2,0:1:0:0:
141,28,21865,1,2,0:1:0:0:
350,357,22096,1,2,0:1:0:0:
358,22,22327,1,2,0:1:0:0:
138,345,22557,5,2,0:0:0:0:
129,244,22788,1,0,0:0:0:0:
229,236,23019,1,2,0:0:0:0:
238,336,23250,1,0,0:0:0:0:
38,353,23480,5,2,0:0:0:0:
29,252,23711,1,0,0:0:0:0:
129,244,23942,1,2,0:0:0:0:
138,344,24173,1,0,0:0:0:0:
78,157,24404,5,2,0:0:0:0:
221,298,24634,1,0,0:0:0:0:
228,156,24865,1,2,0:0:0:0:
340,317,25096,1,0,0:0:0:0:
415,73,25327,5,2,0:0:0:0:
467,356,25557,1,0,0:0:0:0:
156,229,25788,1,2,0:0:0:0:
506,121,26019,1,0,0:0:0:0:
116,369,26250,5,2,0:1:0:0:
117,58,26480,1,2,0:1:0:0:
395,53,26711,1,2,0:1:0:0:
394,364,26941,1,2,0:1:0:0:
101,356,27173,5,2,0:1:0:0:
129,46,27403,1,2,0:1:0:0:
406,65,27634,1,2,0:1:0:0:
378,375,27864,1,2,0:1:0:0:
87,342,28096,5,2,0:1:0:0:
142,35,28326,1,2,0:1:0:0:
417,79,28557,1,2,0:1:0:0:
362,385,28787,1,2,0:1:0:0:
64,201,29019,6,0,L|5:196,2,50,2|2|2,0:0|0:0|0:0,0:0:0:0:
361,25,29480,1,2,0:0:0:0:
216,362,29711,1,2,0:0:0:0:
68,33,29942,6,0,P|50:94|78:229,1,172.500003290176,4|0,3:0|0:0,0:0:0:0:
133,310,30404,1,2,3:2:0:0:
273,100,30634,1,2,0:0:0:0:
476,334,30865,2,0,P|403:345|447:270,1,172.500003290176,10|0,0:0|0:0,0:0:0:0:
487,168,31327,2,0,P|420:160|353:169,1,115.000002193451,2|0,0:0|0:0,0:0:0:0:
189,22,31788,6,0,B|143:96|219:99|185:188,1,172.500003290176,4|0,3:3|0:0,0:0:0:0:
128,285,32250,1,2,3:2:0:0:
8,38,32480,1,2,0:0:0:0:
318,92,32711,2,0,L|376:97,4,38.3333340644837,10|2|2|2|2,0:0|0:0|0:0|0:0|0:0,0:0:0:0:
224,17,33173,5,2,0:0:0:0:
511,27,33404,1,2,0:0:0:0:
461,283,33634,2,0,P|356:312|233:260,1,230.000004386902,4|0,3:0|0:0,0:0:0:0:
149,32,34327,5,2,0:1:0:0:
144,374,34557,1,2,0:1:0:0:
363,32,34788,1,2,0:1:0:0:
360,364,35018,1,2,0:1:0:0:
117,22,35250,1,2,0:1:0:0:
245,384,35480,2,2,B|258:353|258:353|250:333|250:333|265:276|243:173,1,172.500003290176,2|0,0:1|0:0,0:1:0:0:
238,194,35942,1,2,0:0:0:0:
107,365,36173,1,2,0:1:0:0:
380,357,36404,5,2,0:1:0:0:
186,11,36634,1,2,0:1:0:0:
125,381,36865,1,2,0:1:0:0:
357,9,37096,1,2,0:1:0:0:
483,331,37327,6,0,P|417:362|406:259,1,172.500003290176,4|0,3:0|0:0,0:0:0:0:
476,194,37788,1,2,3:2:0:0:
268,298,38019,1,2,0:0:0:0:
153,71,38250,2,0,L|163:34,4,38.3333340644837,10|2|2|2|2,0:0|0:0|0:0|0:0|0:0,0:0:0:0:
47,191,38711,2,0,P|82:173|159:208,1,115.000002193451,2|0,0:0|0:0,0:0:0:0:
494,84,39173,6,0,P|408:107|329:65,1,172.500003290176,4|0,3:0|0:0,0:0:0:0:
151,70,39634,1,2,3:2:0:0:
421,11,39865,1,2,0:0:0:0:
310,309,40096,2,0,P|251:322|317:252,1,230.000004386902,10|2,0:0|0:0,0:0:0:0:
436,348,40788,1,2,0:0:0:0:
164,368,41019,2,0,P|131:313|175:162,1,230.000004386902,4|0,3:3|0:0,0:0:0:0:
183,21,41711,5,2,0:1:0:0:
391,359,41942,1,2,0:1:0:0:
434,14,42173,1,2,0:1:0:0:
106,377,42404,1,2,0:1:0:0:
84,14,42634,1,2,0:1:0:0:
410,225,42865,6,2,P|465:219|395:181,1,200,2|2,0:1|0:1,0:1:0:0:
287,313,43912,2,0,L|223:310,1,50,2|2,0:1|0:1,0:0:0:0:
76,105,44510,2,0,L|76:198,1,75,2|2,0:1|0:1,0:0:0:0:
458,49,45182,6,0,L|475:187,1,140,2|0,0:0|0:0,0:0:0:0:
