osu file format v14

[General]
AudioFilename: audio.mp3
AudioLeadIn: 0
PreviewTime: 28780
Countdown: 0
SampleSet: Soft
StackLeniency: 0.7
Mode: 0
LetterboxInBreaks: 0
WidescreenStoryboard: 1

[Editor]
Bookmarks: 22549,42857
DistanceSpacing: 1
BeatDivisor: 4
GridSize: 16
TimelineZoom: 1

[Metadata]
Title:Astronomia (Medieval Style)
TitleUnicode:Astronomia (Medieval Style)
Artist:Cornelius Link
ArtistUnicode:Cornelius Link
Creator:Seto Kousuke
Version:Insane
Source:
Tags:Enerugi Trynna senhor srskyplayer instrumental cover Funeral dancing coffin ghana meme world dance other Vicetone Tony Igy seto's
BeatmapID:2420485
BeatmapSetID:1159452

[Difficulty]
HPDrainRate:4
CircleSize:4
OverallDifficulty:8
ApproachRate:8.7
SliderMultiplier:2
SliderTickRate:1

[Events]
//Background and Video events
0,0,"The legend of the 4 legendary legend cavaliers of the legend.jpg",0,0
//Break Periods
//Storyboard Layer 0 (Background)
//Storyboard Layer 1 (Fail)
//Storyboard Layer 2 (Pass)
//Storyboard Layer 3 (Foreground)
//Storyboard Layer 4 (Overlay)
//Storyboard Sound Samples

[TimingPoints]
404,461.538461538462,4,2,1,60,1,0
404,-181.818181818181,4,2,1,60,0,0
7788,-100,4,2,1,60,0,0
42865,759.493670886076,4,2,1,60,1,0
43624,769.230769230769,4,2,1,60,1,0
43912,1176.47058823529,4,2,1,60,1,0
44206,810.810810810811,4,2,1,60,1,0
44510,895.522388059701,4,2,1,60,1,0
45182,487.80487804878,4,2,1,60,1,0
45182,-1000,4,2,1,60,0,0

[Colours]
Combo1 : 191,140,238
Combo2 : 245,213,114
Combo3 : 140,199,247
Combo4 : 133,234,128

[HitObjects]
86,64,404,6,0,P|101:105|84:180,1,110.000003356934,0|0,3:0|0:0,0:0:0:0:
166,320,1096,1,0,3:0:0:0:
84,366,1327,2,0,P|72:312|88:260,1,110.000003356934,8|0,3:0|0:0,0:0:0:0:
269,53,2250,6,0,P|284:94|267:169,1,110.000003356934,0|0,3:0|0:0,0:0:0:0:
349,309,2942,1,0,3:0:0:0:
267,355,3173,2,0,P|255:301|271:249,1,110.000003356934,8|0,3:0|0:0,0:0:0:0:
432,48,4096,2,0,P|447:89|430:164,1,110.000003356934,0|0,3:0|0:0,0:0:0:0:
512,304,4788,1,0,3:0:0:0:
430,350,5019,2,0,P|418:296|434:244,1,110.000003356934,8|0,3:0|0:0,0:0:0:0:
493,26,5942,6,0,P|458:45|374:17,1,110.000003356934,0|0,3:0|0:0,0:0:0:0:
164,37,6634,1,0,3:0:0:0:
164,37,6865,2,0,P|199:18|283:46,1,110.000003356934,8|0,3:0|0:0,0:0:0:0:
332,101,7788,6,0,L|319:276,1,150,4|0,3:3|0:0,0:0:0:0:
328,264,8250,1,2,3:2:0:0:
409,194,8480,1,2,0:2:0:0:
264,325,8711,2,0,P|191:326|268:276,1,200,10|2,3:2|3:2,0:0:0:0:
502,344,9634,6,0,P|445:331|330:357,1,150,2|0,3:2|0:2,0:0:0:0:
336,357,10096,1,2,0:2:0:0:
248,270,10327,1,2,0:2:0:0:
117,372,10557,2,0,P|155:308|119:275,1,100,10|0,3:2|0:2,0:0:0:0:
122,281,10904,2,0,L|80:281,2,25,2|2|2,0:2|0:2|0:2,0:0:0:0:
148,103,11250,1,2,0:2:0:0:
247,189,11480,2,0,P|148:199|49:190,1,200,2|0,3:2|0:2,0:0:0:0:
374,131,12173,6,0,P|391:179|376:243,1,100,2|2,0:1|0:1,0:0:0:0:
153,136,12634,2,0,P|136:184|151:248,1,100,2|2,0:1|0:1,0:0:0:0:
265,30,13096,1,2,0:1:0:0:
93,34,13327,1,2,0:1:0:0:
93,34,14019,6,0,P|76:82|91:146,1,100,2|2,0:1|0:1,0:0:0:0:
355,37,14480,2,0,P|372:85|357:149,1,100,2|2,0:1|0:1,0:0:0:0:
223,296,14942,1,2,0:1:0:0:
215,138,15173,6,0,B|241:209|194:212|213:292,1,150,4|0,0:3|0:0,0:0:0:0:
223,296,15634,1,2,3:2:0:0:
124,229,15865,1,2,0:2:0:0:
312,356,16096,2,0,P|387:321|309:283,1,200,10|2,3:2|3:2,0:0:0:0:
139,339,17019,6,0,P|66:349|114:287,1,150,2|0,3:2|0:0,0:0:0:0:
86,283,17480,1,2,3:2:0:0:
36,179,17711,1,2,0:0:0:0:
214,233,17942,2,0,P|263:237|320:228,1,100,10|0,3:2|0:0,0:0:0:0:
343,203,18288,2,0,L|357:157,2,25,2|2|2,0:0|0:0|0:0,0:0:0:0:
386,365,18634,1,2,0:0:0:0:
508,226,18865,2,0,P|522:130|492:18,1,200,2|2,0:0|0:0,0:0:0:0:
221,54,19557,6,0,P|279:62|336:42,1,100,2|2,0:1|0:1,0:0:0:0:
308,290,20019,2,0,P|259:279|210:287,1,100,2|2,0:1|0:1,0:0:0:0:
131,78,20480,1,2,0:1:0:0:
20,185,20711,1,2,0:1:0:0:
20,185,21404,6,0,P|78:177|135:197,1,100,2|2,0:1|0:1,0:0:0:0:
308,290,21865,2,0,P|250:298|193:278,1,100,2|2,0:1|0:1,0:0:0:0:
73,107,22327,1,2,0:1:0:0:
61,332,22557,5,2,0:0:0:0:
61,332,22788,1,0,0:0:0:0:
200,312,23019,1,2,0:0:0:0:
200,312,23250,1,0,0:0:0:0:
336,375,23480,2,0,P|391:383|469:366,1,100,2|0,0:0|0:0,0:0:0:0:
431,217,23942,2,0,P|381:211|332:219,1,100,2|0,0:0|0:0,0:0:0:0:
125,246,24404,5,2,0:0:0:0:
125,246,24635,1,0,0:0:0:0:
74,128,24866,1,2,0:0:0:0:
74,128,25097,1,0,0:0:0:0:
183,48,25327,2,0,P|241:43|324:57,1,100,2|0,0:0|0:0,0:0:0:0:
473,132,25788,2,0,P|423:135|373:130,1,100,2|0,0:0|0:0,0:0:0:0:
161,138,26250,5,2,0:1:0:0:
161,138,26480,1,2,0:1:0:0:
200,304,26711,1,2,0:1:0:0:
200,304,26941,1,2,0:1:0:0:
365,261,27173,1,2,0:1:0:0:
365,261,27403,1,2,0:1:0:0:
302,90,27634,1,2,0:1:0:0:
302,90,27864,1,2,0:1:0:0:
153,156,28096,6,0,P|78:168|48:150,1,100,2|2,0:1|0:1,0:0:0:0:
61,33,28557,2,0,P|108:19|154:35,1,100,2|2,0:1|0:1,0:0:0:0:
282,100,29019,2,0,L|217:102,2,50,2|2|2,0:0|0:0|0:0,0:0:0:0:
366,19,29480,1,2,0:0:0:0:
480,59,29711,1,2,0:0:0:0:
502,176,29942,6,0,P|498:233|416:205,1,150,4|0,3:0|0:0,0:0:0:0:
417,208,30404,1,2,3:2:0:0:
345,353,30634,1,2,0:0:0:0:
298,178,30865,2,0,P|215:170|201:281,1,200,10|2,0:0|0:0,0:0:0:0:
28,145,31788,6,0,P|19:215|32:324,1,150,4|0,3:3|0:0,0:0:0:0:
33,308,32250,1,2,3:2:0:0:
118,207,32480,1,2,0:0:0:0:
232,323,32711,2,0,L|230:371,5,33.3333333333333,10|2|2|2|2|0,0:0|0:0|0:0|0:0|0:0|0:0,0:0:0:0:
252,289,33173,1,2,0:0:0:0:
346,384,33404,1,2,0:0:0:0:
439,288,33634,2,0,P|366:260|244:294,1,200,4|0,3:0|0:0,0:0:0:0:
220,129,34327,1,2,0:1:0:0:
86,247,34557,6,0,L|87:375,1,100,2|2,0:1|0:1,0:0:0:0:
417,343,35019,2,0,L|416:243,1,100,2|2,0:1|0:1,0:0:0:0:
239,92,35480,2,0,B|239:132|239:132|249:151|249:151|253:299,1,200,2|2,0:1|0:0,0:0:0:0:
353,357,36173,1,2,0:1:0:0:
438,180,36404,6,0,L|437:52,1,100,2|2,0:1|0:1,0:0:0:0:
107,55,36866,2,0,L|107:154,1,100,2|2,0:1|0:1,0:0:0:0:
263,362,37327,6,0,L|261:184,1,150,4|0,3:0|0:0,0:0:0:0:
270,192,37788,1,2,3:2:0:0:
171,291,38019,1,2,0:0:0:0:
56,168,38250,2,0,L|8:169,5,33.3333333333333,10|2|2|2|2|0,0:0|0:0|0:0|0:0|0:0|0:0,0:0:0:0:
85,150,38711,2,0,L|92:38,1,100,2|0,0:0|0:0,0:0:0:0:
2,289,39173,6,0,P|76:273|160:293,1,150,4|0,3:0|0:0,0:0:0:0:
160,302,39634,1,2,3:2:0:0:
327,155,39865,1,2,0:0:0:0:
331,337,40096,2,0,P|269:351|303:262,1,200,10|2,0:0|0:0,0:0:0:0:
436,120,40788,1,2,0:0:0:0:
490,263,41019,2,0,B|391:301|395:224|285:264,1,200,4|0,3:3|0:0,0:0:0:0:
83,229,41711,5,2,0:1:0:0:
151,63,41942,2,0,L|281:63,1,100,2|2,0:1|0:1,0:0:0:0:
481,177,42404,2,0,L|351:177,1,100,2|2,0:1|0:1,0:0:0:0:
157,296,42865,6,2,L|322:296,1,150,2|0,0:1|0:1,0:1:0:0:
404,311,43624,1,2,0:1:0:0:
447,227,43912,2,0,L|445:165,1,50,2|2,0:1|0:1,0:0:0:0:
354,36,44510,2,0,L|349:127,1,75,2|2,0:1|0:1,0:0:0:0:
189,226,45182,6,0,L|192:156,1,70,2|0,0:0|0:0,0:0:0:0:
