osu file format v14

[General]
AudioFilename: audio.mp3
AudioLeadIn: 0
PreviewTime: 43615
Countdown: 1
SampleSet: Normal
StackLeniency: 0.4
Mode: 0
LetterboxInBreaks: 0
WidescreenStoryboard: 0

[Editor]
Bookmarks: 12493,23762,33929,45029,66804
DistanceSpacing: 1.6
BeatDivisor: 4
GridSize: 4
TimelineZoom: 1

[Metadata]
Title:Bon-Bon
TitleUnicode:Bon-Bon
Artist:Coorie
ArtistUnicode:Coorie
Creator:Gobo
Version:Insane
Source:
Tags:
BeatmapID:1063103
BeatmapSetID:499515

[Difficulty]
HPDrainRate:7
CircleSize:4
OverallDifficulty:7
ApproachRate:9.3
SliderMultiplier:1.4
SliderTickRate:1

[Events]
//Background and Video events
0,0,"41212345632451315.jpg",0,0
//Break Periods
//Storyboard Layer 0 (Background)
//Storyboard Layer 1 (Fail)
//Storyboard Layer 2 (Pass)
//Storyboard Layer 3 (Foreground)
//Storyboard Sound Samples

[TimingPoints]
1675,338.98302578019,4,1,0,100,1,0
1675,-100,4,1,0,100,0,0
15629,-66.6666666666667,4,1,0,100,0,0
16332,-100,4,1,0,100,0,0
27638,-133.333333333333,4,1,0,100,0,0
30026,-100,4,1,0,100,0,0
43016,-55.5555555555556,4,1,0,100,0,0
43700,338.91302578019,4,1,0,100,1,0
43700,338.91302578019,4,1,0,100,1,1
43784,-100,4,1,0,100,0,0
65257,-133.333333333333,4,1,0,100,0,0

[HitObjects]
320,112,319,5,0,0:0:0:0:
452,64,658,2,0,P|456:132|436:216,1,140
437,203,1166,5,0,0:0:0:0:
244,284,1336,1,0,0:0:0:0:
352,92,1505,1,0,0:0:0:0:
160,260,1844,2,0,P|172:164|188:116,1,140
48,48,2691,1,0,0:0:0:0:
132,128,3030,6,0,L|112:224,1,70
216,244,3369,2,0,L|196:336,1,70
320,96,3708,1,0,0:0:0:0:
376,320,3878,1,0,0:0:0:0:
360,64,4047,1,0,0:0:0:0:
424,332,4217,1,0,0:0:0:0:
160,200,4556,5,0,0:0:0:0:
404,44,4895,2,0,P|472:72|436:120,1,140
450,115,5319,1,0,0:0:0:0:
450,115,5403,1,0,0:0:0:0:
368,104,5742,6,0,L|214:153,1,140
52,200,6420,2,0,P|48:256|108:292,1,70
156,196,6759,2,0,P|152:124|136:112,1,70
108,336,7268,5,0,0:0:0:0:
168,200,7437,2,0,P|224:192|252:164,1,70
352,288,7776,1,0,0:0:0:0:
348,56,7946,2,0,P|283:83|247:128,1,70
302,224,8285,5,0,0:0:0:0:
424,248,8454,2,0,P|476:192|448:120,1,140
424,64,8963,2,0,P|364:113|384:181,1,140
424,64,9641,1,0,0:0:0:0:
320,216,9980,6,0,L|264:272,1,70
420,136,10319,1,0,0:0:0:0:
424,264,10488,1,0,0:0:0:0:
424,264,10573,1,0,0:0:0:0:
424,264,10658,1,0,0:0:0:0:
308,112,10827,2,0,L|256:128,2,35
144,64,11166,5,0,0:0:0:0:
268,224,11505,2,0,P|192:232|128:272,1,140
40,228,12013,1,0,0:0:0:0:
64,336,12183,2,0,P|112:348|160:344,2,70
280,320,12691,1,0,0:0:0:0:
280,320,12776,1,0,0:0:0:0:
280,320,12861,1,0,0:0:0:0:
188,208,13030,2,0,L|188:156,4,35
308,72,13539,1,0,0:0:0:0:
328,192,13878,5,0,0:0:0:0:
404,76,14047,1,0,0:0:0:0:
256,64,14217,2,0,P|184:72|112:56,1,140
40,144,14725,2,0,L|120:160,1,70
196,236,15064,2,0,L|108:248,1,70
220,332,15403,1,0,0:0:0:0:
416,336,15742,2,0,P|468:224|456:120,1,210.000008010865
340,136,16590,5,0,0:0:0:0:
136,56,16929,2,0,P|120:88|128:120,1,70
256,216,17268,1,0,0:0:0:0:
256,216,17352,1,0,0:0:0:0:
256,216,17437,1,0,0:0:0:0:
412,80,17607,5,0,0:0:0:0:
204,104,17776,1,0,0:0:0:0:
360,260,17946,1,0,0:0:0:0:
284,56,18115,5,0,0:0:0:0:
344,284,18285,1,0,0:0:0:0:
168,72,18454,1,0,0:0:0:0:
320,324,18624,5,0,0:0:0:0:
320,324,18708,1,0,0:0:0:0:
320,324,18793,1,0,0:0:0:0:
228,40,18963,5,0,0:0:0:0:
228,40,19047,1,0,0:0:0:0:
228,40,19132,1,0,0:0:0:0:
424,80,19302,6,0,P|436:160|448:236,1,140
452,280,19810,2,0,P|408:212|368:148,1,140
200,300,20488,5,0,0:0:0:0:
152,160,20658,1,0,0:0:0:0:
320,184,20827,1,0,0:0:0:0:
92,232,20997,5,0,0:0:0:0:
164,40,21166,1,0,0:0:0:0:
268,260,21336,1,0,0:0:0:0:
28,120,21505,1,0,0:0:0:0:
28,120,21590,1,0,0:0:0:0:
28,120,21674,1,0,0:0:0:0:
140,128,22352,6,0,L|300:140,1,140
104,240,23030,1,0,0:0:0:0:
208,80,23369,2,0,L|372:60,1,140
392,60,24047,2,0,P|424:164|408:212,1,140
188,280,24725,5,0,0:0:0:0:
368,192,24895,1,0,0:0:0:0:
120,212,25064,1,0,0:0:0:0:
432,152,25234,2,0,P|452:188|444:236,1,70
144,244,25573,5,0,0:0:0:0:
376,176,25742,1,0,0:0:0:0:
84,208,25912,2,0,P|64:236|80:268,1,70
340,224,26251,5,0,0:0:0:0:
100,200,26420,1,0,0:0:0:0:
400,160,26590,2,0,P|424:196|416:232,1,70
112,216,26929,5,0,0:0:0:0:
388,216,27098,1,0,0:0:0:0:
372,72,27776,6,0,P|428:96|440:152,1,105.000004005432
140,224,28454,2,0,P|92:204|80:140,1,105.000004005432
340,280,29471,1,0,0:0:0:0:
184,32,30149,6,0,L|264:32,1,70
344,60,30488,1,0,0:0:0:0:
200,116,30658,2,0,L|128:116,1,70
208,232,30997,1,0,0:0:0:0:
308,176,31166,6,0,L|336:96,1,70
400,36,31505,1,0,0:0:0:0:
404,172,31674,2,0,L|376:248,1,70
288,280,32013,1,0,0:0:0:0:
224,340,32183,2,0,L|156:296,1,70
76,252,32522,5,0,0:0:0:0:
76,252,32607,1,0,0:0:0:0:
76,252,32691,1,0,0:0:0:0:
188,148,32861,2,0,P|247:129|332:128,1,140
324,126,33369,1,0,0:0:0:0:
400,172,34047,5,0,0:0:0:0:
252,208,34217,2,0,L|188:76,1,140
160,72,34725,2,0,L|212:276,1,210
68,236,35912,5,0,0:0:0:0:
256,332,36251,1,0,0:0:0:0:
448,236,36590,1,0,0:0:0:0:
368,148,36929,2,0,B|212:172|144:68|256:-8|364:68|300:172|140:148,1,420
112,312,38624,5,0,0:0:0:0:
88,180,38963,2,0,L|228:224,1,140
236,292,39641,2,0,P|300:240|268:172,1,140
148,232,40319,1,0,0:0:0:0:
436,108,40997,5,0,0:0:0:0:
272,180,41166,1,0,0:0:0:0:
428,288,41336,1,0,0:0:0:0:
428,288,41420,1,0,0:0:0:0:
428,288,41505,1,0,0:0:0:0:
284,104,41674,5,0,0:0:0:0:
233,308,41844,1,0,0:0:0:0:
443,235,42013,1,0,0:0:0:0:
443,235,42098,1,0,0:0:0:0:
443,235,42183,1,0,0:0:0:0:
152,168,42352,5,0,0:0:0:0:
360,296,42522,1,0,0:0:0:0:
396,55,42691,1,0,0:0:0:0:
396,55,42776,1,0,0:0:0:0:
396,55,42861,1,0,0:0:0:0:
480,148,43200,2,0,L|228:218,1,251.999992309571
237,216,43700,5,0,0:0:0:0:
144,64,44038,2,0,P|100:76|120:100,1,70
64,244,44378,1,0,0:0:0:0:
252,112,44547,1,0,0:0:0:0:
204,312,44716,1,0,0:0:0:0:
104,80,44885,1,0,0:0:0:0:
432,152,45224,5,0,0:0:0:0:
204,72,45394,1,0,0:0:0:0:
344,248,45563,1,0,0:0:0:0:
312,36,45733,1,0,0:0:0:0:
312,36,45817,1,0,0:0:0:0:
312,36,45902,1,0,0:0:0:0:
448,128,46072,1,0,0:0:0:0:
352,264,46241,1,0,0:0:0:0:
224,176,46411,6,0,P|160:172|124:160,1,70
84,92,46749,2,0,P|136:80|176:84,1,70
120,288,47088,1,0,0:0:0:0:
368,224,47258,1,0,0:0:0:0:
88,268,47427,1,0,0:0:0:0:
332,204,47597,1,0,0:0:0:0:
156,136,47936,6,0,L|204:208,1,70
224,204,48275,2,0,L|312:164,1,70
448,96,48613,1,0,0:0:0:0:
448,96,48698,1,0,0:0:0:0:
448,96,48783,1,0,0:0:0:0:
364,212,49122,6,0,L|332:300,2,70
392,148,49800,2,0,P|336:144|304:172,1,70
256,176,50139,2,0,P|280:208|328:216,1,70
88,252,50647,5,0,0:0:0:0:
180,168,50817,2,0,L|92:164,1,70
40,108,51155,1,0,0:0:0:0:
116,56,51325,2,0,L|204:68,1,70
252,156,51664,5,0,0:0:0:0:
252,156,51833,2,0,P|222:219|202:287,1,140
344,148,52342,2,0,P|280:116|196:88,1,140
215,93,53019,1,0,0:0:0:0:
72,60,53358,6,0,L|72:152,1,70
312,208,53697,1,0,0:0:0:0:
96,304,53867,1,0,0:0:0:0:
96,304,53951,1,0,0:0:0:0:
96,304,54036,1,0,0:0:0:0:
204,60,54206,2,0,L|224:108,2,35
412,48,54544,5,0,0:0:0:0:
248,140,54884,2,0,L|360:232,1,140
212,312,55392,1,0,0:0:0:0:
80,204,55561,2,0,L|132:156,2,70
360,64,56070,5,0,0:0:0:0:
320,288,56239,1,0,0:0:0:0:
468,168,56409,1,0,0:0:0:0:
228,208,56578,2,0,L|192:164,2,35
280,40,56917,1,0,0:0:0:0:
372,252,57086,1,0,0:0:0:0:
220,320,57256,5,0,0:0:0:0:
80,260,57425,1,0,0:0:0:0:
68,128,57595,2,0,P|102:59|173:59,1,140
268,120,58103,2,0,L|300:184,1,70
328,156,58442,2,0,L|308:84,1,70
56,176,58781,1,0,0:0:0:0:
372,304,59120,2,0,P|260:252|156:264,1,210.000008010865
72,56,59967,5,0,0:0:0:0:
124,288,60306,1,0,0:0:0:0:
208,136,60645,1,0,0:0:0:0:
208,136,60730,1,0,0:0:0:0:
208,136,60814,1,0,0:0:0:0:
132,80,60984,5,0,0:0:0:0:
208,272,61153,1,0,0:0:0:0:
352,116,61323,1,0,0:0:0:0:
92,204,61492,5,0,0:0:0:0:
320,260,61662,1,0,0:0:0:0:
232,48,61831,1,0,0:0:0:0:
220,204,62001,5,0,0:0:0:0:
220,204,62085,1,0,0:0:0:0:
220,204,62170,1,0,0:0:0:0:
368,80,62339,5,0,0:0:0:0:
368,80,62424,1,0,0:0:0:0:
368,80,62509,1,0,0:0:0:0:
128,76,62678,6,0,P|116:156|104:232,1,140
120,228,63187,2,0,P|164:160|204:96,1,140
192,332,63865,5,0,0:0:0:0:
420,296,64034,1,0,0:0:0:0:
192,168,64203,1,0,0:0:0:0:
452,180,64373,5,0,0:0:0:0:
284,328,64542,1,0,0:0:0:0:
240,120,64712,1,0,0:0:0:0:
440,120,64881,5,0,0:0:0:0:
184,272,65051,1,0,0:0:0:0:
408,88,65390,6,0,L|444:144,1,52.5000020027161
328,44,65729,2,0,L|308:108,1,52.5000020027161
244,188,66237,2,0,P|340:196|448:232,1,210.000008010865
447,231,67000,1,0,0:0:0:0:
160,240,67254,1,0,0:0:0:0:
348,296,67423,1,0,0:0:0:0:
88,272,68101,6,0,L|88:220,1,52.5000020027161
224,104,68439,1,0,0:0:0:0:
224,224,68609,1,0,0:0:0:0:
88,104,68778,1,0,0:0:0:0:
344,104,68948,5,0,0:0:0:0:
260,236,69118,1,0,0:0:0:0:
412,188,69287,1,0,0:0:0:0:
272,100,69457,1,0,0:0:0:0:
336,276,69626,1,0,0:0:0:0:
336,276,69711,1,0,0:0:0:0:
336,276,69796,1,0,0:0:0:0:
192,236,69965,2,0,L|240:216,1,52.5000020027161
317,113,70304,6,0,L|268:132,1,52.5000020027161
124,112,70642,1,0,0:0:0:0:
228,232,70812,1,0,0:0:0:0:
72,208,70981,1,0,0:0:0:0:
372,300,71151,5,0,0:0:0:0:
244,204,71321,1,0,0:0:0:0:
248,328,71490,1,0,0:0:0:0:
124,240,71660,2,0,L|124:176,1,52.5000020027161
336,60,71998,6,0,L|284:112,1,52.5000020027161
216,176,72336,1,0,0:0:0:0:
144,64,72506,1,0,0:0:0:0:
424,144,72676,1,0,0:0:0:0:
424,144,72761,1,0,0:0:0:0:
424,144,72846,1,0,0:0:0:0:
296,240,73015,1,0,0:0:0:0:
296,240,73100,1,0,0:0:0:0:
296,240,73185,1,0,0:0:0:0:
24,128,73354,5,0,0:0:0:0:
208,56,73524,1,0,0:0:0:0:
96,220,73693,1,0,0:0:0:0:
120,32,73863,1,0,0:0:0:0:
220,168,74032,2,0,P|248:200|276:200,1,52.5000020027161
288,108,74371,2,0,P|262:88|232:84,1,52.5000020027161
100,156,74710,1,0,0:0:0:0:
236,280,74879,1,0,0:0:0:0:
444,188,75049,5,0,0:0:0:0:
344,328,75218,1,0,0:0:0:0:
288,188,75388,1,0,0:0:0:0:
448,280,75557,5,0,0:0:0:0:
272,276,75727,1,0,0:0:0:0:
152,184,75896,1,0,0:0:0:0:
176,84,76235,5,0,0:0:0:0:
80,240,76404,1,0,0:0:0:0:
304,64,76913,5,0,0:0:0:0:
160,308,77082,1,0,0:0:0:0:
360,184,77760,5,0,0:0:0:0:
360,184,77845,1,0,0:0:0:0:
360,184,77929,1,0,0:0:0:0:
164,304,78099,1,0,0:0:0:0:
240,48,78268,1,0,0:0:0:0:
