osu file format v14

[General]
AudioFilename: audio.mp3
AudioLeadIn: 0
PreviewTime: 50341
Countdown: 0
SampleSet: Soft
StackLeniency: 0.7
Mode: 0
LetterboxInBreaks: 0
WidescreenStoryboard: 1

[Editor]
DistanceSpacing: 1.2
BeatDivisor: 4
GridSize: 4
TimelineZoom: 3.099999

[Metadata]
Title:BON-BON (TV Size)
TitleUnicode:BON-BON (TV Size)
Artist:CooRie
ArtistUnicode:クーリエ
Creator:Iceluin
Version:Hard
Source:Tanaka-kun is Always Listless
Tags:tanakakun wa itsumo kedaruge ending ed rino 浅田祐介 Asada Yuusuke 田中くんはいつもけだるげ Japanese Anime bonbon
BeatmapID:2121959
BeatmapSetID:938137

[Difficulty]
HPDrainRate:5
CircleSize:4
OverallDifficulty:6
ApproachRate:8
SliderMultiplier:1.5
SliderTickRate:1

[Events]
//Background and Video events
Video,658,"Tan.avi"
0,0,"Bg.jpg",0,0
//Break Periods
//Storyboard Layer 0 (Background)
//Storyboard Layer 1 (Fail)
//Storyboard Layer 2 (Pass)
//Storyboard Layer 3 (Foreground)
//Storyboard Layer 4 (Overlay)
//Storyboard Sound Samples

[TimingPoints]
1528,338.983050847458,4,2,1,60,1,0
28646,-133.333333333333,4,2,3,40,0,0
31358,-100,4,2,3,60,0,0
34070,-133.333333333333,4,2,3,40,0,0
36782,-100,4,2,3,60,0,0
50341,-100,4,2,1,60,0,1
55426,-83.3333333333333,4,2,1,60,0,1
55680,-83.3333333333333,4,2,1,5,0,1
55765,-100,4,2,1,60,0,1
66273,-83.3333333333333,4,2,1,60,0,1
66528,-83.3333333333333,4,2,1,5,0,1
66612,-100,4,2,1,60,0,1
74748,-100,4,2,1,60,0,0

[Colours]
Combo1 : 128,255,255
Combo2 : 255,128,192
Combo3 : 0,255,128
Combo4 : 255,255,128

[HitObjects]
198,196,1528,6,0,P|206:157|198:121,1,75,6|2,0:0|0:0,0:0:0:0:
132,64,1866,1,10,0:0:0:0:
198,123,2036,2,0,L|346:99,1,150,2|2,0:0|0:0,0:0:0:0:
412,160,2544,1,10,0:0:0:0:
346,98,2714,2,0,P|322:168|357:232,1,150,2|2,0:0|0:0,0:0:0:0:
392,312,3222,6,0,P|356:321|319:315,1,75,10|2,0:0|0:0,0:0:0:0:
264,244,3561,2,0,P|228:237|192:247,1,75,2|2,0:0|0:0,0:0:0:0:
136,176,3900,2,0,L|147:101,1,75,10|2,0:0|0:0,0:0:0:0:
200,28,4239,5,2,0:0:0:0:
324,164,4578,1,2,0:0:0:0:
324,164,4748,2,0,L|398:152,1,75,2|0,0:0|0:0,0:0:0:0:
472,100,5087,2,0,P|486:134|486:171,1,75,2|0,0:0|0:0,0:0:0:0:
424,237,5426,2,0,L|275:259,1,150,2|2,0:0|0:0,0:0:0:0:
213,325,5934,5,6,0:0:0:0:
142,101,6443,2,0,L|145:76,3,25,8|8|8|8,0:0|0:0|0:0|0:0,0:0:0:0:
216,152,6951,6,0,L|290:140,1,75,6|0,0:0|0:0,0:0:0:0:
364,192,7290,1,10,0:0:0:0:
364,192,7629,2,0,P|349:226|350:263,1,75,2|2,0:0|0:0,0:0:0:0:
424,316,7968,1,10,0:0:0:0:
350,263,8138,6,0,L|201:286,1,150,2|2,0:0|0:0,0:0:0:0:
128,232,8646,1,10,0:0:0:0:
128,232,8816,2,0,P|113:265|112:303,2,75,2|2|2,0:0|0:0|0:0,0:0:0:0:
210,195,9324,2,0,P|209:157|194:123,1,75,10|2,0:0|0:0,0:0:0:0:
116,78,9663,6,0,L|264:54,1,150,2|10,0:0|0:0,0:0:0:0:
338,105,10172,1,0,0:0:0:0:
338,105,10256,1,0,0:0:0:0:
338,105,10341,2,0,L|326:179,1,75,2|2,0:0|0:0,0:0:0:0:
400,232,10680,1,10,0:0:0:0:
317,271,10850,6,0,L|169:247,1,150,2|2,0:0|0:0,0:0:0:0:
85,285,11358,1,8,0:0:0:0:
85,285,11528,1,2,0:0:0:0:
10,233,11697,2,0,L|21:158,1,75,0|2,0:0|0:0,0:0:0:0:
103,119,12036,2,0,L|178:130,1,75,8|2,0:0|0:0,0:0:0:0:
260,88,12375,6,0,P|271:123|264:159,1,75,2|0,0:0|0:0,0:0:0:0:
194,219,12714,1,10,0:0:0:0:
194,219,13053,2,0,L|119:207,2,75,2|2|10,0:0|0:0|0:0,0:0:0:0:
263,158,13561,6,0,P|287:226|252:290,1,150,2|2,0:0|0:0,0:0:0:0:
194,219,14070,1,10,0:0:0:0:
161,304,14239,1,2,0:0:0:0:
161,304,14324,1,2,0:0:0:0:
161,304,14409,2,0,L|123:298,3,37.5,2|2|2|2,0:0|0:0|0:0|0:0,0:0:0:0:
108,256,14748,2,0,L|70:250,3,37.5,10|2|2|0,0:0|0:0|0:0|0:0,0:0:0:0:
55,208,15087,6,0,P|31:140|66:76,1,150,10|10,0:0|0:0,0:0:0:0:
124,148,15595,1,10,0:0:0:0:
256,24,15934,1,10,0:0:0:0:
298,201,16273,1,10,0:0:0:0:
298,201,16612,6,0,L|286:275,1,75,4|8,0:3|0:0,0:0:0:0:
200,300,16951,1,2,0:3:0:0:
200,300,17036,1,2,0:3:0:0:
200,300,17121,1,2,0:3:0:0:
134,236,17290,1,8,0:3:0:0:
155,148,17460,1,8,0:3:0:0:
241,125,17629,1,8,0:3:0:0:
298,201,17799,6,0,L|372:189,1,75,6|0,0:0|0:0,0:0:0:0:
456,220,18138,1,10,0:0:0:0:
456,220,18477,2,0,P|461:184|451:147,2,75,2|2|10,0:0|0:0|0:0,0:0:0:0:
386,277,18985,6,0,L|237:300,1,150,2|2,0:0|0:0,0:0:0:0:
167,356,19494,1,10,0:0:0:0:
167,356,19663,1,2,0:0:0:0:
153,267,19833,2,0,L|141:192,1,75,2|2,0:0|0:0,0:0:0:0:
88,120,20172,2,0,P|122:105|159:104,1,75,10|2,0:0|0:0,0:0:0:0:
227,164,20511,6,0,B|261:190|297:167|333:146|371:161,1,150,2|10,0:0|0:0,0:0:0:0:
440,220,21019,1,0,0:0:0:0:
440,220,21104,1,0,0:0:0:0:
440,220,21189,2,0,L|428:294,1,75,2|2,0:0|0:0,0:0:0:0:
358,353,21528,1,10,0:0:0:0:
288,296,21697,6,0,B|254:270|218:293|182:314|144:299,1,150,2|2,0:0|0:0,0:0:0:0:
74,239,22205,2,0,L|86:164,1,75,8|2,0:0|0:0,0:0:0:0:
48,84,22544,2,0,P|84:74|120:81,1,75,0|2,0:0|0:0,0:0:0:0:
204,116,22883,2,0,P|240:123|276:113,1,75,8|2,0:0|0:0,0:0:0:0:
356,68,23222,6,0,L|367:142,1,75,2|0,0:0|0:0,0:0:0:0:
444,188,23561,1,10,0:0:0:0:
444,188,23900,2,0,L|456:262,1,75,2|2,0:0|0:0,0:0:0:0:
410,341,24239,1,10,0:0:0:0:
332,294,24409,6,0,B|183:317,1,150,2|2,0:0|0:0,0:0:0:0:
105,269,24917,2,0,L|93:194,1,75,8|2,0:0|0:0,0:0:0:0:
140,116,25256,2,0,L|134:78,2,37.5,2|2|2,0:0|0:0|0:0,0:0:0:0:
218,163,25595,1,8,0:0:0:0:
218,163,25765,1,2,0:0:0:0:
296,120,25934,6,0,L|444:143,1,150,10|10,0:0|0:0,0:0:0:0:
480,228,26443,1,10,0:0:0:0:
399,62,26782,1,10,0:0:0:0:
296,211,27121,1,10,0:0:0:0:
218,163,27290,5,2,0:0:0:0:
137,206,27460,1,2,0:0:0:0:
134,298,27629,1,2,0:0:0:0:
213,347,27799,1,2,0:0:0:0:
295,304,27968,2,0,L|338:310,2,37.5,2|2|2,0:3|0:3|0:3,0:0:0:0:
296,211,28307,2,0,L|371:223,1,75,2|2,0:3|0:3,0:0:0:0:
452,179,28646,5,4,0:0:0:0:
452,179,28985,2,0,L|442:124,1,56.2500021457673,2|0,0:0|0:0,0:0:0:0:
460,35,29324,2,0,L|404:44,1,56.2500021457673,10|0,0:0|0:0,0:0:0:0:
352,115,29663,2,0,L|295:106,1,56.2500021457673,2|2,0:0|0:0,0:0:0:0:
216,63,30002,6,0,B|203:103|203:103|222:171,1,112.500004291535,2|0,0:0|0:0,0:0:0:0:
143,217,30511,1,0,0:0:0:0:
221,170,30680,2,0,L|331:188,1,112.500004291535,10|0,0:0|0:0,0:0:0:0:
332,189,31358,5,6,0:0:0:0:
411,237,31528,1,2,0:0:0:0:
413,144,31697,1,10,0:0:0:0:
332,189,31866,2,0,P|319:224|321:261,2,75,2|2|0,0:0|0:0|0:0,0:0:0:0:
413,144,32375,2,0,P|389:115|356:98,1,75,10|2,0:0|0:0,0:0:0:0:
265,122,32714,5,2,0:0:0:0:
332,189,32884,1,2,0:0:0:0:
356,98,33053,1,10,0:0:0:0:
265,122,33222,2,0,P|243:152|235:188,2,75,2|2|0,0:0|0:0|0:0,0:0:0:0:
332,189,33731,2,0,P|324:225|301:255,1,75,10|0,0:0|0:0,0:0:0:0:
210,279,34070,5,4,0:0:0:0:
210,279,34409,2,0,L|154:270,1,56.2500021457673,2|0,0:0|0:0,0:0:0:0:
76,312,34748,2,0,P|67:257|91:206,1,112.500004291535,10|2,0:0|0:0,0:0:0:0:
154,142,35256,1,2,0:0:0:0:
234,188,35426,6,0,L|345:170,1,112.500004291535,2|0,0:0|0:0,0:0:0:0:
409,105,35934,1,0,0:0:0:0:
345,41,36104,2,0,B|233:58,1,112.500004291535,10|0,0:0|0:0,0:0:0:0:
233,57,36782,6,0,B|206:95|206:95|245:141|227:190,1,150,6|8,0:0|0:0,0:0:0:0:
144,160,37290,2,0,B|198:171|221:147|243:123|289:136,1,150,2|0,0:0|0:0,0:0:0:0:
368,92,37799,6,0,B|392:148|360:192|360:192|368:236,1,150,10|0,0:0|0:0,0:0:0:0:
448,279,38307,2,0,P|391:325|319:313,1,150,2|0,0:0|0:0,0:0:0:0:
241,265,38816,5,2,0:0:0:0:
241,265,38985,2,0,B|187:254|164:278|142:302|96:289,1,150,4|0,0:0|0:0,0:0:0:0:
18,241,39494,6,0,L|29:166,1,75,6|0,0:0|0:0,0:0:0:0:
104,120,39833,1,10,0:0:0:0:
182,163,40002,2,0,B|330:139,1,150,2|0,0:0|0:0,0:0:0:0:
400,196,40511,1,8,0:0:0:0:
342,266,40680,1,0,0:0:0:0:
412,324,40850,6,0,L|486:312,2,75,2|2|10,0:0|0:0|0:0,0:0:0:0:
342,266,41358,2,0,B|193:289,1,150,2|0,0:0|0:0,0:0:0:0:
123,230,41866,2,0,L|134:155,1,75,8|0,0:0|0:0,0:0:0:0:
84,80,42205,5,2,0:0:0:0:
84,80,42544,2,0,P|117:65|154:67,1,75,10|0,0:0|0:0,0:0:0:0:
224,128,42883,2,0,L|212:202,1,75,2|0,0:0|0:0,0:0:0:0:
281,262,43222,2,0,P|318:264|352:250,1,75,10|0,0:0|0:0,0:0:0:0:
412,181,43561,5,2,0:0:0:0:
412,181,43731,1,2,0:0:0:0:
343,121,43900,1,8,0:0:0:0:
403,52,44070,1,2,0:0:0:0:
283,190,44409,1,2,0:0:0:0:
283,190,44578,2,0,L|208:178,1,75,8|0,0:0|0:0,0:0:0:0:
152,108,44917,6,0,P|119:173|145:241,1,150,4|8,0:0|0:0,0:0:0:0:
208,304,45426,1,2,0:0:0:0:
294,280,45595,2,0,L|368:291,1,75
431,228,45934,2,0,L|419:153,1,75,8|0,0:0|0:0,0:0:0:0:
472,80,46273,6,0,P|401:63|341:105,1,150,2|8,0:0|0:0,0:0:0:0:
293,183,46782,1,2,0:0:0:0:
245,262,46951,2,0,P|185:303|114:287,1,150,0|8,0:0|0:0,0:0:0:0:
256,192,47629,12,0,49833,0:0:0:0:
195,70,50341,6,0,L|183:144,1,75,6|0,0:0|0:0,0:0:0:0:
96,120,50680,2,0,L|107:194,1,75,10|0,0:0|0:0,0:0:0:0:
188,236,51019,1,2,0:0:0:0:
188,236,51189,1,2,0:0:0:0:
264,188,51358,1,10,0:0:0:0:
340,140,51528,1,2,0:0:0:0:
340,140,51866,6,0,P|345:103|337:67,2,75,2|2|2,0:0|0:0|0:0,0:0:0:0:
264,188,52375,2,0,P|258:224|266:260,2,75,2|2|2,0:0|0:0|0:0,0:0:0:0:
340,140,52883,1,2,0:0:0:0:
260,98,53053,6,0,L|185:109,1,75,2|2,0:0|0:0,0:0:0:0:
104,68,53392,2,0,P|95:104|100:141,1,75,10|0,0:0|0:0,0:0:0:0:
128,176,53646,1,0,0:0:0:0:
128,176,53731,2,0,L|116:250,1,75,2|2,0:0|0:0,0:0:0:0:
188,308,54070,1,10,0:0:0:0:
266,261,54239,6,0,L|414:284,1,150,2|2,0:0|0:0,0:0:0:0:
492,237,54748,1,8,0:0:0:0:
432,168,54917,2,0,L|283:144,1,150,0|2,0:0|0:0,0:0:0:0:
223,74,55426,2,0,P|192:133|208:197,1,134.999995880127,4|0,0:0|0:0,0:0:0:0:
240,228,55765,6,0,L|165:239,1,75,6|0,0:0|0:0,0:0:0:0:
216,312,56104,2,0,L|290:300,1,75,10|0,0:0|0:0,0:0:0:0:
328,220,56443,1,2,0:0:0:0:
328,220,56612,1,2,0:0:0:0:
276,148,56782,1,10,0:0:0:0:
224,76,56951,1,2,0:0:0:0:
224,76,57290,6,0,P|187:71|151:79,2,75,2|2|2,0:0|0:0|0:0,0:0:0:0:
276,148,57799,2,0,P|312:154|348:146,2,75,2|2|2,0:0|0:0|0:0,0:0:0:0:
224,76,58307,1,2,0:0:0:0:
188,160,58477,6,0,L|199:234,1,75,10|0,0:0|0:0,0:0:0:0:
112,204,58816,1,2,0:0:0:0:
112,204,58985,2,0,L|123:278,1,75,10|0,0:0|0:0,0:0:0:0:
36,248,59324,2,0,L|47:322,1,75,10|0,0:0|0:0,0:0:0:0:
124,368,59663,6,0,L|272:344,1,150,10|2,0:0|0:0,0:0:0:0:
359,327,60172,1,2,0:0:0:0:
390,242,60341,1,2,0:0:0:0:
332,174,60511,1,2,0:0:0:0:
244,190,60680,1,2,0:0:0:0:
213,274,60850,1,2,0:0:0:0:
124,289,61019,1,0,0:0:0:0:
124,289,61104,1,0,0:0:0:0:
124,289,61189,6,0,L|49:277,1,75,6|0,0:0|0:0,0:0:0:0:
80,192,61528,2,0,L|154:203,1,75,10|0,0:0|0:0,0:0:0:0:
213,274,61866,1,2,0:0:0:0:
213,274,62036,1,2,0:0:0:0:
244,190,62205,1,10,0:0:0:0:
275,106,62376,1,2,0:0:0:0:
275,106,62714,6,0,L|349:94,2,75,2|2|2,0:0|0:0|0:0,0:0:0:0:
188,124,63222,2,0,L|113:112,2,75,2|2|2,0:0|0:0|0:0,0:0:0:0:
244,190,63731,1,2,0:0:0:0:
300,256,63900,6,0,L|374:244,1,75,2|2,0:0|0:0,0:0:0:0:
464,260,64239,2,0,P|463:222|448:188,1,75,10|0,0:0|0:0,0:0:0:0:
432,148,64494,1,0,0:0:0:0:
432,148,64578,2,0,L|357:159,1,75,2|2,0:0|0:0,0:0:0:0:
301,93,64917,1,10,0:0:0:0:
240,160,65087,6,0,P|209:93|239:27,1,150,2|2,0:0|0:0,0:0:0:0:
301,93,65595,1,8,0:0:0:0:
240,160,65765,2,0,P|178:200|108:180,1,150,0|2,0:0|0:0,0:0:0:0:
164,112,66273,2,0,L|185:245,1,134.999995880127,4|0,0:0|0:0,0:0:0:0:
220,272,66612,6,0,L|295:260,1,75,6|0,0:0|0:0,0:0:0:0:
276,348,66951,2,0,L|349:335,1,75,10|0,0:0|0:0,0:0:0:0:
382,251,67290,1,2,0:0:0:0:
382,251,67460,1,2,0:0:0:0:
330,180,67629,1,10,0:0:0:0:
278,107,67799,1,2,0:0:0:0:
278,107,68138,6,0,P|312:93|349:92,2,75,2|2|2,0:0|0:0|0:0,0:0:0:0:
240,188,68646,2,0,P|206:202|169:203,2,75,2|2|2,0:0|0:0|0:0,0:0:0:0:
278,107,69155,1,2,0:0:0:0:
212,48,69324,6,0,P|174:48|140:62,1,75,10|0,0:0|0:0,0:0:0:0:
102,142,69663,1,2,0:0:0:0:
102,142,69833,2,0,L|27:130,1,75,10|0,0:0|0:0,0:0:0:0:
53,214,70172,2,0,L|127:225,1,75,10|0,0:0|0:0,0:0:0:0:
192,164,70511,6,0,L|340:141,1,150,10|2,0:0|0:0,0:0:0:0:
427,130,71020,1,2,0:0:0:0:
482,201,71189,1,2,0:0:0:0:
448,284,71359,1,2,0:0:0:0:
360,296,71528,1,2,0:0:0:0:
304,225,71698,1,2,0:0:0:0:
340,141,71867,1,0,0:0:0:0:
340,141,71951,1,0,0:0:0:0:
340,141,72036,6,0,L|328:66,1,75,6|0,0:0|0:0,0:0:0:0:
240,40,72375,2,0,L|251:115,1,75,10|0,0:0|0:0,0:0:0:0:
240,160,72629,1,0,0:0:0:0:
240,160,72714,2,0,P|205:174|168:175,1,75,6|2,0:0|0:0,0:0:0:0:
80,148,73053,1,8,0:0:0:0:
148,88,73222,1,2,0:0:0:0:
148,88,73561,5,6,0:0:0:0:
188,262,73901,1,6,0:0:0:0:
100,235,74070,1,6,0:0:0:0:
100,235,74748,6,0,L|88:160,1,75,6|0,0:0|0:0,0:0:0:0:
148,88,75087,2,0,P|184:79|221:84,1,75,8|0,0:0|0:0,0:0:0:0:
280,152,75426,2,0,P|316:157|353:148,1,75,2|0,0:0|0:0,0:0:0:0:
416,84,75765,1,8,0:0:0:0:
440,171,75934,6,0,L|451:245,1,75,2|0,0:0|0:0,0:0:0:0:
380,300,76273,2,0,L|368:225,1,75,2|8,0:0|0:0,0:0:0:0:
296,279,76612,2,0,L|307:353,1,75,2|0,0:0|0:0,0:0:0:0:
223,332,76951,1,0,0:0:0:0:
223,332,77036,1,0,0:0:0:0:
223,332,77121,2,0,L|205:220,1,112.5,8|0,0:0|0:0,0:0:0:0:
232,184,77460,6,0,P|266:169|303:167,1,75,2|0,0:0|0:0,0:0:0:0:
368,225,77799,2,0,P|405:222|439:208,1,75,8|0,0:0|0:0,0:0:0:0:
384,137,78138,2,0,P|418:122|455:119,2,75,2|2|8,0:0|0:0|0:0,0:0:0:0:
303,166,78646,6,0,P|281:236|320:297,2,150,2|2|2,0:0|0:0|0:0,0:0:0:0:
384,137,79494,1,2,0:0:0:0:
384,137,79663,1,2,0:0:0:0:
368,224,79833,2,0,L|256:241,1,112.5,10|0,0:0|0:0,0:3:0:0:
224,272,80172,6,0,L|149:260,1,75,6|0,0:0|0:0,0:0:0:0:
64,284,80511,2,0,P|61:246|75:212,1,75,8|0,0:0|0:0,0:0:0:0:
156,172,80850,2,0,P|158:134|144:100,1,75,2|0,0:0|0:0,0:0:0:0:
225,60,81189,1,8,0:0:0:0:
300,110,81358,6,0,L|374:98,1,75,2|0,0:0|0:0,0:0:0:0:
429,170,81697,2,0,L|354:182,1,75,2|8,0:0|0:0,0:0:0:0:
408,254,82036,2,0,L|482:243,1,75,2|0,0:0|0:0,0:0:0:0:
461,327,82375,1,0,0:0:0:0:
461,327,82460,1,0,0:0:0:0:
461,327,82544,2,0,L|349:344,1,112.5,8|0,0:0|0:0,0:0:0:0:
308,324,82883,6,0,L|233:335,1,75,4|0,0:0|0:0,0:0:0:0:
160,284,83222,1,8,0:0:0:0:
160,284,83392,1,0,0:0:0:0:
213,211,83561,2,0,L|201:136,1,75,4|0,0:0|0:0,0:0:0:0:
254,63,83900,1,8,0:0:0:0:
254,63,84070,1,0,0:0:0:0:
254,63,84409,5,4,0:0:0:0:
288,147,84579,1,4,0:0:0:0:
371,181,84749,1,4,0:0:0:0:
455,147,84918,1,4,0:0:0:0:
