osu file format v14

[General]
AudioFilename: audio.mp3
AudioLeadIn: 0
PreviewTime: -1
Countdown: 1
SampleSet: None
StackLeniency: 0.7
Mode: 0
LetterboxInBreaks: 0
WidescreenStoryboard: 0

[Editor]
DistanceSpacing: 0.8
BeatDivisor: 2
GridSize: 32
TimelineZoom: 1

[Metadata]
Title:Trumpsta (Djuro Remix)
TitleUnicode:Trumpsta (Djuro Remix)
Artist:Contiez Feat. Treyy G
ArtistUnicode:Contiez Feat. Treyy G
Creator:jasionnn
Version:lvl5
Source:
Tags:
BeatmapID:1270646
BeatmapSetID:601478

[Difficulty]
HPDrainRate:4
CircleSize:4
OverallDifficulty:8
ApproachRate:8
SliderMultiplier:1.4
SliderTickRate:1

[Events]
//Background and Video events
//Break Periods
2,60159,74444
//Storyboard Layer 0 (Background)
//Storyboard Layer 1 (Fail)
//Storyboard Layer 2 (Pass)
//Storyboard Layer 3 (Foreground)
//Storyboard Sound Samples

[TimingPoints]
194,234.375,4,1,0,100,1,0

[HitObjects]
59,136,194,5,0,0:0:0:0:
211,61,428,1,0,0:0:0:0:
142,221,662,2,0,P|162:301|247:320,1,140
365,177,1131,1,0,0:0:0:0:
281,114,1365,2,0,P|240:112|203:89,1,70
122,97,1600,2,0,P|96:189|139:251,1,140
291,279,2069,2,0,L|421:252,2,70
202,133,2537,2,0,P|236:69|317:117,1,140
412,251,3006,5,0,0:0:0:0:
191,290,3240,1,0,0:0:0:0:
333,139,3475,2,0,P|341:54|262:18,1,140
99,53,3944,1,0,0:0:0:0:
251,147,4178,1,0,0:0:0:0:
92,229,4412,2,0,P|75:320|145:352,1,140
296,326,4881,1,0,0:0:0:0:
208,124,5115,1,0,0:0:0:0:
213,75,5233,1,0,0:0:0:0:
237,32,5350,1,0,0:0:0:0:
421,156,5584,1,0,0:0:0:0:
444,197,5701,1,0,0:0:0:0:
442,247,5819,1,0,0:0:0:0:
334,349,6053,1,0,0:0:0:0:
201,278,6287,2,0,P|184:182|230:123,1,140
377,53,6756,1,0,0:0:0:0:
337,279,6990,1,0,0:0:0:0:
189,86,7225,1,0,0:0:0:0:
449,127,7459,1,0,0:0:0:0:
337,279,7694,6,0,P|275:304|214:271,1,140
126,103,8162,1,0,0:0:0:0:
370,124,8397,1,0,0:0:0:0:
126,228,8631,1,0,0:0:0:0:
307,323,8865,1,0,0:0:0:0:
359,320,8983,1,0,0:0:0:0:
403,290,9100,1,0,0:0:0:0:
295,115,9334,1,0,0:0:0:0:
246,88,9451,1,0,0:0:0:0:
221,38,9569,1,0,0:0:0:0:
88,118,9803,2,0,P|95:204|156:245,1,140
348,252,10272,1,0,0:0:0:0:
253,42,10506,1,0,0:0:0:0:
172,304,10740,1,0,0:0:0:0:
379,163,10975,1,0,0:0:0:0:
148,255,11209,1,0,0:0:0:0:
297,384,11444,6,0,P|372:324|371:267,1,140
323,78,11912,1,0,0:0:0:0:
100,253,12147,1,0,0:0:0:0:
194,27,12381,1,0,0:0:0:0:
290,183,12615,1,0,0:0:0:0:
301,236,12733,1,0,0:0:0:0:
293,290,12850,1,0,0:0:0:0:
95,241,13084,1,0,0:0:0:0:
69,197,13201,1,0,0:0:0:0:
69,144,13319,1,0,0:0:0:0:
206,42,13553,2,0,P|284:26|370:64,1,140
461,164,14022,1,0,0:0:0:0:
216,307,14959,5,0,0:0:0:0:
169,291,15076,1,0,0:0:0:0:
138,253,15194,2,0,P|116:191|167:104,1,140
330,136,15662,2,0,P|388:131|325:79,1,140
142,67,16131,1,0,0:0:0:0:
271,199,16365,2,0,P|297:243|281:300,1,70
208,348,16600,2,0,P|141:318|215:276,1,140
418,219,17069,1,0,0:0:0:0:
164,83,17303,1,0,0:0:0:0:
320,312,17537,1,0,0:0:0:0:
401,52,17772,1,0,0:0:0:0:
403,279,18006,6,0,P|340:347|259:329,1,140
143,220,18475,2,0,P|140:159|219:184,1,140
396,195,18944,2,0,P|438:113|381:41,1,140
222,108,19412,2,0,P|98:73|86:38,1,140
77,25,19881,1,0,0:0:0:0:
367,44,20115,1,0,0:0:0:0:
408,73,20233,1,0,0:0:0:0:
435,117,20350,1,0,0:0:0:0:
305,349,20584,1,0,0:0:0:0:
254,357,20701,1,0,0:0:0:0:
204,340,20819,1,0,0:0:0:0:
71,194,21053,1,0,0:0:0:0:
190,39,21287,2,0,P|266:15|377:67,1,140
416,320,21756,5,0,0:0:0:0:
128,320,21990,1,0,0:0:0:0:
128,64,22225,1,0,0:0:0:0:
416,64,22459,1,0,0:0:0:0:
287,208,22694,2,0,P|223:208|290:184,1,140
420,194,23162,2,0,P|408:281|356:329,1,140
115,233,23631,1,0,0:0:0:0:
309,164,23865,2,0,P|343:121|339:79,1,70
276,20,24100,2,0,P|178:44|152:118,1,140
147,126,24451,1,0,0:0:0:0:
244,200,24569,2,0,P|288:251|289:330,1,140
135,323,25037,2,0,P|62:233|88:168,1,140
218,143,25506,2,0,P|289:99|304:23,1,140
146,53,25975,2,0,P|110:156|142:215,1,140
319,192,26444,6,0,B|370:169|411:92|411:92|442:153|416:239,1,280
275,345,27147,1,0,0:0:0:0:
146,159,27381,1,0,0:0:0:0:
362,198,27615,2,0,P|426:197|457:178,2,70
362,198,28084,1,0,0:0:0:0:
104,159,29490,5,0,0:0:0:0:
100,208,29608,1,0,0:0:0:0:
116,254,29725,2,0,P|157:305|233:314,1,140
415,177,30194,1,0,0:0:0:0:
180,14,30428,1,0,0:0:0:0:
85,250,30662,2,0,P|133:331|226:349,1,140
419,281,31131,1,0,0:0:0:0:
243,174,31365,1,0,0:0:0:0:
202,143,31483,1,0,0:0:0:0:
185,97,31600,1,0,0:0:0:0:
408,61,31834,1,0,0:0:0:0:
449,89,31951,1,0,0:0:0:0:
472,133,32069,1,0,0:0:0:0:
339,269,32303,2,0,P|230:285|176:255,1,140
155,251,32772,1,0,0:0:0:0:
326,176,33006,2,0,P|369:131|330:44,1,140
138,28,33475,2,0,P|104:98|165:97,1,140
432,216,33944,6,0,P|420:309|343:353,1,140
204,239,34412,2,0,P|143:266|201:325,1,140
385,300,34881,1,0,0:0:0:0:
234,157,35115,1,0,0:0:0:0:
216,108,35233,1,0,0:0:0:0:
215,57,35350,1,0,0:0:0:0:
425,42,35584,1,0,0:0:0:0:
444,89,35701,1,0,0:0:0:0:
447,136,35819,1,0,0:0:0:0:
362,352,36053,1,0,0:0:0:0:
261,93,36287,1,0,0:0:0:0:
142,346,36522,1,0,0:0:0:0:
79,145,36756,2,0,P|96:68|189:13,1,140
335,95,37225,2,0,P|360:201|327:257,1,140
115,352,37694,6,0,P|56:307|120:268,1,140
296,200,38162,2,0,P|373:151|358:79,2,140
168,196,38865,1,0,0:0:0:0:
120,175,38983,1,0,0:0:0:0:
93,132,39100,1,0,0:0:0:0:
286,23,39334,1,0,0:0:0:0:
337,17,39451,1,0,0:0:0:0:
382,41,39569,1,0,0:0:0:0:
465,243,39803,1,0,0:0:0:0:
292,119,40037,2,0,P|240:107|255:193,1,140
275,349,40506,2,0,P|191:355|136:286,1,140
88,127,40975,1,0,0:0:0:0:
286,223,41209,1,0,0:0:0:0:
259,21,41444,6,0,P|280:-24|345:26,1,140
247,147,41912,2,0,P|217:218|280:290,1,140
367,344,42381,1,0,0:0:0:0:
467,180,42615,1,0,0:0:0:0:
479,132,42733,1,0,0:0:0:0:
470,82,42850,1,0,0:0:0:0:
260,42,43084,1,0,0:0:0:0:
219,68,43201,1,0,0:0:0:0:
196,112,43319,1,0,0:0:0:0:
198,324,43553,1,0,0:0:0:0:
76,205,43787,2,0,P|52:143|59:70,1,140
96,256,45194,5,0,0:0:0:0:
256,32,45428,1,0,0:0:0:0:
288,352,45662,1,0,0:0:0:0:
453,112,45897,1,0,0:0:0:0:
224,288,46131,1,0,0:0:0:0:
256,32,46365,1,0,0:0:0:0:
384,288,46600,1,0,0:0:0:0:
128,128,46834,1,0,0:0:0:0:
416,128,47069,1,0,0:0:0:0:
160,288,47303,1,0,0:0:0:0:
320,32,47537,1,0,0:0:0:0:
384,320,47772,1,0,0:0:0:0:
162,188,48006,2,0,P|134:140|144:35,1,140
336,33,48475,2,0,P|417:77|450:170,1,140
287,256,48944,2,0,P|291:338|356:287,1,140
508,182,49412,5,0,0:0:0:0:
261,55,49647,1,0,0:0:0:0:
329,338,49881,1,0,0:0:0:0:
114,179,50115,1,0,0:0:0:0:
96,132,50233,1,0,0:0:0:0:
98,83,50350,1,0,0:0:0:0:
364,80,50584,1,0,0:0:0:0:
389,124,50701,1,0,0:0:0:0:
398,170,50819,1,0,0:0:0:0:
348,374,51053,1,0,0:0:0:0:
284,166,51287,2,0,P|232:106|141:94,1,140
6,169,51756,1,0,0:0:0:0:
236,233,51990,1,0,0:0:0:0:
23,332,52225,1,0,0:0:0:0:
169,119,52459,1,0,0:0:0:0:
326,324,52694,5,0,0:0:0:0:
361,310,52811,1,0,0:0:0:0:
391,286,52928,1,0,0:0:0:0:
413,253,53045,1,0,0:0:0:0:
428,218,53162,1,0,0:0:0:0:
435,180,53279,1,0,0:0:0:0:
436,146,53397,1,0,0:0:0:0:
429,106,53514,1,0,0:0:0:0:
305,31,53631,2,0,P|245:32|196:61,7,70
131,117,54569,5,0,0:0:0:0:
118,153,54686,1,0,0:0:0:0:
114,195,54803,1,0,0:0:0:0:
121,234,54920,1,0,0:0:0:0:
132,268,55037,1,0,0:0:0:0:
157,302,55154,1,0,0:0:0:0:
190,324,55272,1,0,0:0:0:0:
227,337,55389,1,0,0:0:0:0:
342,332,55506,2,0,P|401:302|418:242,7,70
452,195,56444,5,0,0:0:0:0:
455,151,56561,1,0,0:0:0:0:
447,114,56678,1,0,0:0:0:0:
427,78,56795,1,0,0:0:0:0:
401,50,56912,1,0,0:0:0:0:
367,33,57029,1,0,0:0:0:0:
326,27,57147,1,0,0:0:0:0:
286,31,57264,1,0,0:0:0:0:
201,103,57381,2,0,P|151:133|116:132,7,70
42,110,58319,1,0,0:0:0:0:
29,75,58436,1,0,0:0:0:0:
37,41,58553,1,0,0:0:0:0:
64,16,58670,1,0,0:0:0:0:
98,5,58787,1,0,0:0:0:0:
139,0,58904,1,0,0:0:0:0:
182,3,59022,1,0,0:0:0:0:
215,14,59139,1,0,0:0:0:0:
244,39,59256,1,0,0:0:0:0:
266,74,59373,1,0,0:0:0:0:
279,109,59490,1,0,0:0:0:0:
280,150,59608,1,0,0:0:0:0:
275,187,59725,1,0,0:0:0:0:
258,226,59842,1,0,0:0:0:0:
231,254,59959,1,0,0:0:0:0:
103,236,75194,6,0,B|122:195|47:140|49:139|48:141|77:114|118:133|132:123|161:122|152:87|132:73|157:62|175:103|251:45,1,280
307,202,76131,6,0,B|353:248|321:291|283:302|295:314|287:329|336:317|395:295|433:314|370:356|418:346|467:327|299:243|477:238|456:245,1,280
356,100,77069,6,0,B|318:113|305:106|283:75|279:41|300:25|303:17|309:24|257:22|226:19|261:102|180:40|144:98|237:118,1,280
347,209,78006,6,0,B|295:269|244:223|244:223|220:267|203:278|288:327|222:369,1,280
