osu file format v14

[General]
AudioFilename: audio.mp3
AudioLeadIn: 0
PreviewTime: 60491
Countdown: 0
SampleSet: None
StackLeniency: 0.7
Mode: 3
LetterboxInBreaks: 0
SpecialStyle: 0
WidescreenStoryboard: 0

[Editor]
DistanceSpacing: 0.8
BeatDivisor: 8
GridSize: 32
TimelineZoom: 1.8

[Metadata]
Title:Laufe durch die Zeit
TitleUnicode:Laufe durch die Zeit
Artist:Conny K.
ArtistUnicode:Conny K.
Creator:playin14
Version:
Source:Detektiv Conan
Tags:
BeatmapID:1930644
BeatmapSetID:924324

[Difficulty]
HPDrainRate:8
CircleSize:7
OverallDifficulty:8
ApproachRate:5
SliderMultiplier:1.4
SliderTickRate:1

[Events]
//Background and Video events
0,0,"911582.jpg",0,0
//Break Periods
//Storyboard Layer 0 (Background)
//Storyboard Layer 1 (Fail)
//Storyboard Layer 2 (Pass)
//Storyboard Layer 3 (Foreground)
//Storyboard Sound Samples

[TimingPoints]
345,419.58041958042,4,2,1,100,1,0
7025,410.958904109589,4,2,1,100,1,0
7025,-102.145045965271,4,2,1,100,0,0
10247,408.163265306122,4,2,1,100,1,0
10247,-102.880658436214,4,2,1,100,0,0
15655,416.666666666667,4,2,1,100,1,0
15655,-100.704934541793,4,2,1,100,0,0
16071,476.190476190476,4,2,1,100,1,0
16071,-88.1834215167548,4,2,1,100,0,0
23660,476.190476190476,4,2,1,100,1,0
23660,-88.1834215167548,4,2,1,100,0,0
25564,472.44094488189,4,2,1,100,1,0
25564,-88.8888888888889,4,2,1,100,0,0
27453,465.116279069767,4,2,1,100,1,0
27453,-90.2527075812274,4,2,1,100,0,0
31173,405.405405405405,4,2,1,100,1,0
31173,-100.401606425703,4,2,1,100,0,0
37684,410.958904109589,4,2,1,100,1,0
37684,-102.145045965271,4,2,1,100,0,0
59053,410.958904109589,4,2,1,100,1,0
73847,408.163265306122,4,2,1,100,1,0
73847,-102.880658436214,4,2,1,100,0,0
82035,416.666666666667,4,2,1,100,1,0
82035,-100.704934541793,4,2,1,100,0,0
87035,422.535211267606,4,2,1,100,1,0
87035,-99.304865938431,4,2,1,100,0,0
90415,410.958904109589,4,2,1,100,1,0
90415,-102.145045965271,4,2,1,100,0,0

[HitObjects]
36,192,188,5,0,0:0:0:50:Normal-hitnormal.wav
109,192,240,1,0,0:0:0:50:Normal-hitnormal.wav
182,192,292,1,0,0:0:0:50:Normal-hitnormal.wav
256,192,345,1,0,0:0:0:50:Normal-hitnormal.wav
329,192,345,1,0,0:0:0:50:Normal-hitnormal.wav
402,192,345,1,0,0:0:0:50:Normal-hitnormal.wav
475,192,345,1,0,0:0:0:50:Normal-hitnormal.wav
475,192,974,1,0,0:0:0:50:Normal-hitnormal.wav
402,192,1184,1,0,0:0:0:50:Normal-hitnormal.wav
329,192,1498,1,0,0:0:0:50:Normal-hitnormal.wav
256,192,1813,1,0,0:0:0:50:Normal-hitnormal.wav
36,192,2023,1,0,0:0:0:50:Normal-hitnormal.wav
109,192,2338,1,0,0:0:0:50:Normal-hitnormal.wav
182,192,2652,1,0,0:0:0:50:Normal-hitnormal.wav
329,192,2862,1,0,0:0:0:50:Normal-hitnormal.wav
256,192,3177,1,0,0:0:0:50:Normal-hitnormal.wav
182,192,3491,1,0,0:0:0:50:Normal-hitnormal.wav
475,192,3544,1,0,0:0:0:50:Normal-hitnormal.wav
402,192,3596,1,0,0:0:0:50:Normal-hitnormal.wav
329,192,3649,1,0,0:0:0:50:Normal-hitnormal.wav
36,192,3701,1,0,0:0:0:50:Normal-hitnormal.wav
109,192,3701,1,0,0:0:0:50:Normal-hitnormal.wav
182,192,3701,1,0,0:0:0:50:Normal-hitnormal.wav
256,192,3701,1,0,0:0:0:50:Normal-hitnormal.wav
475,192,4121,1,0,0:0:0:50:Normal-hitnormal.wav
402,192,4960,1,0,0:0:0:50:Normal-hitnormal.wav
475,192,5170,1,0,0:0:0:50:Normal-hitnormal.wav
329,192,5379,1,0,0:0:0:50:Normal-hitnormal.wav
402,192,5589,1,0,0:0:0:50:Normal-hitnormal.wav
256,192,5799,1,0,0:0:0:50:Normal-hitnormal.wav
329,192,6009,1,0,0:0:0:50:Normal-hitnormal.wav
475,192,6009,1,0,0:0:0:50:Normal-hitnormal.wav
182,192,6219,1,0,0:0:0:50:Normal-hitnormal.wav
256,192,6428,1,0,0:0:0:50:Normal-hitnormal.wav
475,192,6428,1,0,0:0:0:50:Normal-hitnormal.wav
109,192,6638,1,0,0:0:0:50:Normal-hitnormal.wav
402,192,6638,1,0,0:0:0:50:Normal-hitnormal.wav
182,192,6848,1,0,0:0:0:50:Normal-hitnormal.wav
329,192,6848,1,0,0:0:0:50:Normal-hitnormal.wav
36,192,7025,1,0,0:0:0:50:Normal-hitnormal.wav
109,192,7025,1,0,0:0:0:50:Normal-hitnormal.wav
182,192,7025,1,0,0:0:0:50:Normal-hitnormal.wav
256,192,7025,1,0,0:0:0:50:Normal-hitnormal.wav
402,192,7230,1,0,0:0:0:50:Normal-hitnormal.wav
36,192,7435,1,0,0:0:0:50:Normal-hitnormal.wav
256,192,7435,1,0,0:0:0:50:Normal-hitnormal.wav
475,192,7435,1,0,0:0:0:50:Normal-hitnormal.wav
109,192,7641,1,0,0:0:0:50:Normal-hitnormal.wav
402,192,7641,1,0,0:0:0:50:Normal-hitnormal.wav
182,192,7846,1,0,0:0:0:50:Normal-hitnormal.wav
256,192,8257,1,0,0:0:0:50:Normal-hitnormal.wav
475,192,8257,1,0,0:0:0:50:Normal-hitnormal.wav
36,192,8514,1,0,0:0:0:50:Normal-hitnormal.wav
109,192,8566,1,0,0:0:0:50:Normal-hitnormal.wav
182,192,8617,1,0,0:0:0:50:Normal-hitnormal.wav
256,192,8668,1,0,0:0:0:50:Normal-hitnormal.wav
329,192,8668,1,0,0:0:0:50:Normal-hitnormal.wav
402,192,8668,1,0,0:0:0:50:Normal-hitnormal.wav
475,192,8668,1,0,0:0:0:50:Normal-hitnormal.wav
36,192,9079,1,0,0:0:0:50:Normal-hitnormal.wav
475,192,9079,1,0,0:0:0:50:Normal-hitnormal.wav
256,192,9285,1,0,0:0:0:50:Normal-hitnormal.wav
402,192,9490,1,0,0:0:0:50:Normal-hitnormal.wav
109,192,9490,1,0,0:0:0:50:Normal-hitnormal.wav
182,192,9901,1,0,0:0:0:50:Normal-hitnormal.wav
329,192,9901,1,0,0:0:0:50:Normal-hitnormal.wav
36,192,10209,1,0,0:0:0:50:Normal-hitnormal.wav
475,192,10209,1,0,0:0:0:50:Normal-hitnormal.wav
109,192,10247,1,0,0:0:0:50:Normal-hitnormal.wav
182,192,10247,1,0,0:0:0:50:Normal-hitnormal.wav
256,192,10247,1,0,0:0:0:50:Normal-hitnormal.wav
329,192,10247,1,0,0:0:0:50:Normal-hitnormal.wav
402,192,10247,1,0,0:0:0:50:Normal-hitnormal.wav
475,192,10451,1,0,0:0:0:50:Normal-hitnormal.wav
109,192,10655,1,0,0:0:0:50:Normal-hitnormal.wav
402,192,10655,1,0,0:0:0:50:Normal-hitnormal.wav
36,192,10757,1,0,0:0:0:50:Normal-hitnormal.wav
475,192,10859,1,0,0:0:0:50:Normal-hitnormal.wav
182,192,11063,1,0,0:0:0:50:Normal-hitnormal.wav
329,192,11063,1,0,0:0:0:50:Normal-hitnormal.wav
256,192,11369,1,0,0:0:0:50:Normal-hitnormal.wav
402,192,11471,1,0,0:0:0:50:Normal-hitnormal.wav
109,192,11471,1,0,0:0:0:50:Normal-hitnormal.wav
256,192,11675,1,0,0:0:0:50:Normal-hitnormal.wav
36,192,11777,1,0,0:0:0:50:Normal-hitnormal.wav
475,192,11777,1,0,0:0:0:50:Normal-hitnormal.wav
109,192,11828,1,0,0:0:0:50:Normal-hitnormal.wav
402,192,11828,1,0,0:0:0:50:Normal-hitnormal.wav
329,192,11879,1,0,0:0:0:50:Normal-hitnormal.wav
256,192,11879,1,0,0:0:0:50:Normal-hitnormal.wav
182,192,11879,1,0,0:0:0:50:Normal-hitnormal.wav
256,192,12185,1,0,0:0:0:50:Normal-hitnormal.wav
109,192,12287,1,0,0:0:0:50:Normal-hitnormal.wav
402,192,12287,1,0,0:0:0:50:Normal-hitnormal.wav
475,192,12491,1,0,0:0:0:50:Normal-hitnormal.wav
36,192,12491,1,0,0:0:0:50:Normal-hitnormal.wav
329,192,12695,1,0,0:0:0:50:Normal-hitnormal.wav
182,192,12695,1,0,0:0:0:50:Normal-hitnormal.wav
256,192,12900,1,0,0:0:0:50:Normal-hitnormal.wav
109,192,13104,1,0,0:0:0:50:Normal-hitnormal.wav
402,192,13104,1,0,0:0:0:50:Normal-hitnormal.wav
256,192,13206,1,0,0:0:0:50:Normal-hitnormal.wav
256,192,13461,1,0,0:0:0:50:Normal-hitnormal.wav
36,192,13512,1,0,0:0:0:50:Normal-hitnormal.wav
109,192,13512,1,0,0:0:0:50:Normal-hitnormal.wav
182,192,13512,1,0,0:0:0:50:Normal-hitnormal.wav
329,192,13512,1,0,0:0:0:50:Normal-hitnormal.wav
402,192,13512,1,0,0:0:0:50:Normal-hitnormal.wav
475,192,13512,1,0,0:0:0:50:Normal-hitnormal.wav
182,192,13920,1,0,0:0:0:50:Normal-hitnormal.wav
329,192,13920,1,0,0:0:0:50:Normal-hitnormal.wav
256,192,14124,1,0,0:0:0:50:Normal-hitnormal.wav
256,192,14328,1,0,0:0:0:50:Normal-hitnormal.wav
182,192,14736,1,0,0:0:0:50:Normal-hitnormal.wav
329,192,14736,1,0,0:0:0:50:Normal-hitnormal.wav
256,192,15655,1,0,0:0:0:50:Normal-hitnormal.wav
109,192,15655,1,0,0:0:0:50:Normal-hitnormal.wav
402,192,15655,1,0,0:0:0:50:Normal-hitnormal.wav
36,192,16071,1,0,0:0:0:50:Normal-hitnormal.wav
109,192,16071,1,0,0:0:0:50:Normal-hitnormal.wav
256,192,16071,1,0,0:0:0:50:Normal-hitnormal.wav
329,192,16071,1,0,0:0:0:50:Normal-hitnormal.wav
402,192,16071,1,0,0:0:0:50:Normal-hitnormal.wav
475,192,16071,1,0,0:0:0:50:Normal-hitnormal.wav
182,192,16229,1,0,0:0:0:50:Normal-hitnormal.wav
36,192,16388,1,0,0:0:0:50:Normal-hitnormal.wav
109,192,16547,1,0,0:0:0:50:Normal-hitnormal.wav
256,192,16705,1,0,0:0:0:50:Normal-hitnormal.wav
109,192,16864,1,0,0:0:0:50:Normal-hitnormal.wav
182,192,17023,1,0,0:0:0:50:Normal-hitnormal.wav
329,192,17182,1,0,0:0:0:50:Normal-hitnormal.wav
182,192,17340,1,0,0:0:0:50:Normal-hitnormal.wav
256,192,17499,1,0,0:0:0:50:Normal-hitnormal.wav
402,192,17658,1,0,0:0:0:50:Normal-hitnormal.wav
256,192,17817,1,0,0:0:0:50:Normal-hitnormal.wav
329,192,17975,1,0,0:0:0:50:Normal-hitnormal.wav
36,192,17975,1,0,0:0:0:50:Normal-hitnormal.wav
182,192,17975,1,0,0:0:0:50:Normal-hitnormal.wav
109,192,17975,1,0,0:0:0:50:Normal-hitnormal.wav
402,192,17975,1,0,0:0:0:50:Normal-hitnormal.wav
475,192,18094,1,0,0:0:0:50:Normal-hitnormal.wav
256,192,18213,1,0,0:0:0:50:Normal-hitnormal.wav
402,192,18332,1,0,0:0:0:50:Normal-hitnormal.wav
182,192,18451,1,0,0:0:0:50:Normal-hitnormal.wav
329,192,18571,1,0,0:0:0:50:Normal-hitnormal.wav
109,192,18690,1,0,0:0:0:50:Normal-hitnormal.wav
256,192,18809,1,0,0:0:0:50:Normal-hitnormal.wav
36,192,18928,1,0,0:0:0:50:Normal-hitnormal.wav
475,192,18928,128,0,18987:0:0:0:50:Normal-hitnormal.wav
182,192,19047,1,0,0:0:0:50:Normal-hitnormal.wav
402,192,19047,128,0,19106:0:0:0:50:Normal-hitnormal.wav
109,192,19166,1,0,0:0:0:50:Normal-hitnormal.wav
329,192,19166,128,0,19225:0:0:0:50:Normal-hitnormal.wav
256,192,19285,1,0,0:0:0:50:Normal-hitnormal.wav
36,192,19285,128,0,19344:0:0:0:50:Normal-hitnormal.wav
182,192,19404,1,0,0:0:0:50:Normal-hitnormal.wav
475,192,19404,128,0,19463:0:0:0:50:Normal-hitnormal.wav
329,192,19523,1,0,0:0:0:50:Normal-hitnormal.wav
109,192,19523,128,0,19582:0:0:0:50:Normal-hitnormal.wav
256,192,19642,1,0,0:0:0:50:Normal-hitnormal.wav
36,192,19642,128,0,19701:0:0:0:50:Normal-hitnormal.wav
402,192,19761,1,0,0:0:0:50:Normal-hitnormal.wav
182,192,19761,128,0,19821:0:0:0:50:Normal-hitnormal.wav
36,192,19880,1,0,0:0:0:50:Normal-hitnormal.wav
109,192,19880,1,0,0:0:0:50:Normal-hitnormal.wav
256,192,19880,1,0,0:0:0:50:Normal-hitnormal.wav
329,192,19880,1,0,0:0:0:50:Normal-hitnormal.wav
475,192,19880,1,0,0:0:0:50:Normal-hitnormal.wav
182,192,20039,1,0,0:0:0:50:Normal-hitnormal.wav
36,192,20197,1,0,0:0:0:50:Normal-hitnormal.wav
109,192,20356,1,0,0:0:0:50:Normal-hitnormal.wav
256,192,20515,1,0,0:0:0:50:Normal-hitnormal.wav
109,192,20674,1,0,0:0:0:50:Normal-hitnormal.wav
182,192,20832,1,0,0:0:0:50:Normal-hitnormal.wav
329,192,20991,1,0,0:0:0:50:Normal-hitnormal.wav
182,192,21150,1,0,0:0:0:50:Normal-hitnormal.wav
256,192,21309,1,0,0:0:0:50:Normal-hitnormal.wav
402,192,21467,1,0,0:0:0:50:Normal-hitnormal.wav
256,192,21626,1,0,0:0:0:50:Normal-hitnormal.wav
329,192,21785,1,0,0:0:0:50:Normal-hitnormal.wav
36,192,21785,1,0,0:0:0:50:Normal-hitnormal.wav
109,192,21785,1,0,0:0:0:50:Normal-hitnormal.wav
182,192,21785,1,0,0:0:0:50:Normal-hitnormal.wav
402,192,21785,1,0,0:0:0:50:Normal-hitnormal.wav
475,192,21904,1,0,0:0:0:50:Normal-hitnormal.wav
256,192,22023,1,0,0:0:0:50:Normal-hitnormal.wav
402,192,22142,1,0,0:0:0:50:Normal-hitnormal.wav
182,192,22261,1,0,0:0:0:50:Normal-hitnormal.wav
329,192,22380,1,0,0:0:0:50:Normal-hitnormal.wav
109,192,22499,1,0,0:0:0:50:Normal-hitnormal.wav
256,192,22618,1,0,0:0:0:50:Normal-hitnormal.wav
36,192,22737,1,0,0:0:0:50:Normal-hitnormal.wav
475,192,22737,128,0,22797:0:0:0:50:Normal-hitnormal.wav
182,192,22856,1,0,0:0:0:50:Normal-hitnormal.wav
329,192,22856,128,0,22916:0:0:0:50:Normal-hitnormal.wav
109,192,22975,1,0,0:0:0:50:Normal-hitnormal.wav
402,192,22975,128,0,23035:0:0:0:50:Normal-hitnormal.wav
256,192,23094,1,0,0:0:0:50:Normal-hitnormal.wav
475,192,23094,128,0,23154:0:0:0:50:Normal-hitnormal.wav
182,192,23213,1,0,0:0:0:50:Normal-hitnormal.wav
36,192,23213,128,0,23273:0:0:0:50:Normal-hitnormal.wav
329,192,23332,1,0,0:0:0:50:Normal-hitnormal.wav
109,192,23332,128,0,23392:0:0:0:50:Normal-hitnormal.wav
256,192,23451,1,0,0:0:0:50:Normal-hitnormal.wav
475,192,23451,128,0,23511:0:0:0:50:Normal-hitnormal.wav
402,192,23570,1,0,0:0:0:50:Normal-hitnormal.wav
182,192,23570,128,0,23630:0:0:0:50:Normal-hitnormal.wav
329,192,23660,1,0,0:0:0:50:Normal-hitnormal.wav
36,192,23660,1,0,0:0:0:50:Normal-hitnormal.wav
109,192,23660,1,0,0:0:0:50:Normal-hitnormal.wav
256,192,23660,1,0,0:0:0:50:Normal-hitnormal.wav
475,192,23660,1,0,0:0:0:50:Normal-hitnormal.wav
182,192,23818,1,0,0:0:0:50:Normal-hitnormal.wav
36,192,23977,1,0,0:0:0:50:Normal-hitnormal.wav
109,192,24136,1,0,0:0:0:50:Normal-hitnormal.wav
256,192,24294,1,0,0:0:0:50:Normal-hitnormal.wav
109,192,24453,1,0,0:0:0:50:Normal-hitnormal.wav
182,192,24612,1,0,0:0:0:50:Normal-hitnormal.wav
329,192,24771,1,0,0:0:0:50:Normal-hitnormal.wav
182,192,24929,1,0,0:0:0:50:Normal-hitnormal.wav
256,192,25088,1,0,0:0:0:50:Normal-hitnormal.wav
402,192,25247,1,0,0:0:0:50:Normal-hitnormal.wav
256,192,25406,1,0,0:0:0:50:Normal-hitnormal.wav
402,192,25564,1,0,0:0:0:50:Normal-hitnormal.wav
182,192,25564,1,0,0:0:0:50:Normal-hitnormal.wav
329,192,25564,1,0,0:0:0:50:Normal-hitnormal.wav
109,192,25564,1,0,0:0:0:50:Normal-hitnormal.wav
36,192,25564,1,0,0:0:0:50:Normal-hitnormal.wav
475,192,25682,1,0,0:0:0:50:Normal-hitnormal.wav
256,192,25800,1,0,0:0:0:50:Normal-hitnormal.wav
402,192,25918,1,0,0:0:0:50:Normal-hitnormal.wav
182,192,26036,1,0,0:0:0:50:Normal-hitnormal.wav
329,192,26154,1,0,0:0:0:50:Normal-hitnormal.wav
109,192,26272,1,0,0:0:0:50:Normal-hitnormal.wav
256,192,26390,1,0,0:0:0:50:Normal-hitnormal.wav
36,192,26508,1,0,0:0:0:50:Normal-hitnormal.wav
329,192,26508,128,0,26567:0:0:0:50:Normal-hitnormal.wav
182,192,26626,1,0,0:0:0:50:Normal-hitnormal.wav
402,192,26626,128,0,26686:0:0:0:50:Normal-hitnormal.wav
109,192,26745,1,0,0:0:0:50:Normal-hitnormal.wav
475,192,26745,128,0,26804:0:0:0:50:Normal-hitnormal.wav
256,192,26863,1,0,0:0:0:50:Normal-hitnormal.wav
402,192,26863,128,0,26922:0:0:0:50:Normal-hitnormal.wav
182,192,26981,1,0,0:0:0:50:Normal-hitnormal.wav
36,192,26981,128,0,27040:0:0:0:50:Normal-hitnormal.wav
329,192,27099,1,0,0:0:0:50:Normal-hitnormal.wav
109,192,27099,128,0,27158:0:0:0:50:Normal-hitnormal.wav
475,192,27158,128,0,27217:0:0:0:50:Normal-hitnormal.wav
256,192,27217,1,0,0:0:0:50:Normal-hitnormal.wav
36,192,27217,128,0,27276:0:0:0:50:Normal-hitnormal.wav
402,192,27335,1,0,0:0:0:50:Normal-hitnormal.wav
182,192,27335,128,0,27394:0:0:0:50:Normal-hitnormal.wav
329,192,27453,1,0,0:0:0:50:Normal-hitnormal.wav
36,192,27453,1,0,0:0:0:50:Normal-hitnormal.wav
109,192,27453,1,0,0:0:0:50:Normal-hitnormal.wav
256,192,27453,1,0,0:0:0:50:Normal-hitnormal.wav
475,192,27453,1,0,0:0:0:50:Normal-hitnormal.wav
182,192,27569,1,0,0:0:0:50:Normal-hitnormal.wav
402,192,27685,1,0,0:0:0:50:Normal-hitnormal.wav
256,192,27801,1,0,0:0:0:50:Normal-hitnormal.wav
475,192,27918,1,0,0:0:0:50:Normal-hitnormal.wav
329,192,28034,1,0,0:0:0:50:Normal-hitnormal.wav
402,192,28150,1,0,0:0:0:50:Normal-hitnormal.wav
256,192,28266,1,0,0:0:0:50:Normal-hitnormal.wav
329,192,28383,1,0,0:0:0:50:Normal-hitnormal.wav
182,192,28499,1,0,0:0:0:50:Normal-hitnormal.wav
256,192,28615,1,0,0:0:0:50:Normal-hitnormal.wav
109,192,28732,1,0,0:0:0:50:Normal-hitnormal.wav
182,192,28848,1,0,0:0:0:50:Normal-hitnormal.wav
36,192,28964,1,0,0:0:0:50:Normal-hitnormal.wav
256,192,29080,1,0,0:0:0:50:Normal-hitnormal.wav
109,192,29197,1,0,0:0:0:50:Normal-hitnormal.wav
329,192,29313,1,0,0:0:0:50:Normal-hitnormal.wav
182,192,29429,1,0,0:0:0:50:Normal-hitnormal.wav
402,192,29546,1,0,0:0:0:50:Normal-hitnormal.wav
256,192,29662,1,0,0:0:0:50:Normal-hitnormal.wav
475,192,29778,1,0,0:0:0:50:Normal-hitnormal.wav
329,192,29894,1,0,0:0:0:50:Normal-hitnormal.wav
402,192,30011,1,0,0:0:0:50:Normal-hitnormal.wav
256,192,30127,1,0,0:0:0:50:Normal-hitnormal.wav
329,192,30243,1,0,0:0:0:50:Normal-hitnormal.wav
182,192,30359,1,0,0:0:0:50:Normal-hitnormal.wav
256,192,30476,1,0,0:0:0:50:Normal-hitnormal.wav
109,192,30592,1,0,0:0:0:50:Normal-hitnormal.wav
182,192,30708,1,0,0:0:0:50:Normal-hitnormal.wav
36,192,30825,1,0,0:0:0:50:Normal-hitnormal.wav
256,192,30941,1,0,0:0:0:50:Normal-hitnormal.wav
109,192,31057,1,0,0:0:0:50:Normal-hitnormal.wav
329,192,31173,1,0,0:0:0:50:Normal-hitnormal.wav
256,192,31173,1,0,0:0:0:50:Normal-hitnormal.wav
109,192,31274,1,0,0:0:0:50:Normal-hitnormal.wav
402,192,31375,1,0,0:0:0:50:Normal-hitnormal.wav
36,192,31477,1,0,0:0:0:50:Normal-hitnormal.wav
475,192,31578,1,0,0:0:0:50:Normal-hitnormal.wav
182,192,31578,1,0,0:0:0:50:Normal-hitnormal.wav
329,192,31578,1,0,0:0:0:50:Normal-hitnormal.wav
256,192,31578,128,0,31781:0:0:0:50:Normal-hitnormal.wav
109,192,31679,1,0,0:0:0:50:Normal-hitnormal.wav
402,192,31781,1,0,0:0:0:50:Normal-hitnormal.wav
182,192,31882,1,0,0:0:0:50:Normal-hitnormal.wav
329,192,31983,1,0,0:0:0:50:Normal-hitnormal.wav
256,192,31983,1,0,0:0:0:50:Normal-hitnormal.wav
109,192,32085,1,0,0:0:0:50:Normal-hitnormal.wav
402,192,32186,1,0,0:0:0:50:Normal-hitnormal.wav
256,192,32186,1,0,0:0:0:50:Normal-hitnormal.wav
36,192,32287,1,0,0:0:0:50:Normal-hitnormal.wav
475,192,32389,1,0,0:0:0:50:Normal-hitnormal.wav
182,192,32389,1,0,0:0:0:50:Normal-hitnormal.wav
329,192,32389,1,0,0:0:0:50:Normal-hitnormal.wav
256,192,32389,128,0,32591:0:0:0:50:Normal-hitnormal.wav
109,192,32490,1,0,0:0:0:50:Normal-hitnormal.wav
402,192,32591,1,0,0:0:0:50:Normal-hitnormal.wav
182,192,32693,1,0,0:0:0:50:Normal-hitnormal.wav
329,192,32794,1,0,0:0:0:50:Normal-hitnormal.wav
256,192,32794,1,0,0:0:0:50:Normal-hitnormal.wav
109,192,32895,1,0,0:0:0:50:Normal-hitnormal.wav
402,192,32997,1,0,0:0:0:50:Normal-hitnormal.wav
36,192,33098,1,0,0:0:0:50:Normal-hitnormal.wav
475,192,33200,1,0,0:0:0:50:Normal-hitnormal.wav
182,192,33200,1,0,0:0:0:50:Normal-hitnormal.wav
329,192,33200,1,0,0:0:0:50:Normal-hitnormal.wav
256,192,33200,128,0,33402:0:0:0:50:Normal-hitnormal.wav
109,192,33301,1,0,0:0:0:50:Normal-hitnormal.wav
402,192,33402,1,0,0:0:0:50:Normal-hitnormal.wav
182,192,33504,1,0,0:0:0:50:Normal-hitnormal.wav
329,192,33605,1,0,0:0:0:50:Normal-hitnormal.wav
256,192,33605,1,0,0:0:0:50:Normal-hitnormal.wav
109,192,33706,1,0,0:0:0:50:Normal-hitnormal.wav
402,192,33808,1,0,0:0:0:50:Normal-hitnormal.wav
256,192,33808,1,0,0:0:0:50:Normal-hitnormal.wav
36,192,33909,1,0,0:0:0:50:Normal-hitnormal.wav
475,192,34010,1,0,0:0:0:50:Normal-hitnormal.wav
182,192,34010,1,0,0:0:0:50:Normal-hitnormal.wav
329,192,34010,1,0,0:0:0:50:Normal-hitnormal.wav
256,192,34010,128,0,34213:0:0:0:50:Normal-hitnormal.wav
109,192,34112,1,0,0:0:0:50:Normal-hitnormal.wav
402,192,34213,1,0,0:0:0:50:Normal-hitnormal.wav
182,192,34314,1,0,0:0:0:50:Normal-hitnormal.wav
329,192,34416,1,0,0:0:0:50:Normal-hitnormal.wav
109,192,34416,1,0,0:0:0:50:Normal-hitnormal.wav
36,192,34416,1,0,0:0:0:50:Normal-hitnormal.wav
402,192,34416,1,0,0:0:0:50:Normal-hitnormal.wav
475,192,34416,1,0,0:0:0:50:Normal-hitnormal.wav
256,192,34416,1,0,0:0:0:50:Normal-hitnormal.wav
182,192,34618,128,0,34720:0:0:0:50:Normal-hitnormal.wav
36,192,34821,1,0,0:0:0:50:Normal-hitnormal.wav
182,192,34821,128,0,34923:0:0:0:50:Normal-hitnormal.wav
182,192,35024,128,0,35125:0:0:0:50:Normal-hitnormal.wav
109,192,35227,1,0,0:0:0:50:Normal-hitnormal.wav
182,192,35227,128,0,35328:0:0:0:50:Normal-hitnormal.wav
182,192,35429,128,0,35531:0:0:0:50:Normal-hitnormal.wav
256,192,35632,1,0,0:0:0:50:Normal-hitnormal.wav
182,192,35632,128,0,35733:0:0:0:50:Normal-hitnormal.wav
182,192,35835,128,0,35936:0:0:0:50:Normal-hitnormal.wav
329,192,36037,1,0,0:0:0:50:Normal-hitnormal.wav
182,192,36037,128,0,36139:0:0:0:50:Normal-hitnormal.wav
182,192,36240,128,0,36341:0:0:0:50:Normal-hitnormal.wav
256,192,36443,1,0,0:0:0:50:Normal-hitnormal.wav
475,192,36443,1,0,0:0:0:50:Normal-hitnormal.wav
402,192,36443,1,0,0:0:0:50:Normal-hitnormal.wav
36,192,36443,1,0,0:0:0:50:Normal-hitnormal.wav
182,192,36443,128,0,36544:0:0:0:50:Normal-hitnormal.wav
109,192,36645,1,0,0:0:0:50:Normal-hitnormal.wav
329,192,36645,1,0,0:0:0:50:Normal-hitnormal.wav
402,192,36645,1,0,0:0:0:50:Normal-hitnormal.wav
182,192,36645,128,0,36747:0:0:0:50:Normal-hitnormal.wav
36,192,36848,1,0,0:0:0:50:Normal-hitnormal.wav
256,192,36848,1,0,0:0:0:50:Normal-hitnormal.wav
402,192,36848,1,0,0:0:0:50:Normal-hitnormal.wav
475,192,36848,1,0,0:0:0:50:Normal-hitnormal.wav
182,192,36848,128,0,36950:0:0:0:50:Normal-hitnormal.wav
109,192,37051,1,0,0:0:0:50:Normal-hitnormal.wav
256,192,37051,1,0,0:0:0:50:Normal-hitnormal.wav
329,192,37051,1,0,0:0:0:50:Normal-hitnormal.wav
475,192,37051,1,0,0:0:0:50:Normal-hitnormal.wav
182,192,37051,128,0,37152:0:0:0:50:Normal-hitnormal.wav
36,192,37254,1,0,0:0:0:50:Normal-hitnormal.wav
182,192,37254,128,0,37355:0:0:0:50:Normal-hitnormal.wav
109,192,37456,1,0,0:0:0:50:Normal-hitnormal.wav
182,192,37456,128,0,37558:0:0:0:50:Normal-hitnormal.wav
36,192,37684,1,0,0:0:0:50:Normal-hitnormal.wav
109,192,37684,1,0,0:0:0:50:Normal-hitnormal.wav
329,192,37684,1,0,0:0:0:50:Normal-hitnormal.wav
475,192,37684,1,0,0:0:0:50:Normal-hitnormal.wav
256,192,37684,1,0,0:0:0:50:Normal-hitnormal.wav
182,192,37684,1,0,0:0:0:50:Normal-hitnormal.wav
402,192,37684,128,0,37786:0:0:0:50:Normal-hitnormal.wav
402,192,37889,128,0,37992:0:0:0:50:Normal-hitnormal.wav
329,192,38094,1,0,0:0:0:50:Normal-hitnormal.wav
402,192,38094,128,0,38197:0:0:0:50:Normal-hitnormal.wav
402,192,38300,128,0,38403:0:0:0:50:Normal-hitnormal.wav
256,192,38505,1,0,0:0:0:50:Normal-hitnormal.wav
402,192,38505,128,0,38608:0:0:0:50:Normal-hitnormal.wav
402,192,38711,128,0,38814:0:0:0:50:Normal-hitnormal.wav
182,192,38916,1,0,0:0:0:50:Normal-hitnormal.wav
402,192,38916,128,0,39019:0:0:0:50:Normal-hitnormal.wav
475,192,39122,1,0,0:0:0:50:Normal-hitnormal.wav
329,192,39122,1,0,0:0:0:50:Normal-hitnormal.wav
182,192,39122,1,0,0:0:0:50:Normal-hitnormal.wav
402,192,39122,128,0,39225:0:0:0:50:Normal-hitnormal.wav
329,192,39327,1,0,0:0:0:50:Normal-hitnormal.wav
256,192,39327,1,0,0:0:0:50:Normal-hitnormal.wav
36,192,39327,1,0,0:0:0:50:Normal-hitnormal.wav
109,192,39327,1,0,0:0:0:50:Normal-hitnormal.wav
402,192,39327,128,0,39430:0:0:0:50:Normal-hitnormal.wav
256,192,39533,1,0,0:0:0:50:Normal-hitnormal.wav
182,192,39533,1,0,0:0:0:50:Normal-hitnormal.wav
109,192,39533,1,0,0:0:0:50:Normal-hitnormal.wav
402,192,39533,128,0,39636:0:0:0:50:Normal-hitnormal.wav
36,192,39738,1,0,0:0:0:50:Normal-hitnormal.wav
402,192,39738,128,0,39841:0:0:0:50:Normal-hitnormal.wav
109,192,39944,1,0,0:0:0:50:Normal-hitnormal.wav
182,192,39944,1,0,0:0:0:50:Normal-hitnormal.wav
36,192,39944,1,0,0:0:0:50:Normal-hitnormal.wav
402,192,39944,128,0,40047:0:0:0:50:Normal-hitnormal.wav
256,192,40149,1,0,0:0:0:50:Normal-hitnormal.wav
402,192,40149,128,0,40252:0:0:0:50:Normal-hitnormal.wav
182,192,40355,1,0,0:0:0:50:Normal-hitnormal.wav
329,192,40355,1,0,0:0:0:50:Normal-hitnormal.wav
475,192,40355,1,0,0:0:0:50:Normal-hitnormal.wav
109,192,40355,1,0,0:0:0:50:Normal-hitnormal.wav
402,192,40355,128,0,40457:0:0:0:50:Normal-hitnormal.wav
36,192,40560,1,0,0:0:0:50:Normal-hitnormal.wav
402,192,40560,128,0,40663:0:0:0:50:Normal-hitnormal.wav
402,192,40766,128,0,40868:0:0:0:50:Normal-hitnormal.wav
109,192,40971,1,0,0:0:0:50:Normal-hitnormal.wav
256,192,40971,1,0,0:0:0:50:Normal-hitnormal.wav
182,192,40971,1,0,0:0:0:50:Normal-hitnormal.wav
329,192,40971,1,0,0:0:0:50:Normal-hitnormal.wav
475,192,40971,1,0,0:0:0:50:Normal-hitnormal.wav
402,192,40971,1,0,0:0:0:50:Normal-hitnormal.wav
36,192,40971,128,0,41074:0:0:0:50:Normal-hitnormal.wav
36,192,41177,128,0,41279:0:0:0:50:Normal-hitnormal.wav
109,192,41382,1,0,0:0:0:50:Normal-hitnormal.wav
36,192,41382,128,0,41485:0:0:0:50:Normal-hitnormal.wav
36,192,41588,128,0,41690:0:0:0:50:Normal-hitnormal.wav
182,192,41793,1,0,0:0:0:50:Normal-hitnormal.wav
36,192,41793,128,0,41896:0:0:0:50:Normal-hitnormal.wav
36,192,41999,128,0,42101:0:0:0:50:Normal-hitnormal.wav
256,192,42204,1,0,0:0:0:50:Normal-hitnormal.wav
36,192,42204,128,0,42307:0:0:0:50:Normal-hitnormal.wav
36,192,42410,128,0,42512:0:0:0:50:Normal-hitnormal.wav
182,192,42615,1,0,0:0:0:50:Normal-hitnormal.wav
329,192,42615,1,0,0:0:0:50:Normal-hitnormal.wav
475,192,42615,1,0,0:0:0:50:Normal-hitnormal.wav
109,192,42615,1,0,0:0:0:50:Normal-hitnormal.wav
36,192,42615,128,0,42718:0:0:0:50:Normal-hitnormal.wav
182,192,42820,1,0,0:0:0:50:Normal-hitnormal.wav
256,192,42820,1,0,0:0:0:50:Normal-hitnormal.wav
329,192,42820,1,0,0:0:0:50:Normal-hitnormal.wav
36,192,42820,128,0,42923:0:0:0:50:Normal-hitnormal.wav
256,192,43026,1,0,0:0:0:50:Normal-hitnormal.wav
402,192,43026,1,0,0:0:0:50:Normal-hitnormal.wav
475,192,43026,1,0,0:0:0:50:Normal-hitnormal.wav
109,192,43026,1,0,0:0:0:50:Normal-hitnormal.wav
36,192,43026,128,0,43129:0:0:0:50:Normal-hitnormal.wav
329,192,43231,1,0,0:0:0:50:Normal-hitnormal.wav
402,192,43231,1,0,0:0:0:50:Normal-hitnormal.wav
475,192,43231,1,0,0:0:0:50:Normal-hitnormal.wav
36,192,43231,128,0,43334:0:0:0:50:Normal-hitnormal.wav
182,192,43437,1,0,0:0:0:50:Normal-hitnormal.wav
36,192,43437,128,0,43540:0:0:0:50:Normal-hitnormal.wav
402,192,43642,1,0,0:0:0:50:Normal-hitnormal.wav
256,192,43642,1,0,0:0:0:50:Normal-hitnormal.wav
109,192,43642,1,0,0:0:0:50:Normal-hitnormal.wav
36,192,43642,128,0,43745:0:0:0:50:Normal-hitnormal.wav
475,192,43848,1,0,0:0:0:50:Normal-hitnormal.wav
402,192,43848,1,0,0:0:0:50:Normal-hitnormal.wav
329,192,43848,1,0,0:0:0:50:Normal-hitnormal.wav
182,192,43848,1,0,0:0:0:50:Normal-hitnormal.wav
36,192,43848,128,0,43951:0:0:0:50:Normal-hitnormal.wav
402,192,44053,1,0,0:0:0:50:Normal-hitnormal.wav
329,192,44053,1,0,0:0:0:50:Normal-hitnormal.wav
256,192,44053,1,0,0:0:0:50:Normal-hitnormal.wav
36,192,44053,128,0,44156:0:0:0:50:Normal-hitnormal.wav
36,192,44259,1,0,0:0:0:50:Normal-hitnormal.wav
109,192,44259,1,0,0:0:0:50:Normal-hitnormal.wav
182,192,44259,1,0,0:0:0:50:Normal-hitnormal.wav
256,192,44259,1,0,0:0:0:50:Normal-hitnormal.wav
329,192,44259,1,0,0:0:0:50:Normal-hitnormal.wav
402,192,44259,1,0,0:0:0:50:Normal-hitnormal.wav
475,192,44259,128,0,44362:0:0:0:50:Normal-hitnormal.wav
475,192,44464,128,0,44567:0:0:0:50:Normal-hitnormal.wav
402,192,44670,1,0,0:0:0:50:Normal-hitnormal.wav
475,192,44670,128,0,44773:0:0:0:50:Normal-hitnormal.wav
475,192,44875,128,0,44978:0:0:0:50:Normal-hitnormal.wav
329,192,45081,1,0,0:0:0:50:Normal-hitnormal.wav
475,192,45081,128,0,45184:0:0:0:50:Normal-hitnormal.wav
475,192,45286,128,0,45389:0:0:0:50:Normal-hitnormal.wav
256,192,45492,1,0,0:0:0:50:Normal-hitnormal.wav
475,192,45492,128,0,45594:0:0:0:50:Normal-hitnormal.wav
475,192,45697,128,0,45800:0:0:0:50:Normal-hitnormal.wav
36,192,45903,1,0,0:0:0:50:Normal-hitnormal.wav
109,192,45903,1,0,0:0:0:50:Normal-hitnormal.wav
256,192,45903,1,0,0:0:0:50:Normal-hitnormal.wav
182,192,45903,1,0,0:0:0:50:Normal-hitnormal.wav
329,192,45903,1,0,0:0:0:50:Normal-hitnormal.wav
402,192,45903,1,0,0:0:0:50:Normal-hitnormal.wav
475,192,45903,128,0,46005:0:0:0:50:Normal-hitnormal.wav
475,192,46108,128,0,46211:0:0:0:50:Normal-hitnormal.wav
182,192,46314,1,0,0:0:0:50:Normal-hitnormal.wav
475,192,46314,128,0,46416:0:0:0:50:Normal-hitnormal.wav
475,192,46519,128,0,46622:0:0:0:50:Normal-hitnormal.wav
402,192,46725,128,0,46930:0:0:0:50:Normal-hitnormal.wav
475,192,46725,128,0,46930:0:0:0:50:Normal-hitnormal.wav
182,192,46725,1,0,0:0:0:50:Normal-hitnormal.wav
109,192,46725,1,0,0:0:0:50:Normal-hitnormal.wav
256,192,46930,128,0,47136:0:0:0:50:Normal-hitnormal.wav
329,192,46930,128,0,47136:0:0:0:50:Normal-hitnormal.wav
109,192,46930,1,0,0:0:0:50:Normal-hitnormal.wav
36,192,46930,1,0,0:0:0:50:Normal-hitnormal.wav
109,192,47136,128,0,47341:0:0:0:50:Normal-hitnormal.wav
182,192,47136,128,0,47341:0:0:0:50:Normal-hitnormal.wav
402,192,47136,1,0,0:0:0:50:Normal-hitnormal.wav
475,192,47136,1,0,0:0:0:50:Normal-hitnormal.wav
36,192,47136,1,0,0:0:0:50:Normal-hitnormal.wav
36,192,47341,128,0,47547:0:0:0:50:Normal-hitnormal.wav
475,192,47341,128,0,47547:0:0:0:50:Normal-hitnormal.wav
329,192,47341,1,0,0:0:0:50:Normal-hitnormal.wav
402,192,47341,1,0,0:0:0:50:Normal-hitnormal.wav
256,192,47341,1,0,0:0:0:50:Normal-hitnormal.wav
109,192,47547,1,0,0:0:0:50:Normal-hitnormal.wav
256,192,47547,1,0,0:0:0:50:Normal-hitnormal.wav
329,192,47547,1,0,0:0:0:50:Normal-hitnormal.wav
402,192,47547,1,0,0:0:0:50:Normal-hitnormal.wav
182,192,47547,128,0,47649:0:0:0:50:Normal-hitnormal.wav
182,192,47752,128,0,47855:0:0:0:50:Normal-hitnormal.wav
36,192,47957,1,0,0:0:0:50:Normal-hitnormal.wav
475,192,47957,1,0,0:0:0:50:Normal-hitnormal.wav
182,192,47957,128,0,48060:0:0:0:50:Normal-hitnormal.wav
182,192,48163,128,0,48266:0:0:0:50:Normal-hitnormal.wav
329,192,48368,1,0,0:0:0:50:Normal-hitnormal.wav
182,192,48368,128,0,48471:0:0:0:50:Normal-hitnormal.wav
182,192,48574,128,0,48677:0:0:0:50:Normal-hitnormal.wav
36,192,48779,1,0,0:0:0:50:Normal-hitnormal.wav
475,192,48779,1,0,0:0:0:50:Normal-hitnormal.wav
182,192,48779,128,0,48882:0:0:0:50:Normal-hitnormal.wav
182,192,48985,128,0,49088:0:0:0:50:Normal-hitnormal.wav
36,192,49190,1,0,0:0:0:50:Normal-hitnormal.wav
256,192,49190,1,0,0:0:0:50:Normal-hitnormal.wav
329,192,49190,1,0,0:0:0:50:Normal-hitnormal.wav
402,192,49190,1,0,0:0:0:50:Normal-hitnormal.wav
475,192,49190,1,0,0:0:0:50:Normal-hitnormal.wav
182,192,49190,128,0,49293:0:0:0:50:Normal-hitnormal.wav
182,192,49396,128,0,49499:0:0:0:50:Normal-hitnormal.wav
109,192,49601,1,0,0:0:0:50:Normal-hitnormal.wav
402,192,49601,1,0,0:0:0:50:Normal-hitnormal.wav
182,192,49601,128,0,49704:0:0:0:50:Normal-hitnormal.wav
182,192,49807,128,0,49910:0:0:0:50:Normal-hitnormal.wav
256,192,50012,1,0,0:0:0:50:Normal-hitnormal.wav
182,192,50012,128,0,50115:0:0:0:50:Normal-hitnormal.wav
182,192,50218,128,0,50320:0:0:0:50:Normal-hitnormal.wav
109,192,50423,1,0,0:0:0:50:Normal-hitnormal.wav
402,192,50423,1,0,0:0:0:50:Normal-hitnormal.wav
182,192,50423,128,0,50526:0:0:0:50:Normal-hitnormal.wav
182,192,50629,128,0,50731:0:0:0:50:Normal-hitnormal.wav
36,192,50834,1,0,0:0:0:50:Normal-hitnormal.wav
109,192,50834,1,0,0:0:0:50:Normal-hitnormal.wav
256,192,50834,1,0,0:0:0:50:Normal-hitnormal.wav
402,192,50834,1,0,0:0:0:50:Normal-hitnormal.wav
475,192,50834,1,0,0:0:0:50:Normal-hitnormal.wav
329,192,50834,128,0,50937:0:0:0:50:Normal-hitnormal.wav
329,192,51040,128,0,51142:0:0:0:50:Normal-hitnormal.wav
36,192,51245,1,0,0:0:0:50:Normal-hitnormal.wav
475,192,51245,1,0,0:0:0:50:Normal-hitnormal.wav
329,192,51245,128,0,51348:0:0:0:50:Normal-hitnormal.wav
329,192,51451,128,0,51553:0:0:0:50:Normal-hitnormal.wav
256,192,51656,1,0,0:0:0:50:Normal-hitnormal.wav
329,192,51656,128,0,51759:0:0:0:50:Normal-hitnormal.wav
329,192,51862,128,0,51964:0:0:0:50:Normal-hitnormal.wav
36,192,52067,1,0,0:0:0:50:Normal-hitnormal.wav
475,192,52067,1,0,0:0:0:50:Normal-hitnormal.wav
329,192,52067,128,0,52170:0:0:0:50:Normal-hitnormal.wav
329,192,52273,128,0,52375:0:0:0:50:Normal-hitnormal.wav
36,192,52478,1,0,0:0:0:50:Normal-hitnormal.wav
109,192,52478,1,0,0:0:0:50:Normal-hitnormal.wav
256,192,52478,1,0,0:0:0:50:Normal-hitnormal.wav
402,192,52478,1,0,0:0:0:50:Normal-hitnormal.wav
475,192,52478,1,0,0:0:0:50:Normal-hitnormal.wav
329,192,52478,128,0,52581:0:0:0:50:Normal-hitnormal.wav
329,192,52684,128,0,52786:0:0:0:50:Normal-hitnormal.wav
109,192,52889,1,0,0:0:0:50:Normal-hitnormal.wav
402,192,52889,1,0,0:0:0:50:Normal-hitnormal.wav
329,192,52889,128,0,52992:0:0:0:50:Normal-hitnormal.wav
329,192,53094,128,0,53197:0:0:0:50:Normal-hitnormal.wav
256,192,53300,1,0,0:0:0:50:Normal-hitnormal.wav
329,192,53300,128,0,53403:0:0:0:50:Normal-hitnormal.wav
329,192,53505,128,0,53608:0:0:0:50:Normal-hitnormal.wav
109,192,53711,1,0,0:0:0:50:Normal-hitnormal.wav
402,192,53711,1,0,0:0:0:50:Normal-hitnormal.wav
329,192,53711,128,0,53814:0:0:0:50:Normal-hitnormal.wav
329,192,53916,128,0,54019:0:0:0:50:Normal-hitnormal.wav
36,192,54122,1,0,0:0:0:50:Normal-hitnormal.wav
109,192,54122,1,0,0:0:0:50:Normal-hitnormal.wav
329,192,54122,1,0,0:0:0:50:Normal-hitnormal.wav
402,192,54122,1,0,0:0:0:50:Normal-hitnormal.wav
475,192,54122,1,0,0:0:0:50:Normal-hitnormal.wav
256,192,54122,128,0,54225:0:0:0:50:Normal-hitnormal.wav
256,192,54327,128,0,54430:0:0:0:50:Normal-hitnormal.wav
36,192,54533,1,0,0:0:0:50:Normal-hitnormal.wav
475,192,54533,1,0,0:0:0:50:Normal-hitnormal.wav
256,192,54533,128,0,54636:0:0:0:50:Normal-hitnormal.wav
256,192,54738,128,0,54841:0:0:0:50:Normal-hitnormal.wav
182,192,54944,1,0,0:0:0:50:Normal-hitnormal.wav
329,192,54944,1,0,0:0:0:50:Normal-hitnormal.wav
256,192,54944,128,0,55047:0:0:0:50:Normal-hitnormal.wav
256,192,55149,128,0,55252:0:0:0:50:Normal-hitnormal.wav
109,192,55355,1,0,0:0:0:50:Normal-hitnormal.wav
402,192,55355,1,0,0:0:0:50:Normal-hitnormal.wav
256,192,55355,128,0,55457:0:0:0:50:Normal-hitnormal.wav
256,192,55560,128,0,55663:0:0:0:50:Normal-hitnormal.wav
36,192,55766,1,0,0:0:0:50:Normal-hitnormal.wav
109,192,55766,1,0,0:0:0:50:Normal-hitnormal.wav
182,192,55766,1,0,0:0:0:50:Normal-hitnormal.wav
329,192,55766,1,0,0:0:0:50:Normal-hitnormal.wav
402,192,55766,1,0,0:0:0:50:Normal-hitnormal.wav
475,192,55766,1,0,0:0:0:50:Normal-hitnormal.wav
256,192,55766,128,0,55868:0:0:0:50:Normal-hitnormal.wav
256,192,55971,128,0,56074:0:0:0:50:Normal-hitnormal.wav
109,192,56177,1,0,0:0:0:50:Normal-hitnormal.wav
402,192,56177,1,0,0:0:0:50:Normal-hitnormal.wav
256,192,56177,128,0,56279:0:0:0:50:Normal-hitnormal.wav
256,192,56382,128,0,56485:0:0:0:50:Normal-hitnormal.wav
182,192,56588,1,0,0:0:0:50:Normal-hitnormal.wav
329,192,56588,1,0,0:0:0:50:Normal-hitnormal.wav
256,192,56588,128,0,56690:0:0:0:50:Normal-hitnormal.wav
256,192,56793,128,0,56896:0:0:0:50:Normal-hitnormal.wav
36,192,56999,1,0,0:0:0:50:Normal-hitnormal.wav
475,192,56999,1,0,0:0:0:50:Normal-hitnormal.wav
256,192,56999,128,0,57101:0:0:0:50:Normal-hitnormal.wav
256,192,57204,128,0,57307:0:0:0:50:Normal-hitnormal.wav
36,192,57410,1,0,0:0:0:50:Normal-hitnormal.wav
109,192,57410,1,0,0:0:0:50:Normal-hitnormal.wav
182,192,57410,1,0,0:0:0:50:Normal-hitnormal.wav
329,192,57410,1,0,0:0:0:50:Normal-hitnormal.wav
402,192,57410,1,0,0:0:0:50:Normal-hitnormal.wav
475,192,57410,1,0,0:0:0:50:Normal-hitnormal.wav
256,192,57615,1,0,0:0:0:50:Normal-hitnormal.wav
36,192,57820,1,0,0:0:0:50:Normal-hitnormal.wav
109,192,57820,1,0,0:0:0:50:Normal-hitnormal.wav
256,192,57820,1,0,0:0:0:50:Normal-hitnormal.wav
329,192,57820,1,0,0:0:0:50:Normal-hitnormal.wav
402,192,57820,1,0,0:0:0:50:Normal-hitnormal.wav
475,192,57820,1,0,0:0:0:50:Normal-hitnormal.wav
36,192,58026,1,0,0:0:0:50:Normal-hitnormal.wav
402,192,58026,1,0,0:0:0:50:Normal-hitnormal.wav
182,192,58026,1,0,0:0:0:50:Normal-hitnormal.wav
109,192,58026,1,0,0:0:0:50:Normal-hitnormal.wav
36,192,58231,1,0,0:0:0:50:Normal-hitnormal.wav
109,192,58231,1,0,0:0:0:50:Normal-hitnormal.wav
329,192,58231,1,0,0:0:0:50:Normal-hitnormal.wav
402,192,58231,1,0,0:0:0:50:Normal-hitnormal.wav
475,192,58231,1,0,0:0:0:50:Normal-hitnormal.wav
36,192,58437,1,0,0:0:0:50:Normal-hitnormal.wav
402,192,58437,1,0,0:0:0:50:Normal-hitnormal.wav
329,192,58437,1,0,0:0:0:50:Normal-hitnormal.wav
256,192,58437,1,0,0:0:0:50:Normal-hitnormal.wav
36,192,58642,1,0,0:0:0:50:Normal-hitnormal.wav
109,192,58642,1,0,0:0:0:50:Normal-hitnormal.wav
182,192,58642,1,0,0:0:0:50:Normal-hitnormal.wav
256,192,58642,1,0,0:0:0:50:Normal-hitnormal.wav
402,192,58642,1,0,0:0:0:50:Normal-hitnormal.wav
475,192,58642,1,0,0:0:0:50:Normal-hitnormal.wav
36,192,58848,1,0,0:0:0:50:Normal-hitnormal.wav
109,192,58848,1,0,0:0:0:50:Normal-hitnormal.wav
182,192,58848,1,0,0:0:0:50:Normal-hitnormal.wav
329,192,58848,1,0,0:0:0:50:Normal-hitnormal.wav
36,192,59053,1,0,0:0:0:50:Normal-hitnormal.wav
109,192,59053,1,0,0:0:0:50:Normal-hitnormal.wav
256,192,59053,1,0,0:0:0:50:Normal-hitnormal.wav
329,192,59053,1,0,0:0:0:50:Normal-hitnormal.wav
402,192,59053,1,0,0:0:0:50:Normal-hitnormal.wav
36,192,59258,1,0,0:0:0:50:Normal-hitnormal.wav
475,192,59258,1,0,0:0:0:50:Normal-hitnormal.wav
402,192,59258,1,0,0:0:0:50:Normal-hitnormal.wav
256,192,59258,1,0,0:0:0:50:Normal-hitnormal.wav
36,192,59463,1,0,0:0:0:50:Normal-hitnormal.wav
256,192,59463,1,0,0:0:0:50:Normal-hitnormal.wav
475,192,59643,1,0,0:0:0:50:Normal-hitnormal.wav
36,192,59669,1,0,0:0:0:50:Normal-hitnormal.wav
402,192,59669,1,0,0:0:0:50:Normal-hitnormal.wav
329,192,59695,1,0,0:0:0:50:Normal-hitnormal.wav
402,192,59849,1,0,0:0:0:50:Normal-hitnormal.wav
36,192,59874,1,0,0:0:0:50:Normal-hitnormal.wav
109,192,59874,1,0,0:0:0:50:Normal-hitnormal.wav
329,192,59874,1,0,0:0:0:50:Normal-hitnormal.wav
256,192,59900,1,0,0:0:0:50:Normal-hitnormal.wav
329,192,60054,1,0,0:0:0:50:Normal-hitnormal.wav
36,192,60080,1,0,0:0:0:50:Normal-hitnormal.wav
256,192,60080,1,0,0:0:0:50:Normal-hitnormal.wav
182,192,60106,1,0,0:0:0:50:Normal-hitnormal.wav
256,192,60260,1,0,0:0:0:50:Normal-hitnormal.wav
402,192,60285,1,0,0:0:0:50:Normal-hitnormal.wav
475,192,60285,1,0,0:0:0:50:Normal-hitnormal.wav
182,192,60285,1,0,0:0:0:50:Normal-hitnormal.wav
109,192,60311,1,0,0:0:0:50:Normal-hitnormal.wav
36,192,60491,1,0,0:0:0:50:Normal-hitnormal.wav
475,192,60491,1,0,0:0:0:50:Normal-hitnormal.wav
402,192,60491,1,0,0:0:0:50:Normal-hitnormal.wav
329,192,60491,1,0,0:0:0:50:Normal-hitnormal.wav
256,192,60491,1,0,0:0:0:50:Normal-hitnormal.wav
182,192,60491,1,0,0:0:0:50:Normal-hitnormal.wav
109,192,60491,1,0,0:0:0:50:Normal-hitnormal.wav
36,192,60696,1,0,0:0:0:50:Normal-hitnormal.wav
182,192,60696,1,0,0:0:0:50:Normal-hitnormal.wav
256,192,60799,1,0,0:0:0:50:Normal-hitnormal.wav
329,192,60902,1,0,0:0:0:50:Normal-hitnormal.wav
402,192,61005,1,0,0:0:0:50:Normal-hitnormal.wav
475,192,61107,1,0,0:0:0:50:Normal-hitnormal.wav
36,192,61107,1,0,0:0:0:50:Normal-hitnormal.wav
182,192,61107,1,0,0:0:0:50:Normal-hitnormal.wav
256,192,61107,1,0,0:0:0:50:Normal-hitnormal.wav
329,192,61210,1,0,0:0:0:50:Normal-hitnormal.wav
109,192,61313,1,0,0:0:0:50:Normal-hitnormal.wav
402,192,61416,1,0,0:0:0:50:Normal-hitnormal.wav
256,192,61518,1,0,0:0:0:50:Normal-hitnormal.wav
109,192,61518,1,0,0:0:0:50:Normal-hitnormal.wav
329,192,61518,1,0,0:0:0:50:Normal-hitnormal.wav
475,192,61518,1,0,0:0:0:50:Normal-hitnormal.wav
182,192,61621,1,0,0:0:0:50:Normal-hitnormal.wav
109,192,61724,1,0,0:0:0:50:Normal-hitnormal.wav
256,192,61724,1,0,0:0:0:50:Normal-hitnormal.wav
402,192,61724,1,0,0:0:0:50:Normal-hitnormal.wav
475,192,61724,1,0,0:0:0:50:Normal-hitnormal.wav
36,192,61826,1,0,0:0:0:50:Normal-hitnormal.wav
109,192,61929,1,0,0:0:0:50:Normal-hitnormal.wav
182,192,62032,1,0,0:0:0:50:Normal-hitnormal.wav
109,192,62135,1,0,0:0:0:50:Normal-hitnormal.wav
256,192,62135,1,0,0:0:0:50:Normal-hitnormal.wav
402,192,62135,1,0,0:0:0:50:Normal-hitnormal.wav
475,192,62135,1,0,0:0:0:50:Normal-hitnormal.wav
329,192,62237,1,0,0:0:0:50:Normal-hitnormal.wav
402,192,62340,1,0,0:0:0:50:Normal-hitnormal.wav
36,192,62340,1,0,0:0:0:50:Normal-hitnormal.wav
109,192,62340,1,0,0:0:0:50:Normal-hitnormal.wav
256,192,62340,1,0,0:0:0:50:Normal-hitnormal.wav
475,192,62340,128,0,62443:0:0:0:50:Normal-hitnormal.wav
329,192,62443,1,0,0:0:0:50:Normal-hitnormal.wav
256,192,62546,1,0,0:0:0:50:Normal-hitnormal.wav
402,192,62546,128,0,62648:0:0:0:50:Normal-hitnormal.wav
109,192,62648,1,0,0:0:0:50:Normal-hitnormal.wav
36,192,62751,1,0,0:0:0:50:Normal-hitnormal.wav
182,192,62751,1,0,0:0:0:50:Normal-hitnormal.wav
256,192,62751,1,0,0:0:0:50:Normal-hitnormal.wav
475,192,62751,1,0,0:0:0:50:Normal-hitnormal.wav
329,192,62751,128,0,62854:0:0:0:50:Normal-hitnormal.wav
109,192,62854,1,0,0:0:0:50:Normal-hitnormal.wav
402,192,62957,1,0,0:0:0:50:Normal-hitnormal.wav
182,192,63059,1,0,0:0:0:50:Normal-hitnormal.wav
36,192,63162,1,0,0:0:0:50:Normal-hitnormal.wav
256,192,63162,1,0,0:0:0:50:Normal-hitnormal.wav
109,192,63162,1,0,0:0:0:50:Normal-hitnormal.wav
402,192,63162,1,0,0:0:0:50:Normal-hitnormal.wav
475,192,63162,128,0,63265:0:0:0:50:Normal-hitnormal.wav
182,192,63265,1,0,0:0:0:50:Normal-hitnormal.wav
36,192,63368,1,0,0:0:0:50:Normal-hitnormal.wav
109,192,63368,1,0,0:0:0:50:Normal-hitnormal.wav
329,192,63368,1,0,0:0:0:50:Normal-hitnormal.wav
256,192,63368,1,0,0:0:0:50:Normal-hitnormal.wav
475,192,63368,128,0,63470:0:0:0:50:Normal-hitnormal.wav
402,192,63470,1,0,0:0:0:50:Normal-hitnormal.wav
256,192,63573,1,0,0:0:0:50:Normal-hitnormal.wav
109,192,63676,1,0,0:0:0:50:Normal-hitnormal.wav
36,192,63779,1,0,0:0:0:50:Normal-hitnormal.wav
182,192,63779,1,0,0:0:0:50:Normal-hitnormal.wav
329,192,63779,1,0,0:0:0:50:Normal-hitnormal.wav
402,192,63779,1,0,0:0:0:50:Normal-hitnormal.wav
475,192,63881,1,0,0:0:0:50:Normal-hitnormal.wav
329,192,63984,1,0,0:0:0:50:Normal-hitnormal.wav
109,192,63984,1,0,0:0:0:50:Normal-hitnormal.wav
256,192,63984,1,0,0:0:0:50:Normal-hitnormal.wav
402,192,63984,1,0,0:0:0:50:Normal-hitnormal.wav
36,192,63984,128,0,64087:0:0:0:50:Normal-hitnormal.wav
182,192,64087,1,0,0:0:0:50:Normal-hitnormal.wav
329,192,64189,1,0,0:0:0:50:Normal-hitnormal.wav
109,192,64189,128,0,64292:0:0:0:50:Normal-hitnormal.wav
256,192,64292,1,0,0:0:0:50:Normal-hitnormal.wav
475,192,64395,1,0,0:0:0:50:Normal-hitnormal.wav
36,192,64395,1,0,0:0:0:50:Normal-hitnormal.wav
329,192,64395,1,0,0:0:0:50:Normal-hitnormal.wav
402,192,64395,1,0,0:0:0:50:Normal-hitnormal.wav
182,192,64395,128,0,64498:0:0:0:50:Normal-hitnormal.wav
109,192,64498,1,0,0:0:0:50:Normal-hitnormal.wav
256,192,64600,1,0,0:0:0:50:Normal-hitnormal.wav
402,192,64703,1,0,0:0:0:50:Normal-hitnormal.wav
109,192,64806,1,0,0:0:0:50:Normal-hitnormal.wav
256,192,64806,1,0,0:0:0:50:Normal-hitnormal.wav
329,192,64806,1,0,0:0:0:50:Normal-hitnormal.wav
475,192,64806,1,0,0:0:0:50:Normal-hitnormal.wav
36,192,64806,128,0,64909:0:0:0:50:Normal-hitnormal.wav
402,192,64909,1,0,0:0:0:50:Normal-hitnormal.wav
182,192,65011,1,0,0:0:0:50:Normal-hitnormal.wav
256,192,65011,1,0,0:0:0:50:Normal-hitnormal.wav
329,192,65011,1,0,0:0:0:50:Normal-hitnormal.wav
475,192,65011,1,0,0:0:0:50:Normal-hitnormal.wav
36,192,65011,128,0,65114:0:0:0:50:Normal-hitnormal.wav
109,192,65114,1,0,0:0:0:50:Normal-hitnormal.wav
402,192,65217,1,0,0:0:0:50:Normal-hitnormal.wav
329,192,65320,1,0,0:0:0:50:Normal-hitnormal.wav
36,192,65422,1,0,0:0:0:50:Normal-hitnormal.wav
109,192,65422,1,0,0:0:0:50:Normal-hitnormal.wav
256,192,65422,1,0,0:0:0:50:Normal-hitnormal.wav
402,192,65422,1,0,0:0:0:50:Normal-hitnormal.wav
182,192,65525,1,0,0:0:0:50:Normal-hitnormal.wav
329,192,65628,1,0,0:0:0:50:Normal-hitnormal.wav
256,192,65628,1,0,0:0:0:50:Normal-hitnormal.wav
36,192,65628,1,0,0:0:0:50:Normal-hitnormal.wav
475,192,65628,1,0,0:0:0:50:Normal-hitnormal.wav
402,192,65628,128,0,65731:0:0:0:50:Normal-hitnormal.wav
109,192,65731,1,0,0:0:0:50:Normal-hitnormal.wav
182,192,65833,1,0,0:0:0:50:Normal-hitnormal.wav
329,192,65833,128,0,65936:0:0:0:50:Normal-hitnormal.wav
109,192,65936,1,0,0:0:0:50:Normal-hitnormal.wav
475,192,66039,1,0,0:0:0:50:Normal-hitnormal.wav
402,192,66039,1,0,0:0:0:50:Normal-hitnormal.wav
182,192,66039,1,0,0:0:0:50:Normal-hitnormal.wav
36,192,66039,1,0,0:0:0:50:Normal-hitnormal.wav
256,192,66039,128,0,66142:0:0:0:50:Normal-hitnormal.wav
109,192,66142,1,0,0:0:0:50:Normal-hitnormal.wav
329,192,66244,1,0,0:0:0:50:Normal-hitnormal.wav
36,192,66347,1,0,0:0:0:50:Normal-hitnormal.wav
256,192,66450,1,0,0:0:0:50:Normal-hitnormal.wav
182,192,66450,1,0,0:0:0:50:Normal-hitnormal.wav
109,192,66450,1,0,0:0:0:50:Normal-hitnormal.wav
475,192,66450,1,0,0:0:0:50:Normal-hitnormal.wav
402,192,66450,128,0,66553:0:0:0:50:Normal-hitnormal.wav
36,192,66553,1,0,0:0:0:50:Normal-hitnormal.wav
475,192,66655,1,0,0:0:0:50:Normal-hitnormal.wav
109,192,66655,1,0,0:0:0:50:Normal-hitnormal.wav
256,192,66655,1,0,0:0:0:50:Normal-hitnormal.wav
329,192,66655,1,0,0:0:0:50:Normal-hitnormal.wav
402,192,66655,128,0,66758:0:0:0:50:Normal-hitnormal.wav
182,192,66758,1,0,0:0:0:50:Normal-hitnormal.wav
109,192,66861,1,0,0:0:0:50:Normal-hitnormal.wav
329,192,66963,1,0,0:0:0:50:Normal-hitnormal.wav
36,192,67066,1,0,0:0:0:50:Normal-hitnormal.wav
182,192,67066,1,0,0:0:0:50:Normal-hitnormal.wav
256,192,67066,1,0,0:0:0:50:Normal-hitnormal.wav
402,192,67066,1,0,0:0:0:50:Normal-hitnormal.wav
475,192,67169,1,0,0:0:0:50:Normal-hitnormal.wav
182,192,67272,1,0,0:0:0:50:Normal-hitnormal.wav
329,192,67272,1,0,0:0:0:50:Normal-hitnormal.wav
36,192,67272,1,0,0:0:0:50:Normal-hitnormal.wav
402,192,67272,1,0,0:0:0:50:Normal-hitnormal.wav
109,192,67272,128,0,67374:0:0:0:50:Normal-hitnormal.wav
475,192,67374,1,0,0:0:0:50:Normal-hitnormal.wav
256,192,67477,1,0,0:0:0:50:Normal-hitnormal.wav
182,192,67477,128,0,67580:0:0:0:50:Normal-hitnormal.wav
402,192,67580,1,0,0:0:0:50:Normal-hitnormal.wav
109,192,67683,1,0,0:0:0:50:Normal-hitnormal.wav
329,192,67683,1,0,0:0:0:50:Normal-hitnormal.wav
36,192,67683,1,0,0:0:0:50:Normal-hitnormal.wav
475,192,67683,1,0,0:0:0:50:Normal-hitnormal.wav
256,192,67683,128,0,67785:0:0:0:50:Normal-hitnormal.wav
402,192,67785,1,0,0:0:0:50:Normal-hitnormal.wav
36,192,67888,1,0,0:0:0:50:Normal-hitnormal.wav
402,192,67991,1,0,0:0:0:50:Normal-hitnormal.wav
329,192,68094,1,0,0:0:0:50:Normal-hitnormal.wav
182,192,68094,1,0,0:0:0:50:Normal-hitnormal.wav
36,192,68094,1,0,0:0:0:50:Normal-hitnormal.wav
475,192,68094,1,0,0:0:0:50:Normal-hitnormal.wav
109,192,68094,128,0,68196:0:0:0:50:Normal-hitnormal.wav
256,192,68196,1,0,0:0:0:50:Normal-hitnormal.wav
36,192,68299,1,0,0:0:0:50:Normal-hitnormal.wav
182,192,68299,1,0,0:0:0:50:Normal-hitnormal.wav
402,192,68299,1,0,0:0:0:50:Normal-hitnormal.wav
475,192,68299,1,0,0:0:0:50:Normal-hitnormal.wav
109,192,68299,128,0,68402:0:0:0:50:Normal-hitnormal.wav
329,192,68402,1,0,0:0:0:50:Normal-hitnormal.wav
36,192,68505,1,0,0:0:0:50:Normal-hitnormal.wav
256,192,68607,1,0,0:0:0:50:Normal-hitnormal.wav
36,192,68710,1,0,0:0:0:50:Normal-hitnormal.wav
182,192,68710,1,0,0:0:0:50:Normal-hitnormal.wav
329,192,68710,1,0,0:0:0:50:Normal-hitnormal.wav
475,192,68710,1,0,0:0:0:50:Normal-hitnormal.wav
109,192,68813,1,0,0:0:0:50:Normal-hitnormal.wav
36,192,68916,1,0,0:0:0:50:Normal-hitnormal.wav
182,192,68916,1,0,0:0:0:50:Normal-hitnormal.wav
256,192,68916,1,0,0:0:0:50:Normal-hitnormal.wav
475,192,68916,1,0,0:0:0:50:Normal-hitnormal.wav
329,192,68916,128,0,69018:0:0:0:50:Normal-hitnormal.wav
109,192,69018,1,0,0:0:0:50:Normal-hitnormal.wav
402,192,69121,1,0,0:0:0:50:Normal-hitnormal.wav
256,192,69121,128,0,69224:0:0:0:50:Normal-hitnormal.wav
36,192,69224,1,0,0:0:0:50:Normal-hitnormal.wav
109,192,69326,1,0,0:0:0:50:Normal-hitnormal.wav
329,192,69326,1,0,0:0:0:50:Normal-hitnormal.wav
475,192,69326,1,0,0:0:0:50:Normal-hitnormal.wav
402,192,69326,1,0,0:0:0:50:Normal-hitnormal.wav
182,192,69326,128,0,69429:0:0:0:50:Normal-hitnormal.wav
36,192,69429,1,0,0:0:0:50:Normal-hitnormal.wav
402,192,69532,1,0,0:0:0:50:Normal-hitnormal.wav
109,192,69635,1,0,0:0:0:50:Normal-hitnormal.wav
36,192,69737,1,0,0:0:0:50:Normal-hitnormal.wav
182,192,69737,1,0,0:0:0:50:Normal-hitnormal.wav
256,192,69737,1,0,0:0:0:50:Normal-hitnormal.wav
402,192,69737,1,0,0:0:0:50:Normal-hitnormal.wav
329,192,69737,128,0,69840:0:0:0:50:Normal-hitnormal.wav
109,192,69840,1,0,0:0:0:50:Normal-hitnormal.wav
256,192,69943,1,0,0:0:0:50:Normal-hitnormal.wav
475,192,69943,1,0,0:0:0:50:Normal-hitnormal.wav
36,192,69943,1,0,0:0:0:50:Normal-hitnormal.wav
402,192,69943,1,0,0:0:0:50:Normal-hitnormal.wav
329,192,69943,128,0,70046:0:0:0:50:Normal-hitnormal.wav
182,192,70046,1,0,0:0:0:50:Normal-hitnormal.wav
475,192,70148,1,0,0:0:0:50:Normal-hitnormal.wav
109,192,70251,1,0,0:0:0:50:Normal-hitnormal.wav
329,192,70354,1,0,0:0:0:50:Normal-hitnormal.wav
182,192,70354,1,0,0:0:0:50:Normal-hitnormal.wav
36,192,70354,1,0,0:0:0:50:Normal-hitnormal.wav
402,192,70354,1,0,0:0:0:50:Normal-hitnormal.wav
109,192,70457,1,0,0:0:0:50:Normal-hitnormal.wav
402,192,70559,1,0,0:0:0:50:Normal-hitnormal.wav
256,192,70559,1,0,0:0:0:50:Normal-hitnormal.wav
36,192,70559,1,0,0:0:0:50:Normal-hitnormal.wav
475,192,70559,1,0,0:0:0:50:Normal-hitnormal.wav
182,192,70559,128,0,70662:0:0:0:50:Normal-hitnormal.wav
329,192,70662,1,0,0:0:0:50:Normal-hitnormal.wav
109,192,70765,1,0,0:0:0:50:Normal-hitnormal.wav
402,192,70765,1,0,0:0:0:50:Normal-hitnormal.wav
36,192,70765,1,0,0:0:0:50:Normal-hitnormal.wav
475,192,70765,1,0,0:0:0:50:Normal-hitnormal.wav
256,192,70765,128,0,70868:0:0:0:50:Normal-hitnormal.wav
182,192,70868,1,0,0:0:0:50:Normal-hitnormal.wav
109,192,70970,1,0,0:0:0:50:Normal-hitnormal.wav
402,192,70970,1,0,0:0:0:50:Normal-hitnormal.wav
36,192,70970,1,0,0:0:0:50:Normal-hitnormal.wav
475,192,70970,1,0,0:0:0:50:Normal-hitnormal.wav
329,192,70970,128,0,71073:0:0:0:50:Normal-hitnormal.wav
182,192,71073,1,0,0:0:0:50:Normal-hitnormal.wav
36,192,71176,1,0,0:0:0:50:Normal-hitnormal.wav
402,192,71279,1,0,0:0:0:50:Normal-hitnormal.wav
256,192,71381,1,0,0:0:0:50:Normal-hitnormal.wav
109,192,71381,1,0,0:0:0:50:Normal-hitnormal.wav
36,192,71381,1,0,0:0:0:50:Normal-hitnormal.wav
475,192,71381,1,0,0:0:0:50:Normal-hitnormal.wav
182,192,71381,128,0,71484:0:0:0:50:Normal-hitnormal.wav
329,192,71484,1,0,0:0:0:50:Normal-hitnormal.wav
36,192,71587,1,0,0:0:0:50:Normal-hitnormal.wav
256,192,71587,1,0,0:0:0:50:Normal-hitnormal.wav
475,192,71587,1,0,0:0:0:50:Normal-hitnormal.wav
402,192,71587,1,0,0:0:0:50:Normal-hitnormal.wav
182,192,71587,128,0,71689:0:0:0:50:Normal-hitnormal.wav
329,192,71689,1,0,0:0:0:50:Normal-hitnormal.wav
109,192,71792,1,0,0:0:0:50:Normal-hitnormal.wav
475,192,71895,1,0,0:0:0:50:Normal-hitnormal.wav
36,192,71998,1,0,0:0:0:50:Normal-hitnormal.wav
182,192,71998,1,0,0:0:0:50:Normal-hitnormal.wav
256,192,71998,1,0,0:0:0:50:Normal-hitnormal.wav
402,192,71998,1,0,0:0:0:50:Normal-hitnormal.wav
329,192,72100,1,0,0:0:0:50:Normal-hitnormal.wav
36,192,72203,1,0,0:0:0:50:Normal-hitnormal.wav
109,192,72203,1,0,0:0:0:50:Normal-hitnormal.wav
182,192,72203,1,0,0:0:0:50:Normal-hitnormal.wav
402,192,72203,1,0,0:0:0:50:Normal-hitnormal.wav
256,192,72203,1,0,0:0:0:50:Normal-hitnormal.wav
329,192,72203,1,0,0:0:0:50:Normal-hitnormal.wav
475,192,72203,1,0,0:0:0:50:Normal-hitnormal.wav
475,192,72357,1,0,0:0:0:50:Normal-hitnormal.wav
402,192,72409,1,0,0:0:0:50:Normal-hitnormal.wav
329,192,72460,1,0,0:0:0:50:Normal-hitnormal.wav
36,192,72614,1,0,0:0:0:50:Normal-hitnormal.wav
182,192,72614,1,0,0:0:0:50:Normal-hitnormal.wav
109,192,72614,1,0,0:0:0:50:Normal-hitnormal.wav
256,192,72614,1,0,0:0:0:50:Normal-hitnormal.wav
329,192,72614,1,0,0:0:0:50:Normal-hitnormal.wav
402,192,72614,1,0,0:0:0:50:Normal-hitnormal.wav
475,192,72614,1,0,0:0:0:50:Normal-hitnormal.wav
36,192,72768,1,0,0:0:0:50:Normal-hitnormal.wav
109,192,72820,1,0,0:0:0:50:Normal-hitnormal.wav
182,192,72871,1,0,0:0:0:50:Normal-hitnormal.wav
36,192,73025,1,0,0:0:0:50:Normal-hitnormal.wav
109,192,73025,1,0,0:0:0:50:Normal-hitnormal.wav
182,192,73025,1,0,0:0:0:50:Normal-hitnormal.wav
402,192,73025,1,0,0:0:0:50:Normal-hitnormal.wav
256,192,73025,1,0,0:0:0:50:Normal-hitnormal.wav
329,192,73025,1,0,0:0:0:50:Normal-hitnormal.wav
475,192,73025,1,0,0:0:0:50:Normal-hitnormal.wav
256,192,73128,1,0,0:0:0:50:Normal-hitnormal.wav
182,192,73231,1,0,0:0:0:50:Normal-hitnormal.wav
109,192,73231,1,0,0:0:0:50:Normal-hitnormal.wav
36,192,73231,1,0,0:0:0:50:Normal-hitnormal.wav
256,192,73231,1,0,0:0:0:50:Normal-hitnormal.wav
329,192,73231,1,0,0:0:0:50:Normal-hitnormal.wav
402,192,73231,1,0,0:0:0:50:Normal-hitnormal.wav
475,192,73231,1,0,0:0:0:50:Normal-hitnormal.wav
182,192,73436,1,0,0:0:0:50:Normal-hitnormal.wav
329,192,73436,1,0,0:0:0:50:Normal-hitnormal.wav
402,192,73642,1,0,0:0:0:50:Normal-hitnormal.wav
109,192,73642,1,0,0:0:0:50:Normal-hitnormal.wav
36,192,73642,1,0,0:0:0:50:Normal-hitnormal.wav
475,192,73642,1,0,0:0:0:50:Normal-hitnormal.wav
256,192,73744,1,0,0:0:0:50:Normal-hitnormal.wav
475,192,73847,1,0,0:0:0:50:Normal-hitnormal.wav
329,192,73847,128,0,73949:0:0:0:50:Normal-hitnormal.wav
36,192,73949,1,0,0:0:0:50:Normal-hitnormal.wav
402,192,74051,1,0,0:0:0:50:Normal-hitnormal.wav
256,192,74051,128,0,74153:0:0:0:50:Normal-hitnormal.wav
109,192,74153,1,0,0:0:0:50:Normal-hitnormal.wav
475,192,74255,1,0,0:0:0:50:Normal-hitnormal.wav
36,192,74255,1,0,0:0:0:50:Normal-hitnormal.wav
329,192,74255,1,0,0:0:0:50:Normal-hitnormal.wav
402,192,74255,1,0,0:0:0:50:Normal-hitnormal.wav
182,192,74255,128,0,74357:0:0:0:50:Normal-hitnormal.wav
109,192,74357,1,0,0:0:0:50:Normal-hitnormal.wav
256,192,74459,1,0,0:0:0:50:Normal-hitnormal.wav
475,192,74561,1,0,0:0:0:50:Normal-hitnormal.wav
109,192,74663,1,0,0:0:0:50:Normal-hitnormal.wav
256,192,74663,1,0,0:0:0:50:Normal-hitnormal.wav
402,192,74663,1,0,0:0:0:50:Normal-hitnormal.wav
36,192,74663,1,0,0:0:0:50:Normal-hitnormal.wav
329,192,74663,128,0,74765:0:0:0:50:Normal-hitnormal.wav
182,192,74765,1,0,0:0:0:50:Normal-hitnormal.wav
36,192,74867,1,0,0:0:0:50:Normal-hitnormal.wav
109,192,74867,1,0,0:0:0:50:Normal-hitnormal.wav
256,192,74867,1,0,0:0:0:50:Normal-hitnormal.wav
475,192,74867,1,0,0:0:0:50:Normal-hitnormal.wav
329,192,74867,128,0,74969:0:0:0:50:Normal-hitnormal.wav
402,192,74969,1,0,0:0:0:50:Normal-hitnormal.wav
182,192,75071,1,0,0:0:0:50:Normal-hitnormal.wav
109,192,75173,1,0,0:0:0:50:Normal-hitnormal.wav
36,192,75275,1,0,0:0:0:50:Normal-hitnormal.wav
182,192,75275,1,0,0:0:0:50:Normal-hitnormal.wav
329,192,75275,1,0,0:0:0:50:Normal-hitnormal.wav
402,192,75275,1,0,0:0:0:50:Normal-hitnormal.wav
109,192,75377,1,0,0:0:0:50:Normal-hitnormal.wav
256,192,75479,1,0,0:0:0:50:Normal-hitnormal.wav
36,192,75479,1,0,0:0:0:50:Normal-hitnormal.wav
475,192,75479,1,0,0:0:0:50:Normal-hitnormal.wav
329,192,75479,1,0,0:0:0:50:Normal-hitnormal.wav
182,192,75479,128,0,75581:0:0:0:50:Normal-hitnormal.wav
402,192,75581,1,0,0:0:0:50:Normal-hitnormal.wav
36,192,75683,1,0,0:0:0:50:Normal-hitnormal.wav
256,192,75683,128,0,75785:0:0:0:50:Normal-hitnormal.wav
475,192,75785,1,0,0:0:0:50:Normal-hitnormal.wav
109,192,75887,1,0,0:0:0:50:Normal-hitnormal.wav
182,192,75887,1,0,0:0:0:50:Normal-hitnormal.wav
36,192,75887,1,0,0:0:0:50:Normal-hitnormal.wav
402,192,75887,1,0,0:0:0:50:Normal-hitnormal.wav
329,192,75887,128,0,75989:0:0:0:50:Normal-hitnormal.wav
256,192,75989,1,0,0:0:0:50:Normal-hitnormal.wav
475,192,76091,1,0,0:0:0:50:Normal-hitnormal.wav
36,192,76193,1,0,0:0:0:50:Normal-hitnormal.wav
475,192,76295,1,0,0:0:0:50:Normal-hitnormal.wav
256,192,76295,1,0,0:0:0:50:Normal-hitnormal.wav
109,192,76295,1,0,0:0:0:50:Normal-hitnormal.wav
329,192,76295,1,0,0:0:0:50:Normal-hitnormal.wav
182,192,76295,128,0,76398:0:0:0:50:Normal-hitnormal.wav
402,192,76398,1,0,0:0:0:50:Normal-hitnormal.wav
36,192,76500,1,0,0:0:0:50:Normal-hitnormal.wav
109,192,76500,1,0,0:0:0:50:Normal-hitnormal.wav
256,192,76500,1,0,0:0:0:50:Normal-hitnormal.wav
329,192,76500,1,0,0:0:0:50:Normal-hitnormal.wav
182,192,76500,128,0,76602:0:0:0:50:Normal-hitnormal.wav
475,192,76602,1,0,0:0:0:50:Normal-hitnormal.wav
109,192,76704,1,0,0:0:0:50:Normal-hitnormal.wav
329,192,76806,1,0,0:0:0:50:Normal-hitnormal.wav
36,192,76908,1,0,0:0:0:50:Normal-hitnormal.wav
256,192,76908,1,0,0:0:0:50:Normal-hitnormal.wav
475,192,76908,1,0,0:0:0:50:Normal-hitnormal.wav
402,192,76908,1,0,0:0:0:50:Normal-hitnormal.wav
109,192,77010,1,0,0:0:0:50:Normal-hitnormal.wav
36,192,77112,1,0,0:0:0:50:Normal-hitnormal.wav
182,192,77112,1,0,0:0:0:50:Normal-hitnormal.wav
329,192,77112,1,0,0:0:0:50:Normal-hitnormal.wav
475,192,77112,1,0,0:0:0:50:Normal-hitnormal.wav
402,192,77112,128,0,77214:0:0:0:50:Normal-hitnormal.wav
256,192,77214,1,0,0:0:0:50:Normal-hitnormal.wav
109,192,77316,1,0,0:0:0:50:Normal-hitnormal.wav
329,192,77316,128,0,77418:0:0:0:50:Normal-hitnormal.wav
36,192,77418,1,0,0:0:0:50:Normal-hitnormal.wav
182,192,77520,1,0,0:0:0:50:Normal-hitnormal.wav
109,192,77520,1,0,0:0:0:50:Normal-hitnormal.wav
402,192,77520,1,0,0:0:0:50:Normal-hitnormal.wav
475,192,77520,1,0,0:0:0:50:Normal-hitnormal.wav
256,192,77520,128,0,77622:0:0:0:50:Normal-hitnormal.wav
36,192,77622,1,0,0:0:0:50:Normal-hitnormal.wav
109,192,77724,1,0,0:0:0:50:Normal-hitnormal.wav
329,192,77826,1,0,0:0:0:50:Normal-hitnormal.wav
36,192,77928,1,0,0:0:0:50:Normal-hitnormal.wav
182,192,77928,1,0,0:0:0:50:Normal-hitnormal.wav
256,192,77928,1,0,0:0:0:50:Normal-hitnormal.wav
475,192,77928,1,0,0:0:0:50:Normal-hitnormal.wav
402,192,77928,128,0,78030:0:0:0:50:Normal-hitnormal.wav
109,192,78030,1,0,0:0:0:50:Normal-hitnormal.wav
329,192,78132,1,0,0:0:0:50:Normal-hitnormal.wav
256,192,78132,1,0,0:0:0:50:Normal-hitnormal.wav
36,192,78132,1,0,0:0:0:50:Normal-hitnormal.wav
475,192,78132,1,0,0:0:0:50:Normal-hitnormal.wav
402,192,78132,128,0,78234:0:0:0:50:Normal-hitnormal.wav
182,192,78234,1,0,0:0:0:50:Normal-hitnormal.wav
36,192,78336,1,0,0:0:0:50:Normal-hitnormal.wav
109,192,78438,1,0,0:0:0:50:Normal-hitnormal.wav
256,192,78540,1,0,0:0:0:50:Normal-hitnormal.wav
182,192,78540,1,0,0:0:0:50:Normal-hitnormal.wav
475,192,78540,1,0,0:0:0:50:Normal-hitnormal.wav
329,192,78540,1,0,0:0:0:50:Normal-hitnormal.wav
402,192,78642,1,0,0:0:0:50:Normal-hitnormal.wav
36,192,78744,1,0,0:0:0:50:Normal-hitnormal.wav
182,192,78744,1,0,0:0:0:50:Normal-hitnormal.wav
256,192,78744,1,0,0:0:0:50:Normal-hitnormal.wav
329,192,78744,1,0,0:0:0:50:Normal-hitnormal.wav
109,192,78744,128,0,78847:0:0:0:50:Normal-hitnormal.wav
475,192,78847,1,0,0:0:0:50:Normal-hitnormal.wav
402,192,78949,1,0,0:0:0:50:Normal-hitnormal.wav
182,192,78949,128,0,79051:0:0:0:50:Normal-hitnormal.wav
329,192,79051,1,0,0:0:0:50:Normal-hitnormal.wav
36,192,79153,1,0,0:0:0:50:Normal-hitnormal.wav
402,192,79153,1,0,0:0:0:50:Normal-hitnormal.wav
109,192,79153,1,0,0:0:0:50:Normal-hitnormal.wav
475,192,79153,1,0,0:0:0:50:Normal-hitnormal.wav
256,192,79153,128,0,79255:0:0:0:50:Normal-hitnormal.wav
182,192,79255,1,0,0:0:0:50:Normal-hitnormal.wav
402,192,79357,1,0,0:0:0:50:Normal-hitnormal.wav
36,192,79459,1,0,0:0:0:50:Normal-hitnormal.wav
182,192,79561,1,0,0:0:0:50:Normal-hitnormal.wav
475,192,79561,1,0,0:0:0:50:Normal-hitnormal.wav
329,192,79561,1,0,0:0:0:50:Normal-hitnormal.wav
256,192,79561,1,0,0:0:0:50:Normal-hitnormal.wav
109,192,79561,128,0,79663:0:0:0:50:Normal-hitnormal.wav
402,192,79663,1,0,0:0:0:50:Normal-hitnormal.wav
329,192,79765,1,0,0:0:0:50:Normal-hitnormal.wav
182,192,79765,1,0,0:0:0:50:Normal-hitnormal.wav
36,192,79765,1,0,0:0:0:50:Normal-hitnormal.wav
475,192,79765,1,0,0:0:0:50:Normal-hitnormal.wav
109,192,79765,128,0,79867:0:0:0:50:Normal-hitnormal.wav
256,192,79867,1,0,0:0:0:50:Normal-hitnormal.wav
402,192,79969,1,0,0:0:0:50:Normal-hitnormal.wav
36,192,80071,1,0,0:0:0:50:Normal-hitnormal.wav
329,192,80173,1,0,0:0:0:50:Normal-hitnormal.wav
182,192,80173,1,0,0:0:0:50:Normal-hitnormal.wav
109,192,80173,1,0,0:0:0:50:Normal-hitnormal.wav
475,192,80173,1,0,0:0:0:50:Normal-hitnormal.wav
36,192,80275,1,0,0:0:0:50:Normal-hitnormal.wav
329,192,80377,1,0,0:0:0:50:Normal-hitnormal.wav
182,192,80377,1,0,0:0:0:50:Normal-hitnormal.wav
109,192,80377,1,0,0:0:0:50:Normal-hitnormal.wav
402,192,80377,1,0,0:0:0:50:Normal-hitnormal.wav
475,192,80377,128,0,80479:0:0:0:50:Normal-hitnormal.wav
256,192,80479,1,0,0:0:0:50:Normal-hitnormal.wav
36,192,80581,1,0,0:0:0:50:Normal-hitnormal.wav
402,192,80581,128,0,80683:0:0:0:50:Normal-hitnormal.wav
182,192,80683,1,0,0:0:0:50:Normal-hitnormal.wav
109,192,80785,1,0,0:0:0:50:Normal-hitnormal.wav
256,192,80785,1,0,0:0:0:50:Normal-hitnormal.wav
36,192,80785,1,0,0:0:0:50:Normal-hitnormal.wav
475,192,80785,1,0,0:0:0:50:Normal-hitnormal.wav
329,192,80785,128,0,80887:0:0:0:50:Normal-hitnormal.wav
182,192,80887,1,0,0:0:0:50:Normal-hitnormal.wav
402,192,80989,1,0,0:0:0:50:Normal-hitnormal.wav
109,192,81091,1,0,0:0:0:50:Normal-hitnormal.wav
329,192,81193,1,0,0:0:0:50:Normal-hitnormal.wav
182,192,81193,1,0,0:0:0:50:Normal-hitnormal.wav
36,192,81193,1,0,0:0:0:50:Normal-hitnormal.wav
402,192,81193,1,0,0:0:0:50:Normal-hitnormal.wav
475,192,81193,128,0,81295:0:0:0:50:Normal-hitnormal.wav
109,192,81295,1,0,0:0:0:50:Normal-hitnormal.wav
36,192,81398,1,0,0:0:0:50:Normal-hitnormal.wav
182,192,81398,1,0,0:0:0:50:Normal-hitnormal.wav
256,192,81398,1,0,0:0:0:50:Normal-hitnormal.wav
402,192,81398,1,0,0:0:0:50:Normal-hitnormal.wav
475,192,81398,128,0,81500:0:0:0:50:Normal-hitnormal.wav
329,192,81500,1,0,0:0:0:50:Normal-hitnormal.wav
109,192,81602,1,0,0:0:0:50:Normal-hitnormal.wav
256,192,81704,1,0,0:0:0:50:Normal-hitnormal.wav
36,192,81806,1,0,0:0:0:50:Normal-hitnormal.wav
182,192,81806,1,0,0:0:0:50:Normal-hitnormal.wav
329,192,81806,1,0,0:0:0:50:Normal-hitnormal.wav
475,192,81806,1,0,0:0:0:50:Normal-hitnormal.wav
256,192,81908,1,0,0:0:0:50:Normal-hitnormal.wav
182,192,82035,1,0,0:0:0:50:Normal-hitnormal.wav
402,192,82035,1,0,0:0:0:50:Normal-hitnormal.wav
475,192,82035,1,0,0:0:0:50:Normal-hitnormal.wav
109,192,82035,1,0,0:0:0:50:Normal-hitnormal.wav
36,192,82035,128,0,82139:0:0:0:50:Normal-hitnormal.wav
329,192,82139,1,0,0:0:0:50:Normal-hitnormal.wav
182,192,82243,1,0,0:0:0:50:Normal-hitnormal.wav
109,192,82243,128,0,82347:0:0:0:50:Normal-hitnormal.wav
402,192,82347,1,0,0:0:0:50:Normal-hitnormal.wav
256,192,82451,1,0,0:0:0:50:Normal-hitnormal.wav
36,192,82451,1,0,0:0:0:50:Normal-hitnormal.wav
329,192,82451,1,0,0:0:0:50:Normal-hitnormal.wav
475,192,82451,1,0,0:0:0:50:Normal-hitnormal.wav
182,192,82451,128,0,82555:0:0:0:50:Normal-hitnormal.wav
402,192,82555,1,0,0:0:0:50:Normal-hitnormal.wav
329,192,82660,1,0,0:0:0:50:Normal-hitnormal.wav
182,192,82764,1,0,0:0:0:50:Normal-hitnormal.wav
402,192,82868,1,0,0:0:0:50:Normal-hitnormal.wav
475,192,82868,1,0,0:0:0:50:Normal-hitnormal.wav
109,192,82868,1,0,0:0:0:50:Normal-hitnormal.wav
329,192,82868,1,0,0:0:0:50:Normal-hitnormal.wav
36,192,82868,128,0,82972:0:0:0:50:Normal-hitnormal.wav
256,192,82972,1,0,0:0:0:50:Normal-hitnormal.wav
109,192,83076,1,0,0:0:0:50:Normal-hitnormal.wav
182,192,83076,1,0,0:0:0:50:Normal-hitnormal.wav
329,192,83076,1,0,0:0:0:50:Normal-hitnormal.wav
475,192,83076,1,0,0:0:0:50:Normal-hitnormal.wav
36,192,83076,128,0,83180:0:0:0:50:Normal-hitnormal.wav
402,192,83180,1,0,0:0:0:50:Normal-hitnormal.wav
256,192,83285,1,0,0:0:0:50:Normal-hitnormal.wav
109,192,83389,1,0,0:0:0:50:Normal-hitnormal.wav
36,192,83493,1,0,0:0:0:50:Normal-hitnormal.wav
329,192,83493,1,0,0:0:0:50:Normal-hitnormal.wav
182,192,83493,1,0,0:0:0:50:Normal-hitnormal.wav
475,192,83493,1,0,0:0:0:50:Normal-hitnormal.wav
402,192,83597,1,0,0:0:0:50:Normal-hitnormal.wav
36,192,83701,1,0,0:0:0:50:Normal-hitnormal.wav
182,192,83701,1,0,0:0:0:50:Normal-hitnormal.wav
329,192,83701,1,0,0:0:0:50:Normal-hitnormal.wav
475,192,83701,1,0,0:0:0:50:Normal-hitnormal.wav
256,192,83701,128,0,83805:0:0:0:50:Normal-hitnormal.wav
109,192,83805,1,0,0:0:0:50:Normal-hitnormal.wav
402,192,83910,1,0,0:0:0:50:Normal-hitnormal.wav
182,192,83910,128,0,84014:0:0:0:50:Normal-hitnormal.wav
36,192,84014,1,0,0:0:0:50:Normal-hitnormal.wav
475,192,84118,1,0,0:0:0:50:Normal-hitnormal.wav
109,192,84118,1,0,0:0:0:50:Normal-hitnormal.wav
402,192,84118,1,0,0:0:0:50:Normal-hitnormal.wav
256,192,84118,1,0,0:0:0:50:Normal-hitnormal.wav
329,192,84118,128,0,84222:0:0:0:50:Normal-hitnormal.wav
182,192,84222,1,0,0:0:0:50:Normal-hitnormal.wav
36,192,84326,1,0,0:0:0:50:Normal-hitnormal.wav
475,192,84430,1,0,0:0:0:50:Normal-hitnormal.wav
109,192,84535,1,0,0:0:0:50:Normal-hitnormal.wav
182,192,84535,1,0,0:0:0:50:Normal-hitnormal.wav
329,192,84535,1,0,0:0:0:50:Normal-hitnormal.wav
402,192,84535,1,0,0:0:0:50:Normal-hitnormal.wav
256,192,84535,128,0,84639:0:0:0:50:Normal-hitnormal.wav
36,192,84639,1,0,0:0:0:50:Normal-hitnormal.wav
402,192,84743,1,0,0:0:0:50:Normal-hitnormal.wav
182,192,84743,1,0,0:0:0:50:Normal-hitnormal.wav
109,192,84743,1,0,0:0:0:50:Normal-hitnormal.wav
475,192,84743,1,0,0:0:0:50:Normal-hitnormal.wav
256,192,84743,128,0,84847:0:0:0:50:Normal-hitnormal.wav
36,192,84847,1,0,0:0:0:50:Normal-hitnormal.wav
329,192,84951,1,0,0:0:0:50:Normal-hitnormal.wav
109,192,85055,1,0,0:0:0:50:Normal-hitnormal.wav
36,192,85160,1,0,0:0:0:50:Normal-hitnormal.wav
256,192,85160,1,0,0:0:0:50:Normal-hitnormal.wav
475,192,85160,1,0,0:0:0:50:Normal-hitnormal.wav
402,192,85160,1,0,0:0:0:50:Normal-hitnormal.wav
109,192,85264,1,0,0:0:0:50:Normal-hitnormal.wav
36,192,85368,1,0,0:0:0:50:Normal-hitnormal.wav
182,192,85368,1,0,0:0:0:50:Normal-hitnormal.wav
402,192,85368,1,0,0:0:0:50:Normal-hitnormal.wav
329,192,85368,1,0,0:0:0:50:Normal-hitnormal.wav
256,192,85368,128,0,85472:0:0:0:50:Normal-hitnormal.wav
475,192,85472,1,0,0:0:0:50:Normal-hitnormal.wav
109,192,85576,1,0,0:0:0:50:Normal-hitnormal.wav
329,192,85576,128,0,85680:0:0:0:50:Normal-hitnormal.wav
402,192,85680,1,0,0:0:0:50:Normal-hitnormal.wav
36,192,85785,1,0,0:0:0:50:Normal-hitnormal.wav
475,192,85785,1,0,0:0:0:50:Normal-hitnormal.wav
256,192,85785,1,0,0:0:0:50:Normal-hitnormal.wav
109,192,85785,1,0,0:0:0:50:Normal-hitnormal.wav
182,192,85785,128,0,85889:0:0:0:50:Normal-hitnormal.wav
329,192,85889,1,0,0:0:0:50:Normal-hitnormal.wav
109,192,85993,1,0,0:0:0:50:Normal-hitnormal.wav
475,192,86097,1,0,0:0:0:50:Normal-hitnormal.wav
36,192,86201,1,0,0:0:0:50:Normal-hitnormal.wav
329,192,86201,1,0,0:0:0:50:Normal-hitnormal.wav
402,192,86201,1,0,0:0:0:50:Normal-hitnormal.wav
182,192,86201,1,0,0:0:0:50:Normal-hitnormal.wav
256,192,86201,128,0,86305:0:0:0:50:Normal-hitnormal.wav
109,192,86305,1,0,0:0:0:50:Normal-hitnormal.wav
329,192,86410,1,0,0:0:0:50:Normal-hitnormal.wav
182,192,86410,1,0,0:0:0:50:Normal-hitnormal.wav
36,192,86410,1,0,0:0:0:50:Normal-hitnormal.wav
475,192,86410,1,0,0:0:0:50:Normal-hitnormal.wav
256,192,86410,128,0,86514:0:0:0:50:Normal-hitnormal.wav
402,192,86514,1,0,0:0:0:50:Normal-hitnormal.wav
109,192,86618,1,0,0:0:0:50:Normal-hitnormal.wav
475,192,86722,1,0,0:0:0:50:Normal-hitnormal.wav
36,192,86826,1,0,0:0:0:50:Normal-hitnormal.wav
182,192,86826,1,0,0:0:0:50:Normal-hitnormal.wav
256,192,86826,1,0,0:0:0:50:Normal-hitnormal.wav
329,192,86826,1,0,0:0:0:50:Normal-hitnormal.wav
475,192,86930,1,0,0:0:0:50:Normal-hitnormal.wav
36,192,87035,1,0,0:0:0:50:Normal-hitnormal.wav
109,192,87035,1,0,0:0:0:50:Normal-hitnormal.wav
329,192,87035,1,0,0:0:0:50:Normal-hitnormal.wav
402,192,87035,1,0,0:0:0:50:Normal-hitnormal.wav
182,192,87035,128,0,87140:0:0:0:50:Normal-hitnormal.wav
475,192,87140,1,0,0:0:0:50:Normal-hitnormal.wav
256,192,87246,1,0,0:0:0:50:Normal-hitnormal.wav
109,192,87246,128,0,87351:0:0:0:50:Normal-hitnormal.wav
402,192,87351,1,0,0:0:0:50:Normal-hitnormal.wav
182,192,87457,1,0,0:0:0:50:Normal-hitnormal.wav
256,192,87457,1,0,0:0:0:50:Normal-hitnormal.wav
475,192,87457,1,0,0:0:0:50:Normal-hitnormal.wav
329,192,87457,1,0,0:0:0:50:Normal-hitnormal.wav
36,192,87457,128,0,87563:0:0:0:50:Normal-hitnormal.wav
109,192,87563,1,0,0:0:0:50:Normal-hitnormal.wav
402,192,87668,1,0,0:0:0:50:Normal-hitnormal.wav
109,192,87774,1,0,0:0:0:50:Normal-hitnormal.wav
36,192,87880,1,0,0:0:0:50:Normal-hitnormal.wav
256,192,87880,1,0,0:0:0:50:Normal-hitnormal.wav
329,192,87880,1,0,0:0:0:50:Normal-hitnormal.wav
402,192,87880,1,0,0:0:0:50:Normal-hitnormal.wav
182,192,87880,128,0,87985:0:0:0:50:Normal-hitnormal.wav
475,192,87985,1,0,0:0:0:50:Normal-hitnormal.wav
256,192,88091,1,0,0:0:0:50:Normal-hitnormal.wav
109,192,88091,1,0,0:0:0:50:Normal-hitnormal.wav
36,192,88091,1,0,0:0:0:50:Normal-hitnormal.wav
402,192,88091,1,0,0:0:0:50:Normal-hitnormal.wav
182,192,88091,128,0,88196:0:0:0:50:Normal-hitnormal.wav
329,192,88196,1,0,0:0:0:50:Normal-hitnormal.wav
36,192,88302,1,0,0:0:0:50:Normal-hitnormal.wav
475,192,88408,1,0,0:0:0:50:Normal-hitnormal.wav
36,192,88513,1,0,0:0:0:50:Normal-hitnormal.wav
182,192,88513,1,0,0:0:0:50:Normal-hitnormal.wav
256,192,88513,1,0,0:0:0:50:Normal-hitnormal.wav
402,192,88513,1,0,0:0:0:50:Normal-hitnormal.wav
109,192,88619,1,0,0:0:0:50:Normal-hitnormal.wav
36,192,88725,1,0,0:0:0:50:Normal-hitnormal.wav
182,192,88725,1,0,0:0:0:50:Normal-hitnormal.wav
329,192,88725,1,0,0:0:0:50:Normal-hitnormal.wav
475,192,88725,1,0,0:0:0:50:Normal-hitnormal.wav
182,192,89992,1,0,0:0:0:50:Normal-hitnormal.wav
329,192,89992,1,0,0:0:0:50:Normal-hitnormal.wav
36,192,90415,128,0,92367:0:0:0:50:Normal-hitnormal.wav
109,192,90415,128,0,91750:0:0:0:50:Normal-hitnormal.wav
182,192,90415,128,0,91134:0:0:0:50:Normal-hitnormal.wav
256,192,90415,128,0,93702:0:0:0:50:Normal-hitnormal.wav
329,192,90415,128,0,90723:0:0:0:50:Normal-hitnormal.wav
402,192,90415,128,0,91545:0:0:0:50:Normal-hitnormal.wav
475,192,90415,128,0,91956:0:0:0:50:Normal-hitnormal.wav
329,192,90825,128,0,93188:0:0:0:50:Normal-hitnormal.wav
182,192,91236,128,0,93394:0:0:0:50:Normal-hitnormal.wav
402,192,91647,128,0,92778:0:0:0:50:Normal-hitnormal.wav
109,192,91853,128,0,92983:0:0:0:50:Normal-hitnormal.wav
475,192,92058,128,0,93702:0:0:0:50:Normal-hitnormal.wav
36,192,92469,128,0,93702:0:0:0:50:Normal-hitnormal.wav
402,192,92880,128,0,93702:0:0:0:50:Normal-hitnormal.wav
109,192,93086,128,0,93702:0:0:0:50:Normal-hitnormal.wav
329,192,93291,128,0,93702:0:0:0:50:Normal-hitnormal.wav
182,192,93497,128,0,93702:0:0:0:50:Normal-hitnormal.wav
