osu file format v14

[General]
AudioFilename: audio.mp3
AudioLeadIn: 0
PreviewTime: 56193
Countdown: 0
SampleSet: Normal
StackLeniency: 0.2
Mode: 0
LetterboxInBreaks: 0
WidescreenStoryboard: 0

[Editor]
DistanceSpacing: 1.5
BeatDivisor: 8
GridSize: 16
TimelineZoom: 2.4

[Metadata]
Title:hitorigoto
TitleUnicode:ヒトリゴト
Artist:Coni
ArtistUnicode:Coni
Creator:key_sugisaki
Version:Soliloquy
Source:Coni
Tags:Coni
BeatmapID:1378109
BeatmapSetID:650333

[Difficulty]
HPDrainRate:4
CircleSize:3.6
OverallDifficulty:6.2
ApproachRate:9.3
SliderMultiplier:2
SliderTickRate:1

[Events]
//Background and Video events
0,0,"Conieromanga.png",0,0
//Break Periods
//Storyboard Layer 0 (Background)
//Storyboard Layer 1 (Fail)
//Storyboard Layer 2 (Pass)
//Storyboard Layer 3 (Foreground)
//Storyboard Sound Samples

[TimingPoints]
1,-66.6666666666667,4,1,0,25,0,0
2375,363.636363636364,4,1,0,30,1,0
14738,-100,4,2,0,40,0,0
25647,-133.333333333333,4,1,0,25,0,0
37556,-200,4,1,0,25,0,0
43102,-133.333333333333,4,1,0,25,0,0
45647,-66.6666666666667,4,1,0,25,0,0
46011,-133.333333333333,4,1,0,25,0,0
48556,-66.6666666666667,4,1,0,25,0,0
48920,-133.333333333333,4,1,0,25,0,0

[HitObjects]
416,64,2375,5,0,0:0:0:0:
336,160,2556,1,0,0:0:0:0:
240,96,2738,2,0,L|208:208,1,100
304,208,3041,2,0,P|256:288|112:320,1,233.333333333333
256,192,3708,6,0,P|192:176|112:112,1,166.666666666667
112,112,4071,1,0,0:0:0:0:
112,112,4132,2,0,L|128:224,1,100
240,176,4435,2,0,P|176:160|80:96,1,166.666666666667
160,128,4799,2,0,L|240:16,1,133.333333333333
352,112,5344,5,0,0:0:0:0:
416,224,5525,1,0,0:0:0:0:
256,192,5707,1,0,0:0:0:0:
304,320,5890,2,0,P|256:272|240:240,1,100
112,192,6253,1,0,0:0:0:0:
224,112,6435,1,0,0:0:0:0:
256,192,6616,1,0,0:0:0:0:
272,112,6738,5,0,0:0:0:0:
272,112,6829,2,0,P|336:96|400:112,1,100
240,272,7102,2,0,L|384:272,1,133.333333333333
192,144,7465,1,0,0:0:0:0:
192,144,7526,2,0,P|240:112|288:112,2,100
96,128,8193,5,0,0:0:0:0:
96,128,8374,1,0,0:0:0:0:
128,160,8465,2,0,P|192:208|288:192,1,150
304,224,8829,2,0,P|256:272|160:304,1,150
180,301,9193,1,0,0:0:0:0:
180,301,9284,2,0,P|176:224|144:176,1,100
160,176,9526,1,0,0:0:0:0:
256,128,9647,1,0,0:0:0:0:
384,224,9829,1,0,0:0:0:0:
384,272,9920,6,0,L|240:272,1,125
160,256,10284,2,0,L|160:112,1,125
160,64,10617,2,0,L|272:64,1,100
416,176,11102,5,0,0:0:0:0:
336,96,11284,1,0,0:0:0:0:
224,80,11465,1,0,0:0:0:0:
112,112,11647,1,0,0:0:0:0:
48,208,11829,1,0,0:0:0:0:
80,320,12011,1,0,0:0:0:0:
176,368,12193,6,0,L|256:288,1,100
224,240,12465,1,0,0:0:0:0:
240,192,12556,2,0,L|320:112,1,100
416,128,12920,2,0,L|432:256,1,100
320,256,13284,1,0,0:0:0:0:
208,288,13465,1,0,0:0:0:0:
112,256,13647,1,0,0:0:0:0:
176,160,13829,6,0,B|224:80|224:80|336:112|336:112|288:208|288:208|416:208,1,400
370,208,14738,1,0,0:0:0:0:
352,304,14920,5,0,0:0:0:0:
256,160,15102,1,0,0:0:0:0:
208,224,15284,2,0,L|80:240,1,100
128,144,15647,2,0,L|240:128,1,100
320,208,16011,2,0,L|384:128,1,100
480,192,16375,2,0,P|368:288|288:288,1,200
224,128,17284,6,0,P|176:192|176:224,1,100
176,112,17647,1,0,0:0:0:0:
192,272,17829,1,0,0:0:0:0:
352,240,18011,1,0,0:0:0:0:
304,96,18193,6,0,L|192:144,1,100
160,272,18556,2,0,L|288:256,1,100
384,256,18920,2,0,L|384:128,1,100
240,160,19284,2,0,L|240:48,1,100
352,48,19648,1,0,0:0:0:0:
352,48,19739,1,8,0:0:0:0:
352,48,19829,2,0,P|304:96|288:128,1,100,4|0,0:0|0:0,0:0:0:0:
288,256,20193,6,0,L|176:256,1,100
208,144,20556,1,0,0:0:0:0:
320,112,20738,1,0,0:0:0:0:
320,224,20920,1,0,0:0:0:0:
192,224,21102,2,0,L|128:144,1,100
224,96,21465,2,0,L|304:192,1,100
416,192,21829,1,0,0:0:0:0:
416,192,22011,1,0,0:0:0:0:
304,240,22193,1,0,0:0:0:0:
304,240,22284,1,0,0:0:0:0:
304,240,22375,2,0,L|224:176,1,100
128,224,23102,6,0,L|128:80,1,100
256,112,23465,1,0,0:0:0:0:
256,240,23647,1,0,0:0:0:0:
384,240,23829,1,0,0:0:0:0:
400,128,24011,2,0,L|304:185,1,100
352,288,24375,2,0,L|448:224,1,100
400,128,24738,1,0,0:0:0:0:
336,32,24920,1,0,0:0:0:0:
288,32,25011,1,0,0:0:0:0:
240,64,25102,2,0,P|256:160|192:240,1,200
320,112,25693,5,0,0:0:0:0:
320,112,25738,2,0,P|336:192|272:272,1,187.500007152558
274,270,26193,2,0,P|320:224|432:224,1,150.000005722046
401,212,26556,2,0,P|368:160|256:144,1,150.000005722046
286,135,26920,2,0,P|224:208|160:224,1,150.000005722046
174,223,27284,2,0,P|160:128|128:80,1,150.000005722046
131,84,27647,2,0,P|240:96|272:144,1,150.000005722046
262,122,28011,2,0,P|240:192|304:272,1,150.000005722046
368,144,28556,5,0,0:0:0:0:
240,144,28738,2,0,L|208:48,1,75.0000028610231
128,176,29102,2,0,L|192:304,1,112.500004291535
178,276,29465,1,0,0:0:0:0:
178,276,29511,1,0,0:0:0:0:
178,276,29556,1,0,0:0:0:0:
178,276,29647,2,0,L|272:272,1,75.0000028610231
384,176,30011,5,0,0:0:0:0:
112,128,30193,1,0,0:0:0:0:
288,96,30556,6,0,L|256:192,1,75.0000028610231
256,192,30829,1,0,0:0:0:0:
208,320,31011,1,0,0:0:0:0:
176,304,31102,1,0,0:0:0:0:
160,272,31193,2,0,L|128:208,1,56.2500021457673
320,112,31647,6,0,P|336:192|272:272,1,187.500007152558
274,270,32102,2,0,P|320:224|432:224,1,150.000005722046
401,212,32465,2,0,P|368:160|256:144,1,150.000005722046
286,135,32829,2,0,P|224:208|160:224,1,150.000005722046
174,223,33193,2,0,P|160:128|128:80,1,150.000005722046
131,84,33556,2,0,P|240:96|272:144,1,150.000005722046
262,122,33920,2,0,P|240:192|304:272,1,150.000005722046
416,272,34465,5,0,0:0:0:0:
288,208,34602,1,0,0:0:0:0:
192,304,34784,1,8,0:0:0:0:
128,320,34920,1,0,0:0:0:0:
96,176,35102,1,0,0:0:0:0:
224,128,35284,1,0,0:0:0:0:
352,64,35465,2,0,L|368:160,1,75.0000028610231
352,288,35784,1,0,0:0:0:0:
352,288,35920,2,0,L|272:256,1,75.0000028610231
282,260,36193,2,0,P|192:256|144:208,1,150.000005722046
160,160,36647,5,0,0:0:0:0:
288,160,36784,1,0,0:0:0:0:
288,288,37011,2,0,L|176:288,1,112.500004291535
160,176,37556,6,0,L|240:176,1,75
240,176,37829,2,0,B|256:112|256:112|288:96,1,100
304,96,38193,2,0,B|320:160|320:160|352:176,1,100
350,175,38556,2,0,B|336:224|336:224|288:240,1,100
160,192,39102,2,0,P|176:128|144:64,1,125
224,48,39647,1,0,0:0:0:0:
224,48,39693,1,0,0:0:0:0:
224,48,39738,1,0,0:0:0:0:
224,48,39829,2,0,L|256:192,1,125
336,192,40375,2,0,L|336:144,1,25
336,96,40556,2,0,L|224:96,1,100
236,96,40920,2,0,L|172:94,1,50
186,94,41193,1,0,0:0:0:0:
186,94,41284,1,0,0:0:0:0:
128,208,41465,6,0,L|288:208,2,150
224,176,43102,5,0,0:0:0:0:
336,96,43284,1,0,0:0:0:0:
288,256,43465,2,0,L|240:176,1,75.0000028610231
128,128,43829,5,0,0:0:0:0:
272,48,44011,1,0,0:0:0:0:
256,192,44193,2,0,L|320:272,1,75.0000028610231
128,288,44556,5,0,0:0:0:0:
176,144,44738,1,0,0:0:0:0:
224,288,44920,1,0,0:0:0:0:
256,160,45102,1,0,0:0:0:0:
288,208,45193,1,0,0:0:0:0:
320,256,45284,2,0,L|224:288,1,75.0000028610231
256,176,45693,2,0,P|245:103|160:64,1,150.000005722046
416,64,46238,5,0,0:0:0:0:
336,144,46420,2,0,L|272:80,1,75.0000028610231
192,160,46784,1,0,0:0:0:0:
288,224,46965,5,0,0:0:0:0:
400,208,47102,2,0,L|400:112,1,75.0000028610231
288,128,47465,1,0,0:0:0:0:
288,240,47647,5,0,0:0:0:0:
192,176,47829,1,0,0:0:0:0:
192,176,48011,1,0,0:0:0:0:
224,128,48102,1,0,0:0:0:0:
256,80,48193,1,0,0:0:0:0:
336,144,48375,1,0,0:0:0:0:
336,256,48647,2,0,B|256:144|192:192,1,150.000005722046
208,80,49102,5,0,0:0:0:0:
320,96,49284,2,0,L|384:32,1,75.0000028610231
448,128,49647,2,0,L|448:224,1,75.0000028610231
352,192,50011,1,0,0:0:0:0:
240,192,50193,2,0,L|240:112,1,75.0000028610231
128,112,50556,1,0,0:0:0:0:
128,112,50647,1,0,0:0:0:0:
128,112,50738,2,0,L|128:208,1,75.0000028610231
240,192,51102,1,0,0:0:0:0:
288,96,51284,1,0,0:0:0:0:
400,64,51465,1,0,0:0:0:0:
400,176,51647,6,0,L|240:192,1,150.000005722046
256,320,52193,1,0,0:0:0:0:
256,64,52375,2,0,B|96:64|96:64,1,150.000005722046
288,208,52920,5,0,0:0:0:0:
224,176,53102,2,0,L|160:256,1,75.0000028610231
304,272,53466,2,0,L|352:208,1,75.0000028610231
160,128,53829,2,0,L|96:208,1,75.0000028610231
368,288,54193,2,0,P|416:240|416:160,1,150.000005722046
256,128,54738,5,0,0:0:0:0:
256,128,54829,1,0,0:0:0:0:
256,128,54920,2,0,L|208:208,1,75.0000028610231
80,288,55284,2,0,L|80:128,1,150.000005722046
