osu file format v14

[General]
AudioFilename: audio.mp3
AudioLeadIn: 0
PreviewTime: -1
Countdown: 0
SampleSet: Soft
StackLeniency: 0.7
Mode: 3
LetterboxInBreaks: 0
SpecialStyle: 0
WidescreenStoryboard: 0

[Editor]
DistanceSpacing: 0.8
BeatDivisor: 4
GridSize: 32
TimelineZoom: 1.1

[Metadata]
Title:Mines (Cloth)
TitleUnicode:Mines (Cloth)
Artist:ConcernedApe
ArtistUnicode:ConcernedApe
Creator:Adiopulse
Version:Normal
Source:Stardew Valley
Tags:
BeatmapID:1694465
BeatmapSetID:807353

[Difficulty]
HPDrainRate:8
CircleSize:5
OverallDifficulty:8
ApproachRate:5
SliderMultiplier:1.4
SliderTickRate:1

[Events]
//Background and Video events
0,0,"entrace-in-the-glowing-mine-23951-1920x1080.jpg",0,0
//Break Periods
//Storyboard Layer 0 (Background)
//Storyboard Layer 1 (Fail)
//Storyboard Layer 2 (Pass)
//Storyboard Layer 3 (Foreground)
//Storyboard Layer 4 (Overlay)
//Storyboard Sound Samples

[TimingPoints]
510,631.578947368421,4,2,0,15,1,0

[HitObjects]
64,192,510,5,0,0:0:0:0:
256,192,510,1,0,0:0:0:0:
153,192,510,1,0,0:0:0:0:
448,192,3036,1,0,0:0:0:0:
358,192,3036,1,0,0:0:0:0:
153,192,3036,1,0,0:0:0:0:
256,192,4931,1,0,0:0:0:0:
109,192,5562,1,0,0:0:0:0:
460,192,5562,1,0,0:0:0:0:
51,192,5562,1,0,0:0:0:0:
358,192,8088,1,0,0:0:0:0:
51,192,8088,1,0,0:0:0:0:
460,192,10023,1,0,0:0:0:0:
64,192,10615,5,0,0:0:0:0:
256,192,10615,1,0,0:0:0:0:
153,192,10615,1,0,0:0:0:0:
358,192,13141,1,0,0:0:0:0:
448,192,13141,1,0,0:0:0:0:
153,192,13141,1,0,0:0:0:0:
51,192,15667,1,0,0:0:0:0:
460,192,15667,1,0,0:0:0:0:
256,192,15667,1,0,0:0:0:0:
256,192,18194,1,0,0:0:0:0:
460,192,18194,1,0,0:0:0:0:
460,192,20088,1,0,0:0:0:0:
36,192,20720,1,0,0:0:0:0:
358,192,20720,1,0,0:0:0:0:
153,192,20720,1,0,0:0:0:0:
460,192,21983,128,0,22931:0:0:0:0:
256,192,22931,1,0,0:0:0:0:
36,192,23246,1,0,0:0:0:0:
358,192,23246,1,0,0:0:0:0:
153,192,23246,128,0,24510:0:0:0:0:
51,192,24510,128,0,25773:0:0:0:0:
460,192,25141,1,0,0:0:0:0:
358,192,25773,1,0,0:0:0:0:
153,192,25773,1,0,0:0:0:0:
153,192,27036,128,0,27983:0:0:0:0:
460,192,27983,1,0,0:0:0:0:
51,192,28299,1,0,0:0:0:0:
256,192,28299,1,0,0:0:0:0:
358,192,28299,128,0,29562:0:0:0:0:
460,192,29562,128,0,30825:0:0:0:0:
36,192,30825,1,0,0:0:0:0:
153,192,30825,1,0,0:0:0:0:
256,192,32088,128,0,33036:0:0:0:0:
51,192,33036,1,0,0:0:0:0:
460,192,33352,1,0,0:0:0:0:
153,192,33352,1,0,0:0:0:0:
358,192,33352,128,0,34615:0:0:0:0:
460,192,34615,128,0,35878:0:0:0:0:
51,192,35878,1,0,0:0:0:0:
256,192,35878,1,0,0:0:0:0:
182,192,36036,1,0,0:0:0:0:
51,192,36194,128,0,38404:0:0:0:0:
358,192,37141,1,0,0:0:0:0:
182,192,38404,1,0,0:0:0:0:
460,192,38404,128,0,40931:0:0:0:0:
256,192,38404,1,0,0:0:0:0:
153,192,39667,1,0,0:0:0:0:
358,192,40299,1,0,0:0:0:0:
36,192,40931,1,0,0:0:0:0:
358,192,40931,128,0,43457:0:0:0:0:
153,192,40931,1,0,0:0:0:0:
153,192,43457,1,0,0:0:0:0:
460,192,43457,1,0,0:0:0:0:
51,192,43457,128,0,44720:0:0:0:0:
358,192,44720,128,0,45983:0:0:0:0:
460,192,45352,1,0,0:0:0:0:
256,192,45983,128,0,48510:0:0:0:0:
51,192,45983,1,0,0:0:0:0:
153,192,45983,1,0,0:0:0:0:
460,192,48510,128,0,49773:0:0:0:0:
36,192,48510,1,0,0:0:0:0:
358,192,48510,1,0,0:0:0:0:
153,192,49773,128,0,51036:0:0:0:0:
256,192,49773,1,0,0:0:0:0:
36,192,51036,1,0,0:0:0:0:
460,192,51036,1,0,0:0:0:0:
358,192,51036,128,0,53562:0:0:0:0:
256,192,53562,1,0,0:0:0:0:
36,192,53562,1,0,0:0:0:0:
460,192,53562,128,0,54825:0:0:0:0:
256,192,54825,128,0,55931:0:0:0:0:
36,192,56088,1,0,0:0:0:0:
460,192,56088,1,0,0:0:0:0:
256,192,56088,128,0,58615:0:0:0:0:
109,192,58615,1,0,0:0:0:0:
460,192,58615,128,0,59246:0:0:0:0:
358,192,58615,1,0,0:0:0:0:
256,192,59246,128,0,59878:0:0:0:0:
51,192,59878,128,0,61141:0:0:0:0:
460,192,60510,1,0,0:0:0:0:
109,192,61141,1,0,0:0:0:0:
329,192,61141,1,0,0:0:0:0:
256,192,61141,128,0,61773:0:0:0:0:
153,192,61773,128,0,62404:0:0:0:0:
51,192,62404,1,0,0:0:0:0:
358,192,62404,128,0,63036:0:0:0:0:
460,192,63036,128,0,63667:0:0:0:0:
256,192,63352,1,0,0:0:0:0:
153,192,63667,1,0,0:0:0:0:
51,192,63667,1,0,0:0:0:0:
358,192,63667,128,0,64299:0:0:0:0:
256,192,64299,128,0,64931:0:0:0:0:
460,192,64931,1,0,0:0:0:0:
153,192,64931,128,0,65562:0:0:0:0:
329,192,65562,1,0,0:0:0:0:
51,192,65562,128,0,66194:0:0:0:0:
460,192,66194,1,0,0:0:0:0:
256,192,66194,128,0,66509:0:0:0:0:
358,192,66194,1,0,0:0:0:0:
358,192,66509,128,0,66825:0:0:0:0:
460,192,66825,128,0,67141:0:0:0:0:
153,192,67141,128,0,67457:0:0:0:0:
51,192,67457,128,0,68720:0:0:0:0:
358,192,68404,1,0,0:0:0:0:
460,192,68720,1,0,0:0:0:0:
153,192,68720,1,0,0:0:0:0:
256,192,68720,128,0,69983:0:0:0:0:
358,192,69983,128,0,71246:0:0:0:0:
36,192,71246,1,0,0:0:0:0:
460,192,71246,1,0,0:0:0:0:
51,192,72509,128,0,73457:0:0:0:0:
256,192,73457,1,0,0:0:0:0:
358,192,73773,128,0,75036:0:0:0:0:
460,192,73773,1,0,0:0:0:0:
153,192,73773,1,0,0:0:0:0:
460,192,75036,128,0,76299:0:0:0:0:
51,192,76299,1,0,0:0:0:0:
358,192,76299,1,0,0:0:0:0:
153,192,76457,1,0,0:0:0:0:
51,192,76615,128,0,78825:0:0:0:0:
358,192,77562,1,0,0:0:0:0:
358,192,78825,1,0,0:0:0:0:
460,192,78825,1,0,0:0:0:0:
256,192,78825,128,0,81352:0:0:0:0:
182,192,80088,1,0,0:0:0:0:
358,192,80720,1,0,0:0:0:0:
109,192,81352,1,0,0:0:0:0:
460,192,81352,1,0,0:0:0:0:
358,192,81352,128,0,81667:0:0:0:0:
358,192,81983,128,0,82299:0:0:0:0:
153,192,82615,128,0,82931:0:0:0:0:
256,192,82615,1,0,0:0:0:0:
153,192,83246,128,0,83562:0:0:0:0:
153,192,83878,128,0,84194:0:0:0:0:
358,192,83878,1,0,0:0:0:0:
51,192,84194,128,0,84509:0:0:0:0:
460,192,84509,128,0,84825:0:0:0:0:
358,192,84825,128,0,85141:0:0:0:0:
51,192,85141,128,0,85457:0:0:0:0:
256,192,85457,128,0,85773:0:0:0:0:
153,192,85773,128,0,86088:0:0:0:0:
51,192,86404,1,0,0:0:0:0:
460,192,86404,128,0,86720:0:0:0:0:
460,192,87036,128,0,87352:0:0:0:0:
358,192,87667,128,0,87983:0:0:0:0:
358,192,88299,128,0,88615:0:0:0:0:
256,192,88931,128,0,89246:0:0:0:0:
460,192,88931,1,0,0:0:0:0:
153,192,89246,128,0,89562:0:0:0:0:
256,192,89562,128,0,89878:0:0:0:0:
460,192,89878,128,0,90194:0:0:0:0:
51,192,90194,128,0,90431:0:0:0:0:
402,192,90431,1,0,0:0:0:0:
460,192,90509,1,0,0:0:0:0:
402,192,90588,1,0,0:0:0:0:
460,192,90667,1,0,0:0:0:0:
402,192,90746,1,0,0:0:0:0:
460,192,90825,128,0,91457:0:0:0:0:
51,192,91457,128,0,91773:0:0:0:0:
256,192,91457,1,0,0:0:0:0:
51,192,92088,128,0,92404:0:0:0:0:
153,192,92720,128,0,93036:0:0:0:0:
358,192,92720,128,0,93036:0:0:0:0:
256,192,93352,128,0,93667:0:0:0:0:
460,192,93352,128,0,93667:0:0:0:0:
460,192,93983,1,0,0:0:0:0:
153,192,93983,128,0,94299:0:0:0:0:
256,192,94299,128,0,94615:0:0:0:0:
153,192,94615,1,0,0:0:0:0:
51,192,94694,1,0,0:0:0:0:
153,192,94773,1,0,0:0:0:0:
51,192,94852,1,0,0:0:0:0:
153,192,94931,128,0,95246:0:0:0:0:
358,192,95246,128,0,95562:0:0:0:0:
460,192,95562,128,0,95878:0:0:0:0:
256,192,95878,128,0,96194:0:0:0:0:
51,192,96509,128,0,96825:0:0:0:0:
329,192,96509,1,0,0:0:0:0:
256,192,97141,128,0,97457:0:0:0:0:
153,192,97773,128,0,98088:0:0:0:0:
358,192,97773,128,0,98088:0:0:0:0:
51,192,98404,128,0,98720:0:0:0:0:
460,192,98404,128,0,98720:0:0:0:0:
256,192,98404,1,0,0:0:0:0:
109,192,99036,1,0,0:0:0:0:
329,192,99036,1,0,0:0:0:0:
256,192,99194,1,0,0:0:0:0:
460,192,99352,1,0,0:0:0:0:
51,192,99509,1,0,0:0:0:0:
153,192,99667,1,0,0:0:0:0:
329,192,99825,1,0,0:0:0:0:
460,192,99983,1,0,0:0:0:0:
256,192,100141,1,0,0:0:0:0:
153,192,100299,128,0,101562:0:0:0:0:
358,192,100299,1,0,0:0:0:0:
460,192,100931,1,0,0:0:0:0:
51,192,101562,128,0,103852:0:0:0:0:
358,192,101562,128,0,105352:0:0:0:0:
