osu file format v14

[General]
AudioFilename: audio.mp3
AudioLeadIn: 0
PreviewTime: 66441
Countdown: 0
SampleSet: Soft
StackLeniency: 0.7
Mode: 0
LetterboxInBreaks: 0
WidescreenStoryboard: 1

[Editor]
Bookmarks: 25310,46202,67094,87987,108879,129771,150663,171556
DistanceSpacing: 1
BeatDivisor: 3
GridSize: 16
TimelineZoom: 0.6999999

[Metadata]
Title:Heather
TitleUnicode:Heather
Artist:Conan Gray
ArtistUnicode:Conan Gray
Creator:Sylas
Version:Hard
Source:
Tags:english pop kid krow thekoala guitar acoustic
BeatmapID:2807352
BeatmapSetID:1338444

[Difficulty]
HPDrainRate:4
CircleSize:5
OverallDifficulty:5.5
ApproachRate:7
SliderMultiplier:1.4
SliderTickRate:1

[Events]
//Background and Video events
0,0,"wp5449090.png",0,0
//Break Periods
2,85575,87087
2,148252,149763
//Storyboard Layer 0 (Background)
//Storyboard Layer 1 (Fail)
//Storyboard Layer 2 (Pass)
//Storyboard Layer 3 (Foreground)
//Storyboard Layer 4 (Overlay)
//Storyboard Sound Samples

[TimingPoints]
4418,652.883569096844,4,2,1,40,1,0
25310,-125,4,2,2,40,0,0
33144,-100,4,2,2,40,0,0
35103,-125,4,2,2,40,0,0
40979,-100,4,2,2,40,0,0
45223,-100,4,2,2,5,0,0
45332,-100,4,2,2,40,0,0
46202,-100,4,2,2,50,0,0
61871,-133.333333333333,4,2,2,50,0,0
64483,-200,4,2,2,30,0,0
67094,-76.9230769230769,4,2,1,60,0,1
67312,-66.6666666666667,4,2,1,5,0,1
67530,-76.9230769230769,4,2,1,60,0,1
72535,-76.9230769230769,4,2,1,5,0,1
72753,-76.9230769230769,4,2,1,60,0,1
77758,-66.6666666666667,4,2,1,5,0,1
77976,-76.9230769230769,4,2,1,60,0,1
80370,-66.6666666666667,4,2,1,5,0,1
80587,-76.9230769230769,4,2,1,60,0,1
82981,-66.6666666666667,4,2,1,5,0,1
83199,-76.9230769230769,4,2,1,60,0,1
85375,-500,4,2,2,40,0,0
87987,-125,4,2,2,40,0,0
89292,-125,4,2,1,40,0,0
89456,-125,4,2,2,40,0,0
94515,-125,4,2,1,40,0,0
94679,-125,4,2,2,40,0,0
99739,-125,4,2,1,40,0,0
99902,-125,4,2,2,40,0,0
104962,-125,4,2,1,40,0,0
105125,-125,4,2,2,40,0,0
108879,-100,4,2,2,50,0,0
110185,-100,4,2,1,40,0,0
110348,-100,4,2,2,40,0,0
115408,-100,4,2,1,40,0,0
115571,-100,4,2,2,40,0,0
120631,-100,4,2,1,40,0,0
120848,-100,4,2,2,40,0,0
124548,-133.333333333333,4,2,2,40,0,0
125854,-133.333333333333,4,2,1,40,0,0
126072,-133.333333333333,4,2,2,40,0,0
127160,-200,4,2,2,30,0,0
129771,-76.9230769230769,4,2,1,60,0,1
129989,-66.6666666666667,4,2,1,5,0,1
130206,-76.9230769230769,4,2,1,60,0,1
134015,-66.6666666666667,4,2,1,5,0,1
134341,-76.9230769230769,4,2,1,60,0,1
140435,-66.6666666666667,4,2,1,5,0,1
140653,-76.9230769230769,4,2,1,60,0,1
143046,-66.6666666666667,4,2,1,5,0,1
143264,-76.9230769230769,4,2,1,60,0,1
144570,-66.6666666666667,4,2,1,5,0,1
144787,-76.9230769230769,4,2,1,60,0,1
148052,-500,4,2,2,40,0,0
150663,-83.3333333333333,4,2,1,40,0,0
171556,-200,4,2,2,20,0,0
189836,-250,4,2,2,20,0,0

[Colours]
Combo1 : 162,176,155
Combo2 : 147,166,215
Combo3 : 183,158,209
Combo4 : 203,135,171

[HitObjects]
234,86,25310,6,0,L|218:12,2,74.6666666666667,10|2|2,0:0|0:0|0:0,0:0:0:0:
198,140,26398,2,0,P|215:152|236:153,1,37.3333333333333,2|0,0:0|0:0,0:0:0:0:
290,123,26833,2,0,P|330:110|370:103,1,74.6666666666667,2|0,0:0|0:0,0:0:0:0:
362,104,27921,6,0,P|390:55|378:26,1,74.6666666666667,10|2,0:0|0:0,0:0:0:0:
406,165,28792,1,2,0:0:0:0:
406,165,29009,2,0,P|413:182|410:205,1,37.3333333333333,2|0,0:0|0:0,0:0:0:0:
409,264,29445,2,0,B|388:268|373:256|373:256|356:243|322:250,1,74.6666666666667,2|0,0:0|0:0,0:0:0:0:
338,247,30533,6,0,P|284:259|264:272,1,74.6666666666667,10|2,0:0|0:0,0:0:0:0:
150,352,31403,2,0,P|148:329|158:311,1,37.3333333333333,2|0,0:0|0:0,0:0:0:0:
198,266,31839,2,0,P|199:243|189:225,1,37.3333333333333,2|0,0:0|0:0,0:0:0:0:
157,177,32274,1,2,0:0:0:0:
157,177,32927,5,2,0:0:0:0:
142,98,33144,2,0,P|188:117|246:132,1,93.3333333333333,10|2,0:0|0:0,0:0:0:0:
319,84,33797,2,0,P|324:58|314:30,1,46.6666666666667,2|0,0:0|0:0,0:0:0:0:
254,62,34233,1,2,0:0:0:0:
313,150,34450,2,0,P|356:155|379:117,1,93.3333333333333,2|0,0:0|0:0,0:0:0:0:
444,120,35103,6,0,P|444:159|436:194,1,74.6666666666667
392,239,35756,2,0,P|431:261|463:251,2,74.6666666666667,10|2|2,0:0|0:0|0:0,0:0:0:0:
336,210,36844,2,0,P|327:244|329:257,1,37.3333333333333,2|0,0:0|0:0,0:0:0:0:
338,311,37279,2,0,P|307:331|271:328,1,74.6666666666667,2|0,0:0|0:0,0:0:0:0:
271,328,38367,6,0,P|234:324|204:345,1,74.6666666666667,10|2,0:0|0:0,0:0:0:0:
81,369,39238,1,2,0:0:0:0:
81,369,39456,2,0,L|90:286,1,74.6666666666667,2|0,0:0|0:0,0:0:0:0:
149,259,40109,2,0,L|140:176,1,74.6666666666667,2|0,0:0|0:0,0:0:0:0:
140,184,40979,6,0,P|107:175|83:180,1,46.6666666666667,10|0,0:0|0:0,0:0:0:0:
67,111,41414,2,0,P|90:111|111:103,1,46.6666666666667,2|0,0:0|0:0,0:0:0:0:
165,63,41850,1,2,0:0:0:0:
203,145,42067,2,0,P|224:153|247:152,2,46.6666666666667,2|0|0,0:0|0:0|0:0,0:0:0:0:
251,89,42720,2,0,B|278:85|296:107|296:107|311:125|336:126,1,93.3333333333333,2|0,0:0|0:0,0:0:0:0:
438,75,43373,5,2,0:0:0:0:
424,139,43591,2,0,L|411:195,1,46.6666666666667,10|0,0:0|0:0,0:0:0:0:
345,242,44026,2,0,L|332:186,1,46.6666666666667,2|0,0:0|0:0,0:0:0:0:
416,263,44461,1,2,0:0:0:0:
284,274,44679,6,0,P|254:289|211:360,1,116.666666666667,2|0,0:0|0:0,0:0:0:0:
201,360,45332,2,0,P|192:334|177:257,1,93.3333333333333,2|2,0:0|0:0,0:0:0:0:
45,132,46202,6,0,B|88:85|148:126|148:126|209:168|260:106,1,233.333333333333,10|0,0:0|0:0,0:0:0:0:
282,50,47508,2,0,P|227:18|196:73,1,140,10|0,0:0|0:0,0:0:0:0:
397,217,48814,6,0,P|408:164|428:119,1,93.3333333333333,10|0,0:0|0:0,0:0:0:0:
308,86,49466,2,0,P|325:129|334:175,1,93.3333333333333,2|0,0:0|0:0,0:0:0:0:
329,242,50119,1,2,0:0:0:0:
329,242,50772,2,0,P|304:267|238:266,1,93.3333333333333,2|0,0:0|0:0,0:0:0:0:
171,294,51425,6,0,P|262:297|413:338,1,233.333333333333,10|0,0:0|0:0,0:0:0:0:
467,355,52731,2,0,B|482:318|457:287|457:287|429:257|449:206,1,140,10|0,0:0|0:0,0:0:0:0:
316,37,54037,6,0,L|336:143,1,93.3333333333333,10|0,0:0|0:0,0:0:0:0:
236,175,54690,2,0,L|256:69,1,93.3333333333333,2|0,0:0|0:0,0:0:0:0:
228,19,55342,1,2,0:0:0:0:
228,19,55995,2,0,P|175:30|150:66,1,93.3333333333333,2|0,0:0|0:0,0:0:0:0:
84,86,56648,6,0,B|51:90|29:117|34:175|116:185|118:144|119:105|193:124|215:160,1,233.333333333333,10|0,0:0|0:0,0:0:0:0:
218,230,57954,2,0,P|190:263|167:197,1,140,10|0,0:0|0:0,0:0:0:0:
400,42,59260,6,0,P|424:88|425:149,1,93.3333333333333,10|0,0:0|0:0,0:0:0:0:
363,201,59913,2,0,P|339:247|338:308,1,93.3333333333333,2|0,0:0|0:0,0:0:0:0:
384,336,60566,1,2,0:0:0:0:
384,336,61218,1,2,0:0:0:0:
435,284,61436,2,0,P|434:260|428:237,1,46.6666666666667
363,201,61871,6,0,L|140:230,1,210.000008010865,10|10,0:0|0:0,0:0:0:0:
154,228,63830,2,0,P|135:229|115:217,1,35.0000013351441,0|2,0:0|0:0,0:0:0:0:
88,161,64265,1,2,0:0:0:0:
144,120,64483,6,0,L|263:135,1,116.666666666667,8|2,0:0|0:0,0:0:0:0:
259,134,67094,6,0,P|303:131|344:161,1,90.9999958343508,6|0,1:2|0:0,0:0:0:0:
348,168,67530,2,0,P|343:197|333:227,1,60.6666638895672,2|0,0:2|0:0,0:0:0:0:
255,263,67965,1,2,0:0:0:0:
187,215,68182,1,2,0:0:0:0:
185,127,68400,6,0,P|202:86|280:58,1,121.333327779134,8|0,3:2|0:0,0:0:0:0:
343,61,69053,2,0,L|356:0,2,60.6666638895672,2|0|0,0:0|0:0|0:0,0:0:0:0:
389,160,69706,6,0,P|427:178|398:101,1,181.999991668702,2|0,1:2|0:0,0:0:0:0:
194,272,71012,2,0,P|119:264|165:204,1,181.999991668702,10|0,3:2|0:0,0:0:0:0:
251,210,71882,1,2,0:0:0:0:
279,290,72100,1,2,0:0:0:0:
339,197,72317,6,0,P|344:158|331:88,1,90.9999958343508,0|0,1:2|0:0,0:0:0:0:
331,96,72753,1,2,0:0:0:0:
366,31,72970,2,0,P|305:26|263:67,1,121.333327779134,2|2,0:0|0:0,0:0:0:0:
236,143,73623,5,8,3:2:0:0:
236,143,74276,2,0,P|203:135|167:134,2,60.6666638895672,2|0|0,0:0|0:0|0:0,0:0:0:0:
258,237,74929,6,0,P|201:253|124:262,1,121.333327779134,2|0,1:2|0:0,0:0:0:0:
57,298,75582,2,0,P|62:256|84:223,1,60.6666638895672
123,193,76017,1,0,0:0:0:0:
125,335,76235,6,0,P|182:351|307:370,1,181.999991668702,10|0,3:2|0:0,0:0:0:0:
440,329,77105,1,2,0:0:0:0:
312,276,77323,1,2,0:0:0:0:
374,367,77540,6,0,P|378:287|385:259,1,90.9999958343508,0|0,1:2|0:0,0:0:0:0:
386,267,77976,1,2,0:0:0:0:
463,221,78193,2,0,P|461:167|435:95,1,121.333327779134,2|2,0:0|0:0,0:0:0:0:
393,46,78846,5,10,3:2:0:0:
393,46,79499,2,0,P|419:28|449:27,2,60.6666638895672,0|0|2,0:0|0:0|0:0,0:0:0:0:
314,157,80152,6,0,P|281:188|212:192,1,90.9999958343508,2|0,1:2|0:0,0:0:0:0:
222,190,80587,2,0,P|213:149|220:109,1,60.6666638895672,2|0,0:0|0:0,0:0:0:0:
309,78,81023,1,2,0:0:0:0:
387,144,81240,2,0,P|387:174|379:203,1,60.6666638895672,2|0,0:0|3:2,0:0:0:0:
233,260,81675,6,0,B|197:267|177:243|177:243|153:216|109:231,1,121.333327779134,2|0,0:0|0:0,0:0:0:0:
55,328,82328,1,2,0:0:0:0:
159,327,82546,1,2,0:0:0:0:
233,260,82764,6,0,P|235:214|225:157,1,90.9999958343508,0|0,1:2|0:0,0:0:0:0:
220,155,83199,2,0,P|218:125|234:99,1,60.6666638895672,2|0,0:0|0:0,0:0:0:0:
312,78,83634,1,2,0:0:0:0:
312,78,83852,1,2,0:0:0:0:
340,179,84069,1,8,3:2:0:0:
340,179,84722,5,2,0:0:0:0:
275,150,84940,1,2,0:0:0:0:
171,163,85157,1,2,0:0:0:0:
111,267,85375,5,2,0:0:0:0:
119,253,87987,6,0,P|138:299|160:310,2,74.6666666666667,10|2|2,0:0|0:0|0:0,0:0:0:0:
180,212,89075,1,0,0:0:0:0:
180,212,89292,2,0,P|209:190|219:155,1,74.6666666666667,10|2,0:0|0:0,0:0:0:0:
125,109,90163,2,0,P|95:87|88:68,1,37.3333333333333,2|0,0:0|0:0,0:0:0:0:
83,22,90598,1,10,0:0:0:0:
181,60,91033,2,0,P|237:76|267:74,1,74.6666666666667,2|2,0:0|0:0,0:0:0:0:
356,41,91904,1,0,0:0:0:0:
299,130,92339,6,0,P|355:114|385:116,1,74.6666666666667,2|2,0:0|0:0,0:0:0:0:
393,133,92992,1,2,0:0:0:0:
393,133,93210,6,0,P|403:175|371:218,1,74.6666666666667,10|2,0:0|0:0,0:0:0:0:
336,292,94080,1,2,0:0:0:0:
336,292,94298,2,0,P|326:307|322:326,1,37.3333333333333,2|8,0:0|0:0,0:0:0:0:
279,374,94733,2,0,P|251:321|251:276,1,74.6666666666667,2|0,0:0|0:0,0:0:0:0:
164,211,95604,5,2,0:0:0:0:
164,211,95821,2,0,P|130:217|104:232,1,37.3333333333333,10|0,0:0|0:0,0:0:0:0:
78,266,96256,1,2,0:0:0:0:
86,170,96474,2,0,P|66:198|58:227,1,37.3333333333333,2|0,0:0|0:0,0:0:0:0:
3,209,96909,2,0,P|8:243|23:269,1,37.3333333333333,2|0,0:0|0:0,0:0:0:0:
5,311,97345,2,0,B|20:318|41:307|41:307|65:295|90:304,1,74.6666666666667,2|0,0:0|0:0,0:0:0:0:
137,279,97998,2,0,P|142:297|135:327,1,37.3333333333333,2|2,0:0|0:0,0:0:0:0:
191,357,98433,6,0,P|230:369|278:368,2,74.6666666666667,10|2|2,0:0|0:0|0:0,0:0:0:0:
219,297,99521,1,2,0:0:0:0:
219,297,99739,2,0,P|240:302|269:304,1,37.3333333333333,8|2,0:0|0:0,0:0:0:0:
432,152,101044,6,0,L|425:62,2,74.6666666666667,10|2|2,0:0|0:0|0:0,0:0:0:0:
369,170,102132,2,0,L|365:122,1,37.3333333333333,2|0,0:0|0:0,0:0:0:0:
358,67,102568,2,0,P|335:48|281:57,1,74.6666666666667,2|0,0:0|0:0,0:0:0:0:
291,49,103656,5,10,0:0:0:0:
199,34,104091,2,0,P|196:52|221:110,1,74.6666666666667,2|2,0:0|0:0,0:0:0:0:
285,131,104744,1,2,0:0:0:0:
285,131,104962,1,8,0:0:0:0:
189,208,105397,2,0,L|93:198,1,74.6666666666667,2|2,0:0|0:0,0:0:0:0:
124,137,106050,1,2,0:0:0:0:
124,137,106267,6,0,L|198:144,2,74.6666666666667,10|2|2,0:0|0:0|0:0,0:0:0:0:
60,160,107356,1,0,0:0:0:0:
60,160,107573,1,2,0:0:0:0:
15,270,108008,2,0,P|27:312|49:331,1,74.6666666666667,2|2,0:0|0:0,0:0:0:0:
315,276,108879,6,0,B|376:233|368:128|262:113|237:201|289:225,1,233.333333333333,10|0,0:0|0:0,0:0:0:0:
243,282,110185,2,0,P|269:332|364:330,1,140,10|0,0:0|0:0,0:0:0:0:
442,64,111491,6,0,P|453:117|473:162,1,93.3333333333333,10|0,0:0|0:0,0:0:0:0:
423,238,112143,2,0,P|373:235|358:170,1,93.3333333333333,2|0,0:0|0:0,0:0:0:0:
355,130,112796,1,2,0:0:0:0:
355,130,113449,2,0,P|305:133|290:198,1,93.3333333333333,2|0,0:0|0:0,0:0:0:0:
238,62,114102,6,0,P|263:136|289:311,1,233.333333333333,10|0,0:0|0:0,0:0:0:0:
310,352,115408,2,0,B|273:367|242:342|242:342|212:314|161:334,1,140,10|0,0:0|0:0,0:0:0:0:
0,166,116714,6,0,L|91:183,1,93.3333333333333,10|0,0:0|0:0,0:0:0:0:
127,278,117366,2,0,P|159:239|138:164,1,93.3333333333333,2|0,0:0|0:0,0:0:0:0:
141,132,118019,1,2,0:0:0:0:
141,132,118672,2,0,L|232:114,1,93.3333333333333,2|0,0:0|0:0,0:0:0:0:
237,7,119325,6,0,B|203:59|254:112|254:112|307:171|246:235,1,233.333333333333,10|0,0:0|0:0,0:0:0:0:
181,257,120631,2,0,P|246:245|288:297,1,140,10|0,0:0|0:0,0:0:0:0:
437,178,121937,6,0,P|451:133|456:87,1,93.3333333333333,10|0,0:0|0:0,0:0:0:0:
386,33,122589,2,0,P|331:64|352:102,1,93.3333333333333,2|0,0:0|0:0,0:0:0:0:
379,135,123242,1,2,0:0:0:0:
379,135,123895,1,2,0:0:0:0:
402,197,124113,2,0,P|401:221|395:244,1,46.6666666666667
348,290,124548,6,0,P|244:282|150:337,1,210.000008010865,10|10,0:0|0:0,0:0:0:0:
154,332,126507,2,0,L|150:292,1,35.0000013351441,0|2,0:0|0:0,0:0:0:0:
137,233,126942,1,2,0:0:0:0:
194,162,127160,6,0,P|251:193|316:188,1,116.666666666667,8|2,0:0|0:0,0:0:0:0:
163,110,129771,6,0,L|155:218,1,90.9999958343508,6|0,1:2|0:0,0:0:0:0:
145,213,130206,2,0,P|123:214|96:187,1,60.6666638895672,2|0,0:2|0:0,0:0:0:0:
95,89,130642,1,2,0:0:0:0:
190,46,130859,1,2,0:0:0:0:
228,139,131077,2,0,L|218:268,1,121.333327779134,8|0,3:2|0:0,0:0:0:0:
189,331,131730,2,0,P|155:345|132:341,2,60.6666638895672,2|0|0,0:0|0:0|0:0,0:0:0:0:
288,278,132383,6,0,B|339:257|374:300|374:300|405:339|465:311,1,181.999991668702,2|0,1:2|0:0,0:0:0:0:
499,87,133688,2,0,B|459:71|431:106|431:106|400:145|354:126,1,151.666659723918,10|0,3:2|0:0,0:0:0:0:
353,123,134341,1,0,3:2:0:0:
293,78,134559,1,2,0:0:0:0:
293,78,134777,1,2,0:0:0:0:
223,101,134994,6,0,L|154:106,1,60.6666638895672,0|0,1:2|0:0,0:0:0:0:
105,73,135430,1,2,0:0:0:0:
105,73,135647,2,0,P|100:134|148:173,1,121.333327779134,2|2,0:0|0:0,0:0:0:0:
228,182,136300,5,8,3:2:0:0:
228,182,136953,2,0,P|236:149|237:113,2,60.6666638895672,2|0|0,0:0|0:0|0:0,0:0:0:0:
160,247,137606,6,0,P|208:281|275:270,1,121.333327779134,2|0,1:2|0:0,0:0:0:0:
317,227,138259,2,0,P|309:197|307:167,1,60.6666638895672
363,126,138694,1,0,0:0:0:0:
426,232,138912,6,0,B|390:234|375:264|375:264|357:297|308:296,1,121.333327779134,10|0,3:2|0:0,0:0:0:0:
261,362,139564,1,0,3:2:0:0:
231,270,139782,1,2,0:0:0:0:
317,227,140000,1,2,0:0:0:0:
253,363,140217,6,0,P|173:359|145:352,1,90.9999958343508,0|0,1:2|0:0,0:0:0:0:
152,348,140653,1,2,0:0:0:0:
101,284,140870,2,0,B|98:255|131:237|131:237|161:222|163:186,1,121.333327779134,2|2,0:0|0:0,0:0:0:0:
134,108,141523,5,10,3:2:0:0:
134,108,142176,2,0,L|59:100,2,60.6666638895672,0|0|2,0:0|0:0|0:0,0:0:0:0:
217,44,142829,6,0,P|260:36|310:71,1,90.9999958343508,2|0,1:2|0:0,0:0:0:0:
310,69,143264,2,0,L|385:61,1,60.6666638895672,2|0,0:0|0:0,0:0:0:0:
432,3,143699,1,2,0:0:0:0:
435,108,143917,2,0,P|435:138|427:167,1,60.6666638895672,2|0,0:0|3:2,0:0:0:0:
355,249,144352,6,0,P|312:257|254:217,1,90.9999958343508,2|0,0:0|0:0,0:0:0:0:
261,227,144788,1,0,3:2:0:0:
326,153,145005,1,2,0:0:0:0:
426,167,145223,1,2,0:0:0:0:
445,262,145440,6,0,L|438:340,1,60.6666638895672,0|0,1:2|0:0,0:0:0:0:
340,355,145876,2,0,L|333:277,1,60.6666638895672,2|0,0:0|0:0,0:0:0:0:
261,227,146311,1,2,0:0:0:0:
261,227,146529,1,2,0:0:0:0:
192,280,146746,1,8,3:2:0:0:
192,280,147399,5,2,0:0:0:0:
129,244,147617,1,2,0:0:0:0:
102,157,147834,1,2,0:0:0:0:
164,56,148052,5,2,1:2:0:0:
395,56,150663,6,0,L|413:210,1,111.999996582031,6|0,1:2|0:0,0:0:0:0:
340,251,151316,2,0,L|350:158,1,55.9999982910157,2|0,0:0|0:0,0:0:0:0:
411,237,151752,1,0,0:0:0:0:
349,318,151969,6,0,B|306:329|280:285|280:285|251:239|198:259,1,167.999994873047,10|2,3:2|0:0,0:0:0:0:
150,300,152840,1,0,0:0:0:0:
150,300,153057,1,0,0:0:0:0:
82,274,153275,5,2,1:2:0:0:
82,274,153928,2,0,L|19:288,2,55.9999982910157,2|0|0,0:0|0:0|0:0,0:0:0:0:
169,204,154581,2,0,L|232:218,2,55.9999982910157,10|0|0,3:2|0:0|0:0,0:0:0:0:
75,111,155234,5,2,0:0:0:0:
47,172,155451,1,2,0:0:0:0:
103,214,155669,1,2,0:0:0:0:
197,142,155887,6,0,L|164:-2,1,111.999996582031,2|0,1:2|0:0,0:0:0:0:
237,8,156539,2,0,L|251:71,1,55.9999982910157,2|0,0:0|0:0,0:0:0:0:
265,129,156975,1,0,0:0:0:0:
316,46,157192,6,0,P|385:43|438:145,1,167.999994873047,10|2,3:2|0:0,0:0:0:0:
406,180,158063,1,0,0:0:0:0:
406,180,158280,1,0,0:0:0:0:
463,216,158498,6,0,P|490:234|516:235,2,55.9999982910157,2|0|0,1:2|0:0|0:0,0:0:0:0:
340,190,159151,2,0,P|312:193|290:209,2,55.9999982910157,2|0|0,0:0|0:0|0:0,0:0:0:0:
422,265,159804,6,0,P|420:292|406:315,1,55.9999982910157,10|0,3:2|0:0,0:0:0:0:
340,341,160239,1,0,0:0:0:0:
237,298,160457,5,2,0:0:0:0:
283,246,160674,1,2,0:0:0:0:
347,270,160892,1,2,0:0:0:0:
270,358,161110,6,0,P|226:368|172:317,1,111.999996582031,2|0,1:2|0:0,0:0:0:0:
160,206,161762,2,0,P|174:241|173:270,1,55.9999982910157,2|0,0:0|0:0,0:0:0:0:
114,300,162198,1,0,0:0:0:0:
93,221,162415,6,0,B|79:174|123:148|123:148|169:119|149:66,1,167.999994873047,10|2,3:2|0:0,0:0:0:0:
107,27,163286,1,0,0:0:0:0:
107,27,163503,1,0,0:0:0:0:
174,12,163721,5,2,1:2:0:0:
174,12,164374,2,0,P|187:42|187:66,2,55.9999982910157,2|0|0,0:0|0:0|0:0,0:0:0:0:
242,107,165027,2,0,P|229:137|213:154,2,55.9999982910157,10|0|0,3:2|0:0|0:0,0:0:0:0:
322,15,165680,5,2,0:0:0:0:
256,36,165897,1,2,0:0:0:0:
308,82,166115,1,2,0:0:0:0:
389,34,166333,6,0,L|516:53,1,111.999996582031,2|0,1:2|0:0,0:0:0:0:
503,116,166986,2,0,L|489:208,1,55.9999982910157,2|0,0:0|0:0,0:0:0:0:
482,235,167421,1,0,0:0:0:0:
407,184,167638,6,0,L|433:361,1,167.999994873047,10|2,3:2|0:0,0:0:0:0:
374,382,168509,1,0,0:0:0:0:
374,382,168727,1,0,0:0:0:0:
324,333,168944,6,0,P|299:329|263:335,2,55.9999982910157,2|0|0,1:2|0:0|0:0,0:0:0:0:
220,285,169597,2,0,P|199:299|178:329,2,55.9999982910157,2|0|0,0:0|0:0|0:0,0:0:0:0:
308,191,170250,6,0,P|316:167|316:130,1,55.9999982910157,10|0,3:2|0:0,0:0:0:0:
284,78,170685,1,0,0:0:0:0:
199,205,170903,5,2,0:0:0:0:
296,264,171120,1,2,0:0:0:0:
405,229,171338,1,2,0:0:0:0:
389,151,171556,6,0,P|389:122|394:104,2,46.6666666666667,2|0|0,0:0|0:0|0:0,0:0:0:0:
458,181,172644,2,0,P|468:145|464:73,1,93.3333333333333
352,45,174167,6,0,P|305:37|252:118,1,140,2|2,0:0|0:0,0:0:0:0:
250,102,176126,2,0,P|260:133|260:152,1,46.6666666666667
240,172,176779,6,0,L|163:161,1,70,2|0,0:0|0:0,0:0:0:0:
105,120,178085,2,0,P|86:157|90:184,1,70,2|0,0:0|0:0,0:0:0:0:
106,281,179390,6,0,P|138:264|250:254,1,140,2|2,0:0|0:0,0:0:0:0:
239,252,181567,2,0,L|234:285,1,23.3333333333333
289,314,182002,6,0,P|309:325|342:329,2,46.6666666666667,2|0|0,0:0|0:0|0:0,0:0:0:0:
311,252,183199,2,0,P|333:256|354:267,1,46.6666666666667
354,267,184613,6,0,L|417:273,2,46.6666666666667,2|0|0,0:0|0:0|0:0,0:0:0:0:
332,247,185702,2,0,L|271:250,1,58.3333333333333
141,145,187225,6,0,P|142:121|157:70,1,70,2|0,0:0|0:0,0:0:0:0:
242,45,188531,2,0,P|265:65|313:75,1,70,2|0,0:0|0:0,0:0:0:0:
396,55,189836,6,0,L|442:48,2,37.3333333333333,2|0|0,0:0|0:0|0:0,0:0:0:0:
