osu file format v14

[General]
AudioFilename: Tribute To Newseum.mp3
AudioLeadIn: 0
PreviewTime: -1
Countdown: 0
SampleSet: None
StackLeniency: 0.7
Mode: 3
LetterboxInBreaks: 0
SpecialStyle: 1
WidescreenStoryboard: 1

[Editor]
DistanceSpacing: 2
BeatDivisor: 4
GridSize: 16
TimelineZoom: 1

[Metadata]
Title:CommanderFlippy555 Collection
TitleUnicode:CommanderFlippy555 Collection
Artist:CommanderFlippy555
ArtistUnicode:CommanderFlippy555
Creator:stupud man
Version:Tribute to Newseum
Source:y
Tags:Tyler CommanderFlippy555
BeatmapID:1299733
BeatmapSetID:616265

[Difficulty]
HPDrainRate:7
CircleSize:8
OverallDifficulty:9
ApproachRate:5
SliderMultiplier:1.4
SliderTickRate:1

[Events]
//Background and Video events
0,0,"jeremy low sriracha.png",0,0
//Break Periods
//Storyboard Layer 0 (Background)
//Storyboard Layer 1 (Fail)
//Storyboard Layer 2 (Pass)
//Storyboard Layer 3 (Foreground)
//Storyboard Sound Samples

[TimingPoints]
0,298.507462686567,4,1,0,100,1,0

[HitObjects]
32,192,9772,5,0,0:0:0:0:
160,192,9772,1,0,0:0:0:0:
288,192,9772,1,0,0:0:0:0:
96,192,9922,1,0,0:0:0:0:
224,192,9922,1,0,0:0:0:0:
160,192,10071,1,0,0:0:0:0:
288,192,10071,1,0,0:0:0:0:
416,192,10220,1,0,0:0:0:0:
288,192,10220,1,0,0:0:0:0:
352,192,10369,1,0,0:0:0:0:
480,192,10369,1,0,0:0:0:0:
288,192,10518,1,0,0:0:0:0:
416,192,10518,1,0,0:0:0:0:
224,192,10668,1,0,0:0:0:0:
352,192,10668,1,0,0:0:0:0:
288,192,10817,1,0,0:0:0:0:
416,192,10817,1,0,0:0:0:0:
160,192,10966,1,0,0:0:0:0:
288,192,10966,1,0,0:0:0:0:
32,192,10966,1,0,0:0:0:0:
96,192,11115,1,0,0:0:0:0:
224,192,11115,1,0,0:0:0:0:
160,192,11264,1,0,0:0:0:0:
288,192,11264,1,0,0:0:0:0:
224,192,11414,1,0,0:0:0:0:
352,192,11414,1,0,0:0:0:0:
288,192,11563,1,0,0:0:0:0:
352,192,11600,1,0,0:0:0:0:
480,192,11600,1,0,0:0:0:0:
288,192,11712,1,0,0:0:0:0:
416,192,11712,1,0,0:0:0:0:
224,192,11861,1,0,0:0:0:0:
352,192,11861,1,0,0:0:0:0:
224,192,12010,1,0,0:0:0:0:
96,192,12010,1,0,0:0:0:0:
160,192,12160,1,0,0:0:0:0:
288,192,12160,1,0,0:0:0:0:
32,192,12160,1,0,0:0:0:0:
96,192,12309,1,0,0:0:0:0:
224,192,12309,1,0,0:0:0:0:
160,192,12458,1,0,0:0:0:0:
288,192,12458,1,0,0:0:0:0:
224,192,12607,1,0,0:0:0:0:
352,192,12607,1,0,0:0:0:0:
352,192,12756,1,0,0:0:0:0:
480,192,12756,1,0,0:0:0:0:
288,192,12906,1,0,0:0:0:0:
416,192,12906,1,0,0:0:0:0:
224,192,13055,1,0,0:0:0:0:
352,192,13055,1,0,0:0:0:0:
288,192,13204,1,0,0:0:0:0:
416,192,13204,1,0,0:0:0:0:
480,192,13358,1,0,0:0:0:0:
288,192,13507,1,0,0:0:0:0:
416,192,13656,1,0,0:0:0:0:
224,192,13805,1,0,0:0:0:0:
352,192,13955,1,0,0:0:0:0:
160,192,14104,1,0,0:0:0:0:
288,192,14253,1,0,0:0:0:0:
96,192,14398,1,0,0:0:0:0:
32,192,14552,1,0,0:0:0:0:
160,192,14552,1,0,0:0:0:0:
288,192,14552,1,0,0:0:0:0:
96,192,14701,1,0,0:0:0:0:
160,192,14701,1,0,0:0:0:0:
160,192,14850,1,0,0:0:0:0:
224,192,14850,1,0,0:0:0:0:
224,192,15000,1,0,0:0:0:0:
288,192,15000,1,0,0:0:0:0:
288,192,15149,1,0,0:0:0:0:
352,192,15149,1,0,0:0:0:0:
160,192,15298,1,0,0:0:0:0:
224,192,15298,1,0,0:0:0:0:
224,192,15447,1,0,0:0:0:0:
288,192,15447,1,0,0:0:0:0:
288,192,15597,1,0,0:0:0:0:
352,192,15597,1,0,0:0:0:0:
352,192,15746,1,0,0:0:0:0:
416,192,15746,1,0,0:0:0:0:
224,192,15895,1,0,0:0:0:0:
288,192,15895,1,0,0:0:0:0:
288,192,16044,1,0,0:0:0:0:
352,192,16044,1,0,0:0:0:0:
352,192,16194,1,0,0:0:0:0:
416,192,16194,1,0,0:0:0:0:
416,192,16343,1,0,0:0:0:0:
480,192,16343,1,0,0:0:0:0:
288,192,16492,1,0,0:0:0:0:
352,192,16492,1,0,0:0:0:0:
352,192,16641,1,0,0:0:0:0:
416,192,16641,1,0,0:0:0:0:
416,192,16791,1,0,0:0:0:0:
480,192,16791,1,0,0:0:0:0:
480,192,17014,1,0,0:0:0:0:
352,192,17014,1,0,0:0:0:0:
32,192,17014,1,0,0:0:0:0:
416,192,17089,1,0,0:0:0:0:
288,192,17089,1,0,0:0:0:0:
352,192,17164,1,0,0:0:0:0:
224,192,17164,1,0,0:0:0:0:
288,192,17238,1,0,0:0:0:0:
160,192,17238,1,0,0:0:0:0:
480,192,17313,1,0,0:0:0:0:
352,192,17313,1,0,0:0:0:0:
32,192,17313,1,0,0:0:0:0:
416,192,17388,1,0,0:0:0:0:
288,192,17388,1,0,0:0:0:0:
352,192,17462,1,0,0:0:0:0:
224,192,17462,1,0,0:0:0:0:
288,192,17537,1,0,0:0:0:0:
160,192,17537,1,0,0:0:0:0:
480,192,17611,1,0,0:0:0:0:
352,192,17611,1,0,0:0:0:0:
32,192,17611,1,0,0:0:0:0:
416,192,17686,1,0,0:0:0:0:
288,192,17686,1,0,0:0:0:0:
352,192,17761,1,0,0:0:0:0:
224,192,17761,1,0,0:0:0:0:
288,192,17835,1,0,0:0:0:0:
160,192,17835,1,0,0:0:0:0:
32,192,17910,1,0,0:0:0:0:
352,192,17910,1,0,0:0:0:0:
480,192,17910,1,0,0:0:0:0:
288,192,17985,1,0,0:0:0:0:
416,192,17985,1,0,0:0:0:0:
224,192,18059,1,0,0:0:0:0:
352,192,18059,1,0,0:0:0:0:
160,192,18134,1,0,0:0:0:0:
288,192,18134,1,0,0:0:0:0:
416,192,18208,1,0,0:0:0:0:
288,192,18208,1,0,0:0:0:0:
32,192,18208,1,0,0:0:0:0:
352,192,18283,1,0,0:0:0:0:
224,192,18283,1,0,0:0:0:0:
288,192,18358,1,0,0:0:0:0:
160,192,18358,1,0,0:0:0:0:
224,192,18432,1,0,0:0:0:0:
96,192,18432,1,0,0:0:0:0:
288,192,18507,1,0,0:0:0:0:
416,192,18507,1,0,0:0:0:0:
32,192,18507,1,0,0:0:0:0:
352,192,18582,1,0,0:0:0:0:
224,192,18582,1,0,0:0:0:0:
288,192,18656,1,0,0:0:0:0:
160,192,18656,1,0,0:0:0:0:
224,192,18731,1,0,0:0:0:0:
96,192,18731,1,0,0:0:0:0:
416,192,18805,1,0,0:0:0:0:
288,192,18805,1,0,0:0:0:0:
32,192,18805,1,0,0:0:0:0:
352,192,18880,1,0,0:0:0:0:
224,192,18880,1,0,0:0:0:0:
288,192,18955,1,0,0:0:0:0:
160,192,18955,1,0,0:0:0:0:
224,192,19029,1,0,0:0:0:0:
96,192,19029,1,0,0:0:0:0:
416,192,19104,1,0,0:0:0:0:
288,192,19104,1,0,0:0:0:0:
32,192,19104,1,0,0:0:0:0:
352,192,19179,1,0,0:0:0:0:
224,192,19179,1,0,0:0:0:0:
288,192,19253,1,0,0:0:0:0:
160,192,19253,1,0,0:0:0:0:
224,192,19328,1,0,0:0:0:0:
96,192,19328,1,0,0:0:0:0:
480,192,19402,1,0,0:0:0:0:
352,192,19402,1,0,0:0:0:0:
96,192,19552,1,0,0:0:0:0:
224,192,19552,1,0,0:0:0:0:
160,192,19701,1,0,0:0:0:0:
288,192,19701,1,0,0:0:0:0:
224,192,19850,1,0,0:0:0:0:
352,192,19850,1,0,0:0:0:0:
288,192,19999,1,0,0:0:0:0:
416,192,19999,1,0,0:0:0:0:
160,192,20149,1,0,0:0:0:0:
288,192,20149,1,0,0:0:0:0:
224,192,20298,1,0,0:0:0:0:
352,192,20298,1,0,0:0:0:0:
288,192,20447,1,0,0:0:0:0:
416,192,20447,1,0,0:0:0:0:
480,192,20597,1,0,0:0:0:0:
352,192,20746,1,0,0:0:0:0:
416,192,20746,1,0,0:0:0:0:
416,192,20820,1,0,0:0:0:0:
480,192,20820,1,0,0:0:0:0:
352,192,20895,1,0,0:0:0:0:
416,192,20895,1,0,0:0:0:0:
288,192,21044,1,0,0:0:0:0:
352,192,21044,1,0,0:0:0:0:
352,192,21119,1,0,0:0:0:0:
416,192,21119,1,0,0:0:0:0:
288,192,21194,1,0,0:0:0:0:
352,192,21194,1,0,0:0:0:0:
224,192,21343,1,0,0:0:0:0:
288,192,21343,1,0,0:0:0:0:
288,192,21417,1,0,0:0:0:0:
352,192,21417,1,0,0:0:0:0:
224,192,21492,1,0,0:0:0:0:
288,192,21492,1,0,0:0:0:0:
160,192,21641,1,0,0:0:0:0:
288,192,21641,1,0,0:0:0:0:
160,192,21791,1,0,0:0:0:0:
96,192,21940,1,0,0:0:0:0:
160,192,22089,1,0,0:0:0:0:
480,192,22164,1,0,0:0:0:0:
480,192,22388,1,0,0:0:0:0:
352,192,22388,1,0,0:0:0:0:
32,192,22388,1,0,0:0:0:0:
416,192,22462,1,0,0:0:0:0:
288,192,22462,1,0,0:0:0:0:
352,192,22537,1,0,0:0:0:0:
224,192,22537,1,0,0:0:0:0:
288,192,22611,1,0,0:0:0:0:
160,192,22611,1,0,0:0:0:0:
416,192,22686,1,0,0:0:0:0:
288,192,22686,1,0,0:0:0:0:
32,192,22686,1,0,0:0:0:0:
352,192,22761,1,0,0:0:0:0:
224,192,22761,1,0,0:0:0:0:
288,192,22835,1,0,0:0:0:0:
160,192,22835,1,0,0:0:0:0:
224,192,22910,1,0,0:0:0:0:
96,192,22910,1,0,0:0:0:0:
352,192,22985,1,0,0:0:0:0:
416,192,23134,1,0,0:0:0:0:
352,192,23283,1,0,0:0:0:0:
288,192,23432,1,0,0:0:0:0:
288,192,23582,1,0,0:0:0:0:
352,192,23805,1,0,0:0:0:0:
480,192,23880,1,0,0:0:0:0:
416,192,24029,1,0,0:0:0:0:
352,192,24104,1,0,0:0:0:0:
96,192,24179,1,0,0:0:0:0:
224,192,24179,1,0,0:0:0:0:
32,192,24179,1,0,0:0:0:0:
160,192,24253,1,0,0:0:0:0:
288,192,24253,1,0,0:0:0:0:
224,192,24328,1,0,0:0:0:0:
352,192,24328,1,0,0:0:0:0:
288,192,24402,1,0,0:0:0:0:
416,192,24402,1,0,0:0:0:0:
352,192,24477,1,0,0:0:0:0:
480,192,24477,1,0,0:0:0:0:
96,192,24552,1,0,0:0:0:0:
224,192,24552,1,0,0:0:0:0:
32,192,24552,1,0,0:0:0:0:
160,192,24626,1,0,0:0:0:0:
288,192,24626,1,0,0:0:0:0:
224,192,24701,1,0,0:0:0:0:
352,192,24701,1,0,0:0:0:0:
288,192,24776,1,0,0:0:0:0:
416,192,24776,1,0,0:0:0:0:
352,192,24850,1,0,0:0:0:0:
480,192,24850,1,0,0:0:0:0:
96,192,24925,1,0,0:0:0:0:
160,192,24925,1,0,0:0:0:0:
32,192,24925,1,0,0:0:0:0:
160,192,24999,1,0,0:0:0:0:
224,192,24999,1,0,0:0:0:0:
224,192,25074,1,0,0:0:0:0:
288,192,25074,1,0,0:0:0:0:
288,192,25149,1,0,0:0:0:0:
352,192,25149,1,0,0:0:0:0:
352,192,25223,1,0,0:0:0:0:
416,192,25223,1,0,0:0:0:0:
160,192,25298,1,0,0:0:0:0:
224,192,25298,1,0,0:0:0:0:
32,192,25298,1,0,0:0:0:0:
224,192,25373,1,0,0:0:0:0:
288,192,25373,1,0,0:0:0:0:
288,192,25447,1,0,0:0:0:0:
352,192,25447,1,0,0:0:0:0:
352,192,25522,1,0,0:0:0:0:
416,192,25522,1,0,0:0:0:0:
416,192,25597,1,0,0:0:0:0:
480,192,25597,1,0,0:0:0:0:
480,192,25671,1,0,0:0:0:0:
416,192,25671,1,0,0:0:0:0:
32,192,25671,1,0,0:0:0:0:
416,192,25746,1,0,0:0:0:0:
352,192,25746,1,0,0:0:0:0:
352,192,25820,1,0,0:0:0:0:
288,192,25820,1,0,0:0:0:0:
288,192,25895,1,0,0:0:0:0:
224,192,25895,1,0,0:0:0:0:
224,192,25970,1,0,0:0:0:0:
160,192,25970,1,0,0:0:0:0:
160,192,26044,1,0,0:0:0:0:
96,192,26044,1,0,0:0:0:0:
32,192,26044,1,0,0:0:0:0:
352,192,26119,1,0,0:0:0:0:
224,192,26119,1,0,0:0:0:0:
288,192,26194,1,0,0:0:0:0:
160,192,26194,1,0,0:0:0:0:
96,192,26268,1,0,0:0:0:0:
224,192,26268,1,0,0:0:0:0:
224,192,26343,1,0,0:0:0:0:
288,192,26343,1,0,0:0:0:0:
352,192,26417,1,0,0:0:0:0:
416,192,26417,1,0,0:0:0:0:
480,192,26417,1,0,0:0:0:0:
96,192,26492,1,0,0:0:0:0:
224,192,26492,1,0,0:0:0:0:
32,192,26492,1,0,0:0:0:0:
224,192,26567,1,0,0:0:0:0:
352,192,26567,1,0,0:0:0:0:
352,192,26641,1,0,0:0:0:0:
480,192,26641,1,0,0:0:0:0:
96,192,26716,1,0,0:0:0:0:
224,192,26716,1,0,0:0:0:0:
32,192,26716,1,0,0:0:0:0:
224,192,26791,1,0,0:0:0:0:
352,192,26791,1,0,0:0:0:0:
352,192,26865,1,0,0:0:0:0:
480,192,26865,1,0,0:0:0:0:
96,192,26940,1,0,0:0:0:0:
224,192,26940,1,0,0:0:0:0:
32,192,26940,1,0,0:0:0:0:
352,192,27014,1,0,0:0:0:0:
224,192,27014,1,0,0:0:0:0:
352,192,27089,1,0,0:0:0:0:
480,192,27089,1,0,0:0:0:0:
96,192,27164,1,0,0:0:0:0:
224,192,27164,1,0,0:0:0:0:
32,192,27164,1,0,0:0:0:0:
224,192,27238,1,0,0:0:0:0:
352,192,27238,1,0,0:0:0:0:
352,192,27313,1,0,0:0:0:0:
480,192,27313,1,0,0:0:0:0:
96,192,27388,1,0,0:0:0:0:
224,192,27388,1,0,0:0:0:0:
32,192,27388,1,0,0:0:0:0:
224,192,27462,1,0,0:0:0:0:
352,192,27462,1,0,0:0:0:0:
352,192,27537,1,0,0:0:0:0:
480,192,27537,1,0,0:0:0:0:
224,192,27611,1,0,0:0:0:0:
32,192,27611,1,0,0:0:0:0:
288,192,27686,1,0,0:0:0:0:
352,192,27686,1,0,0:0:0:0:
352,192,27761,1,0,0:0:0:0:
416,192,27761,1,0,0:0:0:0:
416,192,27835,1,0,0:0:0:0:
480,192,27835,1,0,0:0:0:0:
224,192,27910,1,0,0:0:0:0:
288,192,27910,1,0,0:0:0:0:
32,192,27910,1,0,0:0:0:0:
288,192,27985,1,0,0:0:0:0:
352,192,27985,1,0,0:0:0:0:
352,192,28059,1,0,0:0:0:0:
416,192,28059,1,0,0:0:0:0:
160,192,28134,1,0,0:0:0:0:
224,192,28134,1,0,0:0:0:0:
32,192,28134,1,0,0:0:0:0:
224,192,28208,1,0,0:0:0:0:
288,192,28208,1,0,0:0:0:0:
288,192,28283,1,0,0:0:0:0:
352,192,28283,1,0,0:0:0:0:
352,192,28358,1,0,0:0:0:0:
416,192,28358,1,0,0:0:0:0:
96,192,28432,1,0,0:0:0:0:
160,192,28432,1,0,0:0:0:0:
32,192,28432,1,0,0:0:0:0:
160,192,28507,1,0,0:0:0:0:
224,192,28507,1,0,0:0:0:0:
224,192,28582,1,0,0:0:0:0:
288,192,28582,1,0,0:0:0:0:
288,192,28656,1,0,0:0:0:0:
352,192,28656,1,0,0:0:0:0:
96,192,28731,1,0,0:0:0:0:
224,192,28731,1,0,0:0:0:0:
352,192,28731,1,0,0:0:0:0:
480,192,28731,1,0,0:0:0:0:
32,192,28731,1,0,0:0:0:0:
160,192,28805,1,0,0:0:0:0:
288,192,28805,1,0,0:0:0:0:
416,192,28805,1,0,0:0:0:0:
96,192,28880,1,0,0:0:0:0:
160,192,28880,1,0,0:0:0:0:
224,192,28880,1,0,0:0:0:0:
352,192,28880,1,0,0:0:0:0:
288,192,28880,1,0,0:0:0:0:
416,192,28880,1,0,0:0:0:0:
480,192,28880,1,0,0:0:0:0:
32,192,28880,1,0,0:0:0:0:
32,192,31791,1,0,0:0:0:0:
96,192,31791,1,0,0:0:0:0:
160,192,31791,1,0,0:0:0:0:
224,192,31791,1,0,0:0:0:0:
288,192,31791,1,0,0:0:0:0:
352,192,31791,1,0,0:0:0:0:
416,192,31791,1,0,0:0:0:0:
480,192,31791,1,0,0:0:0:0:
