osu file format v14

[General]
AudioFilename: audio.mp3
AudioLeadIn: 0
PreviewTime: -1
Countdown: 1
SampleSet: None
StackLeniency: 0.7
Mode: 3
LetterboxInBreaks: 0
SpecialStyle: 0
WidescreenStoryboard: 0

[Editor]
DistanceSpacing: 0.7
BeatDivisor: 4
GridSize: 4
TimelineZoom: 1

[Metadata]
Title:Levantate
TitleUnicode:Levantate
Artist:Comit Pokofl
ArtistUnicode:Comité Pokofló
Creator:artumax
Version:Hard
Source:Hip HOP
Tags:Español
BeatmapID:1147162
BeatmapSetID:540996

[Difficulty]
HPDrainRate:5
CircleSize:4
OverallDifficulty:5
ApproachRate:5
SliderMultiplier:1.4
SliderTickRate:1

[Events]
//Background and Video events
0,0,"pf1.jpg",0,0
//Break Periods
//Storyboard Layer 0 (Background)
//Storyboard Layer 1 (Fail)
//Storyboard Layer 2 (Pass)
//Storyboard Layer 3 (Foreground)
//Storyboard Sound Samples

[TimingPoints]
0,352.530812696264,4,1,0,100,1,0

[HitObjects]
64,192,969,5,0,0:0:0:0:
448,192,969,1,0,0:0:0:0:
192,192,1145,1,0,0:0:0:0:
320,192,1233,1,0,0:0:0:0:
448,192,1410,1,0,0:0:0:0:
448,192,1762,1,0,0:0:0:0:
320,192,1850,1,0,0:0:0:0:
64,192,2027,1,0,0:0:0:0:
192,192,2291,1,0,0:0:0:0:
320,192,2467,1,0,0:0:0:0:
448,192,2820,1,0,0:0:0:0:
448,192,3349,128,0,3965:0:0:0:0:
64,192,4142,1,0,0:0:0:0:
64,192,4582,128,0,4935:0:0:0:0:
448,192,5640,128,0,6698:0:0:0:0:
192,192,7491,128,0,8989:0:0:0:0:
448,192,9782,128,0,11545:0:0:0:0:
192,192,11369,1,0,0:0:0:0:
64,192,11369,1,0,0:0:0:0:
320,192,11369,1,0,0:0:0:0:
320,192,12691,1,0,0:0:0:0:
192,192,12779,1,0,0:0:0:0:
192,192,14013,1,0,0:0:0:0:
320,192,14013,1,0,0:0:0:0:
448,192,14982,128,0,15423:0:0:0:0:
64,192,14982,128,0,15423:0:0:0:0:
448,192,16128,128,0,17274:0:0:0:0:
64,192,16128,128,0,17274:0:0:0:0:
192,192,18067,128,0,18596:0:0:0:0:
320,192,18067,128,0,18596:0:0:0:0:
448,192,19389,128,0,20799:0:0:0:0:
64,192,19477,128,0,20799:0:0:0:0:
448,192,21416,128,0,22297:0:0:0:0:
64,192,21504,128,0,22473:0:0:0:0:
320,192,23355,128,0,23795:0:0:0:0:
192,192,23355,128,0,23795:0:0:0:0:
448,192,24324,128,0,24765:0:0:0:0:
64,192,24412,128,0,24853:0:0:0:0:
448,192,26263,128,0,26792:0:0:0:0:
64,192,26351,128,0,26792:0:0:0:0:
64,192,27497,1,0,0:0:0:0:
448,192,27497,1,0,0:0:0:0:
448,192,28114,1,0,0:0:0:0:
64,192,28114,1,0,0:0:0:0:
320,192,28819,1,0,0:0:0:0:
192,192,28819,1,0,0:0:0:0:
448,192,29171,1,0,0:0:0:0:
64,192,29171,1,0,0:0:0:0:
192,192,29524,1,0,0:0:0:0:
320,192,29524,1,0,0:0:0:0:
448,192,29788,1,0,0:0:0:0:
64,192,29876,1,0,0:0:0:0:
320,192,30053,1,0,0:0:0:0:
192,192,30053,1,0,0:0:0:0:
448,192,30317,1,0,0:0:0:0:
64,192,30317,1,0,0:0:0:0:
448,192,30582,1,0,0:0:0:0:
192,192,30582,1,0,0:0:0:0:
320,192,30582,1,0,0:0:0:0:
64,192,30670,1,0,0:0:0:0:
448,192,31110,1,0,0:0:0:0:
320,192,31110,1,0,0:0:0:0:
64,192,31463,1,0,0:0:0:0:
448,192,31463,1,0,0:0:0:0:
192,192,31639,1,0,0:0:0:0:
448,192,31904,1,0,0:0:0:0:
64,192,32080,1,0,0:0:0:0:
320,192,32256,1,0,0:0:0:0:
192,192,32432,1,0,0:0:0:0:
448,192,32609,1,0,0:0:0:0:
64,192,32785,1,0,0:0:0:0:
320,192,33049,1,0,0:0:0:0:
192,192,33049,1,0,0:0:0:0:
448,192,33314,1,0,0:0:0:0:
192,192,33578,1,0,0:0:0:0:
448,192,33666,1,0,0:0:0:0:
64,192,33754,1,0,0:0:0:0:
192,192,34019,1,0,0:0:0:0:
320,192,34283,1,0,0:0:0:0:
448,192,34636,1,0,0:0:0:0:
64,192,34812,1,0,0:0:0:0:
192,192,35076,1,0,0:0:0:0:
448,192,35341,1,0,0:0:0:0:
64,192,35693,1,0,0:0:0:0:
320,192,35870,1,0,0:0:0:0:
192,192,36222,1,0,0:0:0:0:
448,192,36398,1,0,0:0:0:0:
64,192,36575,1,0,0:0:0:0:
192,192,36927,1,0,0:0:0:0:
320,192,37103,1,0,0:0:0:0:
64,192,37368,1,0,0:0:0:0:
448,192,37368,1,0,0:0:0:0:
192,192,37720,1,0,0:0:0:0:
320,192,37808,1,0,0:0:0:0:
64,192,38161,1,0,0:0:0:0:
448,192,38161,1,0,0:0:0:0:
448,192,38602,1,0,0:0:0:0:
64,192,38690,1,0,0:0:0:0:
192,192,38866,1,0,0:0:0:0:
320,192,38866,1,0,0:0:0:0:
64,192,39042,1,0,0:0:0:0:
448,192,39219,1,0,0:0:0:0:
320,192,39307,1,0,0:0:0:0:
192,192,39395,1,0,0:0:0:0:
448,192,39483,1,0,0:0:0:0:
64,192,39571,1,0,0:0:0:0:
192,192,39835,1,0,0:0:0:0:
320,192,40012,1,0,0:0:0:0:
448,192,40100,1,0,0:0:0:0:
64,192,40188,1,0,0:0:0:0:
320,192,40276,1,0,0:0:0:0:
192,192,40541,1,0,0:0:0:0:
448,192,40717,1,0,0:0:0:0:
64,192,40805,1,0,0:0:0:0:
320,192,41069,1,0,0:0:0:0:
192,192,41069,1,0,0:0:0:0:
64,192,41422,1,0,0:0:0:0:
448,192,41422,1,0,0:0:0:0:
192,192,41863,1,0,0:0:0:0:
320,192,41951,1,0,0:0:0:0:
320,192,42391,1,0,0:0:0:0:
448,192,42568,1,0,0:0:0:0:
448,192,42920,1,0,0:0:0:0:
64,192,43185,1,0,0:0:0:0:
64,192,43361,1,0,0:0:0:0:
64,192,43625,1,0,0:0:0:0:
192,192,43801,1,0,0:0:0:0:
320,192,43978,1,0,0:0:0:0:
448,192,44330,1,0,0:0:0:0:
320,192,44507,1,0,0:0:0:0:
192,192,44683,1,0,0:0:0:0:
192,192,44947,1,0,0:0:0:0:
448,192,45123,1,0,0:0:0:0:
64,192,45300,1,0,0:0:0:0:
320,192,45476,1,0,0:0:0:0:
192,192,45564,1,0,0:0:0:0:
448,192,45740,1,0,0:0:0:0:
64,192,46005,1,0,0:0:0:0:
448,192,46005,128,0,47415:0:0:0:0:
192,192,46269,1,0,0:0:0:0:
64,192,46534,1,0,0:0:0:0:
192,192,46710,1,0,0:0:0:0:
64,192,46974,1,0,0:0:0:0:
192,192,47062,1,0,0:0:0:0:
192,192,47327,1,0,0:0:0:0:
64,192,47591,1,0,0:0:0:0:
448,192,47679,1,0,0:0:0:0:
320,192,47679,1,0,0:0:0:0:
192,192,47944,1,0,0:0:0:0:
448,192,48208,1,0,0:0:0:0:
64,192,48208,1,0,0:0:0:0:
192,192,48561,1,0,0:0:0:0:
320,192,48737,1,0,0:0:0:0:
192,192,49001,1,0,0:0:0:0:
448,192,49178,1,0,0:0:0:0:
64,192,49178,1,0,0:0:0:0:
448,192,49530,1,0,0:0:0:0:
64,192,49530,1,0,0:0:0:0:
192,192,49794,1,0,0:0:0:0:
320,192,49794,1,0,0:0:0:0:
448,192,50059,1,0,0:0:0:0:
64,192,50059,1,0,0:0:0:0:
192,192,50323,1,0,0:0:0:0:
320,192,50323,1,0,0:0:0:0:
64,192,50500,1,0,0:0:0:0:
448,192,50588,1,0,0:0:0:0:
192,192,50676,1,0,0:0:0:0:
320,192,50676,1,0,0:0:0:0:
448,192,50852,1,0,0:0:0:0:
64,192,50852,1,0,0:0:0:0:
192,192,51028,1,0,0:0:0:0:
320,192,51028,1,0,0:0:0:0:
448,192,51381,1,0,0:0:0:0:
64,192,51381,1,0,0:0:0:0:
192,192,51910,1,0,0:0:0:0:
320,192,51910,1,0,0:0:0:0:
320,192,52086,1,0,0:0:0:0:
192,192,52174,1,0,0:0:0:0:
192,192,52350,1,0,0:0:0:0:
320,192,52350,128,0,52703:0:0:0:0:
192,192,52615,1,0,0:0:0:0:
192,192,52879,1,0,0:0:0:0:
320,192,52879,1,0,0:0:0:0:
448,192,53055,1,0,0:0:0:0:
192,192,53144,1,0,0:0:0:0:
448,192,53232,128,0,53937:0:0:0:0:
64,192,53496,1,0,0:0:0:0:
64,192,53672,1,0,0:0:0:0:
192,192,53937,1,0,0:0:0:0:
320,192,54113,1,0,0:0:0:0:
192,192,54289,1,0,0:0:0:0:
448,192,54466,128,0,54818:0:0:0:0:
64,192,54730,1,0,0:0:0:0:
320,192,54818,1,0,0:0:0:0:
64,192,54906,1,0,0:0:0:0:
448,192,54906,1,0,0:0:0:0:
192,192,55082,1,0,0:0:0:0:
320,192,55082,1,0,0:0:0:0:
448,192,55259,1,0,0:0:0:0:
64,192,55347,1,0,0:0:0:0:
192,192,55523,1,0,0:0:0:0:
320,192,55611,1,0,0:0:0:0:
448,192,55611,1,0,0:0:0:0:
64,192,55788,1,0,0:0:0:0:
192,192,55876,1,0,0:0:0:0:
448,192,56052,1,0,0:0:0:0:
320,192,56052,1,0,0:0:0:0:
64,192,56228,1,0,0:0:0:0:
192,192,56316,1,0,0:0:0:0:
448,192,56493,1,0,0:0:0:0:
320,192,56493,1,0,0:0:0:0:
192,192,56757,1,0,0:0:0:0:
448,192,56933,1,0,0:0:0:0:
320,192,56933,1,0,0:0:0:0:
64,192,57109,1,0,0:0:0:0:
192,192,57198,1,0,0:0:0:0:
448,192,57374,1,0,0:0:0:0:
192,192,57550,1,0,0:0:0:0:
320,192,57815,1,0,0:0:0:0:
64,192,57991,1,0,0:0:0:0:
320,192,58079,1,0,0:0:0:0:
448,192,58079,1,0,0:0:0:0:
192,192,58343,1,0,0:0:0:0:
448,192,58520,1,0,0:0:0:0:
320,192,58696,1,0,0:0:0:0:
64,192,58784,1,0,0:0:0:0:
192,192,58960,1,0,0:0:0:0:
448,192,59225,1,0,0:0:0:0:
320,192,59225,1,0,0:0:0:0:
64,192,59489,1,0,0:0:0:0:
320,192,59753,1,0,0:0:0:0:
320,192,59930,1,0,0:0:0:0:
448,192,60018,1,0,0:0:0:0:
192,192,60194,1,0,0:0:0:0:
64,192,60282,1,0,0:0:0:0:
448,192,60370,1,0,0:0:0:0:
192,192,60547,1,0,0:0:0:0:
448,192,60635,1,0,0:0:0:0:
320,192,60635,1,0,0:0:0:0:
64,192,60899,1,0,0:0:0:0:
448,192,61075,1,0,0:0:0:0:
192,192,61340,1,0,0:0:0:0:
320,192,61692,1,0,0:0:0:0:
64,192,61692,1,0,0:0:0:0:
448,192,61957,1,0,0:0:0:0:
192,192,62221,1,0,0:0:0:0:
320,192,62397,1,0,0:0:0:0:
64,192,62486,1,0,0:0:0:0:
448,192,62662,1,0,0:0:0:0:
320,192,62926,1,0,0:0:0:0:
192,192,63103,1,0,0:0:0:0:
64,192,63455,1,0,0:0:0:0:
448,192,63543,1,0,0:0:0:0:
192,192,63719,1,0,0:0:0:0:
320,192,63984,1,0,0:0:0:0:
64,192,64072,1,0,0:0:0:0:
448,192,64248,1,0,0:0:0:0:
192,192,64425,1,0,0:0:0:0:
448,192,64601,1,0,0:0:0:0:
64,192,64777,1,0,0:0:0:0:
320,192,64953,1,0,0:0:0:0:
192,192,65041,1,0,0:0:0:0:
448,192,65306,1,0,0:0:0:0:
64,192,65306,1,0,0:0:0:0:
192,192,65746,1,0,0:0:0:0:
448,192,65923,1,0,0:0:0:0:
64,192,66011,1,0,0:0:0:0:
192,192,66363,1,0,0:0:0:0:
320,192,66452,1,0,0:0:0:0:
320,192,66804,1,0,0:0:0:0:
448,192,66980,1,0,0:0:0:0:
192,192,67157,1,0,0:0:0:0:
192,192,67421,1,0,0:0:0:0:
192,192,67597,1,0,0:0:0:0:
192,192,67862,1,0,0:0:0:0:
64,192,68038,1,0,0:0:0:0:
448,192,68038,1,0,0:0:0:0:
192,192,68302,1,0,0:0:0:0:
448,192,68655,1,0,0:0:0:0:
320,192,69007,1,0,0:0:0:0:
64,192,69184,1,0,0:0:0:0:
192,192,69360,1,0,0:0:0:0:
320,192,69536,1,0,0:0:0:0:
448,192,69712,1,0,0:0:0:0:
320,192,69889,1,0,0:0:0:0:
192,192,70241,1,0,0:0:0:0:
64,192,70594,1,0,0:0:0:0:
192,192,70858,1,0,0:0:0:0:
320,192,71123,1,0,0:0:0:0:
448,192,71387,1,0,0:0:0:0:
320,192,71651,1,0,0:0:0:0:
192,192,71828,1,0,0:0:0:0:
64,192,72180,1,0,0:0:0:0:
192,192,72445,1,0,0:0:0:0:
448,192,72533,1,0,0:0:0:0:
192,192,72885,1,0,0:0:0:0:
64,192,73150,1,0,0:0:0:0:
192,192,73414,1,0,0:0:0:0:
448,192,73502,1,0,0:0:0:0:
192,192,73855,1,0,0:0:0:0:
320,192,74031,1,0,0:0:0:0:
192,192,74295,1,0,0:0:0:0:
320,192,74648,1,0,0:0:0:0:
192,192,74824,1,0,0:0:0:0:
448,192,75089,1,0,0:0:0:0:
64,192,75353,1,0,0:0:0:0:
192,192,75794,1,0,0:0:0:0:
448,192,75882,1,0,0:0:0:0:
64,192,76322,128,0,78438:0:0:0:0:
448,192,76322,128,0,78438:0:0:0:0:
192,192,76675,1,0,0:0:0:0:
320,192,76763,1,0,0:0:0:0:
192,192,77116,1,0,0:0:0:0:
320,192,77380,1,0,0:0:0:0:
192,192,77733,1,0,0:0:0:0:
320,192,77733,1,0,0:0:0:0:
192,192,77997,1,0,0:0:0:0:
320,192,77997,1,0,0:0:0:0:
192,192,78349,1,0,0:0:0:0:
448,192,78702,1,0,0:0:0:0:
64,192,78790,1,0,0:0:0:0:
64,192,79495,1,0,0:0:0:0:
448,192,79495,1,0,0:0:0:0:
448,192,79936,1,0,0:0:0:0:
64,192,79936,1,0,0:0:0:0:
192,192,79936,1,0,0:0:0:0:
320,192,79936,1,0,0:0:0:0:
448,192,80112,1,0,0:0:0:0:
64,192,80112,1,0,0:0:0:0:
448,192,80288,1,0,0:0:0:0:
320,192,80288,1,0,0:0:0:0:
64,192,80377,1,0,0:0:0:0:
320,192,80905,1,0,0:0:0:0:
448,192,80905,1,0,0:0:0:0:
448,192,81170,1,0,0:0:0:0:
64,192,81258,1,0,0:0:0:0:
320,192,81346,1,0,0:0:0:0:
192,192,81522,1,0,0:0:0:0:
448,192,81699,1,0,0:0:0:0:
320,192,81699,1,0,0:0:0:0:
64,192,81963,1,0,0:0:0:0:
448,192,82051,1,0,0:0:0:0:
64,192,82227,1,0,0:0:0:0:
448,192,82404,1,0,0:0:0:0:
448,192,82844,1,0,0:0:0:0:
64,192,82932,1,0,0:0:0:0:
448,192,83021,1,0,0:0:0:0:
64,192,83109,1,0,0:0:0:0:
448,192,83285,1,0,0:0:0:0:
64,192,83285,1,0,0:0:0:0:
320,192,83373,1,0,0:0:0:0:
192,192,83461,1,0,0:0:0:0:
448,192,83726,1,0,0:0:0:0:
64,192,83726,1,0,0:0:0:0:
448,192,83902,1,0,0:0:0:0:
64,192,83902,1,0,0:0:0:0:
448,192,84078,1,0,0:0:0:0:
64,192,84078,1,0,0:0:0:0:
448,192,84254,1,0,0:0:0:0:
192,192,84431,1,0,0:0:0:0:
320,192,84519,1,0,0:0:0:0:
448,192,84959,1,0,0:0:0:0:
64,192,85136,1,0,0:0:0:0:
192,192,85312,1,0,0:0:0:0:
320,192,85488,1,0,0:0:0:0:
192,192,85664,1,0,0:0:0:0:
448,192,85753,1,0,0:0:0:0:
320,192,85929,1,0,0:0:0:0:
64,192,85929,1,0,0:0:0:0:
192,192,86105,1,0,0:0:0:0:
320,192,86281,1,0,0:0:0:0:
64,192,86458,1,0,0:0:0:0:
448,192,86546,1,0,0:0:0:0:
320,192,86722,1,0,0:0:0:0:
64,192,86898,1,0,0:0:0:0:
448,192,87075,1,0,0:0:0:0:
192,192,87251,1,0,0:0:0:0:
320,192,87427,1,0,0:0:0:0:
64,192,87603,1,0,0:0:0:0:
448,192,87692,1,0,0:0:0:0:
192,192,87780,1,0,0:0:0:0:
448,192,88044,1,0,0:0:0:0:
64,192,88132,1,0,0:0:0:0:
192,192,88397,1,0,0:0:0:0:
448,192,88573,1,0,0:0:0:0:
64,192,88661,1,0,0:0:0:0:
320,192,88837,1,0,0:0:0:0:
448,192,88837,1,0,0:0:0:0:
192,192,88837,1,0,0:0:0:0:
448,192,89102,1,0,0:0:0:0:
192,192,89366,1,0,0:0:0:0:
448,192,89454,1,0,0:0:0:0:
64,192,89542,1,0,0:0:0:0:
192,192,89807,1,0,0:0:0:0:
448,192,89983,1,0,0:0:0:0:
64,192,90159,1,0,0:0:0:0:
320,192,90247,1,0,0:0:0:0:
192,192,90336,1,0,0:0:0:0:
64,192,90512,1,0,0:0:0:0:
192,192,90776,1,0,0:0:0:0:
320,192,90952,1,0,0:0:0:0:
448,192,91041,1,0,0:0:0:0:
320,192,91305,1,0,0:0:0:0:
192,192,91481,1,0,0:0:0:0:
64,192,91658,1,0,0:0:0:0:
448,192,91746,1,0,0:0:0:0:
192,192,91746,1,0,0:0:0:0:
448,192,92186,1,0,0:0:0:0:
320,192,92363,1,0,0:0:0:0:
192,192,92363,1,0,0:0:0:0:
64,192,92539,128,0,92980:0:0:0:0:
448,192,92627,1,0,0:0:0:0:
320,192,92891,1,0,0:0:0:0:
192,192,92980,1,0,0:0:0:0:
448,192,92980,1,0,0:0:0:0:
320,192,93156,1,0,0:0:0:0:
64,192,93332,1,0,0:0:0:0:
192,192,93420,1,0,0:0:0:0:
448,192,93508,1,0,0:0:0:0:
448,192,93861,128,0,95712:0:0:0:0:
64,192,93949,1,0,0:0:0:0:
64,192,94301,1,0,0:0:0:0:
192,192,94478,1,0,0:0:0:0:
64,192,94830,1,0,0:0:0:0:
192,192,95007,1,0,0:0:0:0:
64,192,95271,1,0,0:0:0:0:
192,192,95271,1,0,0:0:0:0:
192,192,95535,1,0,0:0:0:0:
448,192,96152,128,0,96681:0:0:0:0:
192,192,96505,1,0,0:0:0:0:
64,192,96505,1,0,0:0:0:0:
64,192,96769,1,0,0:0:0:0:
320,192,96945,1,0,0:0:0:0:
192,192,97034,1,0,0:0:0:0:
448,192,97210,1,0,0:0:0:0:
64,192,97386,1,0,0:0:0:0:
192,192,97474,1,0,0:0:0:0:
448,192,97651,1,0,0:0:0:0:
64,192,97827,1,0,0:0:0:0:
448,192,97915,1,0,0:0:0:0:
320,192,97915,1,0,0:0:0:0:
192,192,98179,1,0,0:0:0:0:
448,192,98179,1,0,0:0:0:0:
64,192,98179,1,0,0:0:0:0:
448,192,98620,1,0,0:0:0:0:
64,192,98708,1,0,0:0:0:0:
320,192,98708,1,0,0:0:0:0:
192,192,98708,1,0,0:0:0:0:
320,192,98884,1,0,0:0:0:0:
448,192,98884,1,0,0:0:0:0:
192,192,98884,1,0,0:0:0:0:
64,192,98884,1,0,0:0:0:0:
448,192,99061,1,0,0:0:0:0:
320,192,99061,1,0,0:0:0:0:
64,192,99061,1,0,0:0:0:0:
192,192,99061,1,0,0:0:0:0:
64,192,99413,1,0,0:0:0:0:
192,192,99413,1,0,0:0:0:0:
448,192,99413,1,0,0:0:0:0:
320,192,99413,1,0,0:0:0:0:
448,192,99766,1,0,0:0:0:0:
64,192,99942,1,0,0:0:0:0:
192,192,100118,1,0,0:0:0:0:
320,192,100383,1,0,0:0:0:0:
448,192,100559,1,0,0:0:0:0:
320,192,100823,1,0,0:0:0:0:
448,192,100911,1,0,0:0:0:0:
64,192,101088,1,0,0:0:0:0:
192,192,101176,1,0,0:0:0:0:
448,192,101528,1,0,0:0:0:0:
192,192,101617,1,0,0:0:0:0:
64,192,101617,1,0,0:0:0:0:
448,192,102057,1,0,0:0:0:0:
320,192,102057,1,0,0:0:0:0:
192,192,102322,1,0,0:0:0:0:
64,192,102322,1,0,0:0:0:0:
192,192,102762,1,0,0:0:0:0:
448,192,102850,1,0,0:0:0:0:
320,192,102850,1,0,0:0:0:0:
64,192,103379,1,0,0:0:0:0:
448,192,103379,1,0,0:0:0:0:
192,192,103644,1,0,0:0:0:0:
320,192,103732,1,0,0:0:0:0:
448,192,103996,1,0,0:0:0:0:
64,192,103996,1,0,0:0:0:0:
320,192,104172,1,0,0:0:0:0:
192,192,104260,1,0,0:0:0:0:
64,192,104437,1,0,0:0:0:0:
448,192,104437,1,0,0:0:0:0:
320,192,104789,1,0,0:0:0:0:
64,192,104966,1,0,0:0:0:0:
448,192,105054,1,0,0:0:0:0:
64,192,105671,1,0,0:0:0:0:
320,192,105671,1,0,0:0:0:0:
192,192,106023,1,0,0:0:0:0:
448,192,106023,1,0,0:0:0:0:
64,192,106288,1,0,0:0:0:0:
320,192,106288,1,0,0:0:0:0:
192,192,106552,1,0,0:0:0:0:
448,192,106640,1,0,0:0:0:0:
64,192,106904,1,0,0:0:0:0:
448,192,106904,1,0,0:0:0:0:
448,192,107345,1,0,0:0:0:0:
320,192,107345,1,0,0:0:0:0:
64,192,107433,1,0,0:0:0:0:
192,192,107433,1,0,0:0:0:0:
64,192,107874,1,0,0:0:0:0:
448,192,107874,1,0,0:0:0:0:
192,192,108226,1,0,0:0:0:0:
64,192,108226,1,0,0:0:0:0:
448,192,108226,1,0,0:0:0:0:
192,192,108667,1,0,0:0:0:0:
320,192,108667,1,0,0:0:0:0:
448,192,109284,1,0,0:0:0:0:
64,192,109284,1,0,0:0:0:0:
448,192,109460,1,0,0:0:0:0:
64,192,109460,1,0,0:0:0:0:
448,192,109548,1,0,0:0:0:0:
64,192,109637,1,0,0:0:0:0:
192,192,109813,1,0,0:0:0:0:
320,192,109813,1,0,0:0:0:0:
192,192,109989,1,0,0:0:0:0:
320,192,109989,1,0,0:0:0:0:
448,192,110165,1,0,0:0:0:0:
448,192,110430,1,0,0:0:0:0:
320,192,110430,1,0,0:0:0:0:
192,192,110518,1,0,0:0:0:0:
64,192,110606,1,0,0:0:0:0:
192,192,110782,1,0,0:0:0:0:
320,192,110870,1,0,0:0:0:0:
448,192,110959,1,0,0:0:0:0:
320,192,111135,1,0,0:0:0:0:
192,192,111135,1,0,0:0:0:0:
64,192,111311,1,0,0:0:0:0:
192,192,111399,1,0,0:0:0:0:
320,192,111399,1,0,0:0:0:0:
448,192,111576,1,0,0:0:0:0:
320,192,111664,1,0,0:0:0:0:
192,192,111752,1,0,0:0:0:0:
64,192,111928,1,0,0:0:0:0:
192,192,112016,1,0,0:0:0:0:
320,192,112016,1,0,0:0:0:0:
448,192,112192,1,0,0:0:0:0:
320,192,112281,1,0,0:0:0:0:
192,192,112457,1,0,0:0:0:0:
448,192,112457,1,0,0:0:0:0:
64,192,112545,1,0,0:0:0:0:
320,192,112633,1,0,0:0:0:0:
192,192,112721,1,0,0:0:0:0:
448,192,112809,1,0,0:0:0:0:
320,192,112897,1,0,0:0:0:0:
192,192,113074,1,0,0:0:0:0:
64,192,113162,1,0,0:0:0:0:
448,192,113338,1,0,0:0:0:0:
192,192,113338,1,0,0:0:0:0:
320,192,113338,1,0,0:0:0:0:
448,192,113514,1,0,0:0:0:0:
64,192,113514,1,0,0:0:0:0:
320,192,113603,1,0,0:0:0:0:
192,192,113691,1,0,0:0:0:0:
448,192,113867,1,0,0:0:0:0:
64,192,113867,1,0,0:0:0:0:
320,192,114043,1,0,0:0:0:0:
192,192,114043,1,0,0:0:0:0:
448,192,114219,1,0,0:0:0:0:
320,192,114308,1,0,0:0:0:0:
64,192,114484,1,0,0:0:0:0:
192,192,114572,1,0,0:0:0:0:
320,192,114660,1,0,0:0:0:0:
448,192,114748,1,0,0:0:0:0:
64,192,114748,1,0,0:0:0:0:
320,192,114925,1,0,0:0:0:0:
192,192,114925,1,0,0:0:0:0:
448,192,115013,1,0,0:0:0:0:
320,192,115189,1,0,0:0:0:0:
64,192,115189,1,0,0:0:0:0:
192,192,115365,1,0,0:0:0:0:
448,192,115453,1,0,0:0:0:0:
320,192,115541,1,0,0:0:0:0:
320,192,115630,1,0,0:0:0:0:
192,192,115718,1,0,0:0:0:0:
64,192,115894,1,0,0:0:0:0:
448,192,115894,1,0,0:0:0:0:
320,192,116070,1,0,0:0:0:0:
192,192,116158,1,0,0:0:0:0:
448,192,116335,1,0,0:0:0:0:
64,192,116335,1,0,0:0:0:0:
320,192,116423,1,0,0:0:0:0:
192,192,116511,1,0,0:0:0:0:
64,192,116775,1,0,0:0:0:0:
320,192,116952,1,0,0:0:0:0:
192,192,116952,1,0,0:0:0:0:
448,192,117128,1,0,0:0:0:0:
64,192,117216,1,0,0:0:0:0:
192,192,117392,1,0,0:0:0:0:
320,192,117392,1,0,0:0:0:0:
64,192,117657,1,0,0:0:0:0:
448,192,117657,1,0,0:0:0:0:
192,192,118185,1,0,0:0:0:0:
320,192,118185,1,0,0:0:0:0:
192,192,118362,1,0,0:0:0:0:
320,192,118450,1,0,0:0:0:0:
64,192,118626,1,0,0:0:0:0:
448,192,118714,1,0,0:0:0:0:
64,192,118891,1,0,0:0:0:0:
192,192,118979,1,0,0:0:0:0:
448,192,119155,1,0,0:0:0:0:
64,192,119331,1,0,0:0:0:0:
320,192,119596,1,0,0:0:0:0:
192,192,119772,1,0,0:0:0:0:
320,192,120036,1,0,0:0:0:0:
448,192,120036,1,0,0:0:0:0:
192,192,120213,1,0,0:0:0:0:
320,192,120389,1,0,0:0:0:0:
448,192,120389,1,0,0:0:0:0:
64,192,120741,1,0,0:0:0:0:
192,192,120741,1,0,0:0:0:0:
320,192,120918,1,0,0:0:0:0:
448,192,120918,1,0,0:0:0:0:
64,192,121006,1,0,0:0:0:0:
192,192,121094,1,0,0:0:0:0:
320,192,121182,1,0,0:0:0:0:
448,192,121270,1,0,0:0:0:0:
192,192,121446,1,0,0:0:0:0:
320,192,121534,1,0,0:0:0:0:
192,192,121711,1,0,0:0:0:0:
64,192,121799,1,0,0:0:0:0:
448,192,121799,1,0,0:0:0:0:
320,192,121887,1,0,0:0:0:0:
192,192,122063,1,0,0:0:0:0:
64,192,122240,1,0,0:0:0:0:
448,192,122240,1,0,0:0:0:0:
320,192,122416,1,0,0:0:0:0:
192,192,122504,1,0,0:0:0:0:
64,192,122680,1,0,0:0:0:0:
448,192,122680,1,0,0:0:0:0:
192,192,122856,1,0,0:0:0:0:
320,192,122945,1,0,0:0:0:0:
64,192,123121,1,0,0:0:0:0:
448,192,123209,1,0,0:0:0:0:
320,192,123297,1,0,0:0:0:0:
192,192,123385,1,0,0:0:0:0:
320,192,123562,1,0,0:0:0:0:
64,192,123650,1,0,0:0:0:0:
192,192,123826,1,0,0:0:0:0:
320,192,123914,1,0,0:0:0:0:
64,192,124178,1,0,0:0:0:0:
448,192,124178,1,0,0:0:0:0:
320,192,124267,1,0,0:0:0:0:
192,192,124443,1,0,0:0:0:0:
64,192,124619,1,0,0:0:0:0:
320,192,124707,1,0,0:0:0:0:
192,192,124884,1,0,0:0:0:0:
448,192,125060,1,0,0:0:0:0:
320,192,125236,1,0,0:0:0:0:
64,192,125236,1,0,0:0:0:0:
192,192,125412,1,0,0:0:0:0:
448,192,125589,1,0,0:0:0:0:
64,192,125677,1,0,0:0:0:0:
192,192,125853,1,0,0:0:0:0:
320,192,125941,1,0,0:0:0:0:
64,192,126117,1,0,0:0:0:0:
192,192,126294,1,0,0:0:0:0:
320,192,126294,1,0,0:0:0:0:
448,192,126294,1,0,0:0:0:0:
64,192,126558,1,0,0:0:0:0:
448,192,126646,1,0,0:0:0:0:
64,192,126911,128,0,128409:0:0:0:0:
448,192,126911,128,0,128409:0:0:0:0:
320,192,127175,1,0,0:0:0:0:
192,192,127175,1,0,0:0:0:0:
320,192,127704,1,0,0:0:0:0:
192,192,127704,1,0,0:0:0:0:
192,192,128233,1,0,0:0:0:0:
320,192,128233,1,0,0:0:0:0:
64,192,128761,1,0,0:0:0:0:
448,192,128761,1,0,0:0:0:0:
320,192,129290,1,0,0:0:0:0:
192,192,129290,1,0,0:0:0:0:
64,192,129290,1,0,0:0:0:0:
320,192,129466,1,0,0:0:0:0:
192,192,129466,1,0,0:0:0:0:
64,192,129731,1,0,0:0:0:0:
448,192,129731,1,0,0:0:0:0:
64,192,130172,1,0,0:0:0:0:
448,192,130172,1,0,0:0:0:0:
320,192,130700,1,0,0:0:0:0:
192,192,130700,1,0,0:0:0:0:
448,192,130965,1,0,0:0:0:0:
64,192,130965,1,0,0:0:0:0:
448,192,131141,1,0,0:0:0:0:
64,192,131141,1,0,0:0:0:0:
192,192,131493,1,0,0:0:0:0:
320,192,131493,1,0,0:0:0:0:
448,192,131846,1,0,0:0:0:0:
64,192,131846,1,0,0:0:0:0:
192,192,132287,1,0,0:0:0:0:
320,192,132287,1,0,0:0:0:0:
64,192,132639,1,0,0:0:0:0:
448,192,132639,1,0,0:0:0:0:
192,192,132904,1,0,0:0:0:0:
320,192,132992,1,0,0:0:0:0:
64,192,133168,1,0,0:0:0:0:
320,192,133168,1,0,0:0:0:0:
192,192,133432,1,0,0:0:0:0:
448,192,133432,1,0,0:0:0:0:
320,192,133609,1,0,0:0:0:0:
64,192,133697,1,0,0:0:0:0:
192,192,133873,1,0,0:0:0:0:
448,192,133961,1,0,0:0:0:0:
64,192,134049,1,0,0:0:0:0:
320,192,134137,1,0,0:0:0:0:
448,192,134314,1,0,0:0:0:0:
64,192,134578,1,0,0:0:0:0:
448,192,134666,1,0,0:0:0:0:
320,192,134754,1,0,0:0:0:0:
192,192,135019,1,0,0:0:0:0:
320,192,135283,1,0,0:0:0:0:
192,192,135548,1,0,0:0:0:0:
320,192,135548,1,0,0:0:0:0:
448,192,135812,128,0,136165:0:0:0:0:
64,192,135812,128,0,136165:0:0:0:0:
192,192,136341,1,0,0:0:0:0:
320,192,136341,1,0,0:0:0:0:
64,192,136781,1,0,0:0:0:0:
448,192,136870,1,0,0:0:0:0:
192,192,137310,1,0,0:0:0:0:
320,192,137310,1,0,0:0:0:0:
192,192,137663,1,0,0:0:0:0:
448,192,137839,1,0,0:0:0:0:
64,192,138015,1,0,0:0:0:0:
320,192,138192,1,0,0:0:0:0:
192,192,138368,1,0,0:0:0:0:
320,192,138544,1,0,0:0:0:0:
192,192,138809,1,0,0:0:0:0:
448,192,139073,1,0,0:0:0:0:
64,192,139073,1,0,0:0:0:0:
320,192,139337,1,0,0:0:0:0:
192,192,139337,1,0,0:0:0:0:
192,192,139602,1,0,0:0:0:0:
320,192,139602,1,0,0:0:0:0:
64,192,139690,1,0,0:0:0:0:
64,192,139954,128,0,142069:0:0:0:0:
448,192,139954,128,0,142158:0:0:0:0:
192,192,140307,1,0,0:0:0:0:
192,192,140395,1,0,0:0:0:0:
320,192,140395,1,0,0:0:0:0:
192,192,140924,1,0,0:0:0:0:
320,192,140924,1,0,0:0:0:0:
320,192,141452,1,0,0:0:0:0:
192,192,141452,1,0,0:0:0:0:
320,192,141981,1,0,0:0:0:0:
192,192,141981,1,0,0:0:0:0:
320,192,142334,1,0,0:0:0:0:
64,192,142422,1,0,0:0:0:0:
448,192,142863,1,0,0:0:0:0:
192,192,142863,1,0,0:0:0:0:
64,192,143303,1,0,0:0:0:0:
320,192,143303,1,0,0:0:0:0:
448,192,143303,1,0,0:0:0:0:
192,192,143744,1,0,0:0:0:0:
448,192,143744,1,0,0:0:0:0:
64,192,144273,1,0,0:0:0:0:
320,192,144273,1,0,0:0:0:0:
448,192,144273,1,0,0:0:0:0:
192,192,144802,1,0,0:0:0:0:
448,192,144802,1,0,0:0:0:0:
320,192,145066,1,0,0:0:0:0:
64,192,145242,1,0,0:0:0:0:
448,192,145242,1,0,0:0:0:0:
320,192,145418,1,0,0:0:0:0:
192,192,145507,1,0,0:0:0:0:
448,192,145683,1,0,0:0:0:0:
64,192,145771,1,0,0:0:0:0:
192,192,145947,1,0,0:0:0:0:
448,192,146212,1,0,0:0:0:0:
64,192,146212,1,0,0:0:0:0:
448,192,146476,1,0,0:0:0:0:
64,192,146476,1,0,0:0:0:0:
448,192,146917,1,0,0:0:0:0:
64,192,146917,1,0,0:0:0:0:
448,192,147093,1,0,0:0:0:0:
64,192,147093,1,0,0:0:0:0:
448,192,147446,1,0,0:0:0:0:
64,192,147446,1,0,0:0:0:0:
448,192,147622,1,0,0:0:0:0:
192,192,147622,1,0,0:0:0:0:
320,192,147710,1,0,0:0:0:0:
448,192,148062,1,0,0:0:0:0:
64,192,148062,1,0,0:0:0:0:
192,192,148591,1,0,0:0:0:0:
320,192,148591,1,0,0:0:0:0:
448,192,148768,1,0,0:0:0:0:
64,192,148856,1,0,0:0:0:0:
192,192,149032,1,0,0:0:0:0:
320,192,149032,1,0,0:0:0:0:
448,192,149208,1,0,0:0:0:0:
64,192,149296,1,0,0:0:0:0:
320,192,149473,1,0,0:0:0:0:
192,192,149473,1,0,0:0:0:0:
448,192,149649,1,0,0:0:0:0:
64,192,149649,1,0,0:0:0:0:
192,192,149825,1,0,0:0:0:0:
320,192,149825,1,0,0:0:0:0:
448,192,150089,1,0,0:0:0:0:
64,192,150089,1,0,0:0:0:0:
192,192,150266,1,0,0:0:0:0:
320,192,150266,1,0,0:0:0:0:
64,192,150530,1,0,0:0:0:0:
448,192,150530,1,0,0:0:0:0:
192,192,150706,1,0,0:0:0:0:
320,192,150706,1,0,0:0:0:0:
64,192,151235,1,0,0:0:0:0:
448,192,151235,1,0,0:0:0:0:
64,192,151500,1,0,0:0:0:0:
320,192,151676,1,0,0:0:0:0:
192,192,151764,1,0,0:0:0:0:
448,192,152028,1,0,0:0:0:0:
448,192,152293,128,0,153439:0:0:0:0:
192,192,152381,1,0,0:0:0:0:
64,192,152645,128,0,153439:0:0:0:0:
192,192,153527,128,0,154055:0:0:0:0:
320,192,153615,128,0,154055:0:0:0:0:
448,192,154144,128,0,155994:0:0:0:0:
64,192,154496,128,0,155113:0:0:0:0:
192,192,155201,1,0,0:0:0:0:
192,192,155818,1,0,0:0:0:0:
64,192,155818,128,0,156347:0:0:0:0:
320,192,155906,1,0,0:0:0:0:
320,192,156611,128,0,158550:0:0:0:0:
192,192,156964,1,0,0:0:0:0:
64,192,157316,1,0,0:0:0:0:
448,192,157405,1,0,0:0:0:0:
192,192,157757,1,0,0:0:0:0:
64,192,158110,1,0,0:0:0:0:
64,192,158462,1,0,0:0:0:0:
448,192,158462,1,0,0:0:0:0:
