osu file format v14

[General]
AudioFilename: audio.mp3
AudioLeadIn: 0
PreviewTime: -1
Countdown: 0
SampleSet: Normal
StackLeniency: 0.6
Mode: 0
LetterboxInBreaks: 0
WidescreenStoryboard: 0

[Editor]
DistanceSpacing: 2.5
BeatDivisor: 4
GridSize: 16
TimelineZoom: 2.2

[Metadata]
Title:Breakthrough
TitleUnicode:Breakthrough
Artist:Coming Century
ArtistUnicode:Coming Century
Creator:Takuya Yamanaka
Version:Eyeshield
Source:Eyeshield 21
Tags:Eyeshield 21
BeatmapID:2084713
BeatmapSetID:996675

[Difficulty]
HPDrainRate:6
CircleSize:4
OverallDifficulty:7
ApproachRate:8
SliderMultiplier:1.6
SliderTickRate:1

[Events]
//Background and Video events
0,0,"cropped-1920-1080-968056.jpg",0,0
//Break Periods
2,14280,23203
//Storyboard Layer 0 (Background)
//Storyboard Layer 1 (Fail)
//Storyboard Layer 2 (Pass)
//Storyboard Layer 3 (Foreground)
//Storyboard Sound Samples

[TimingPoints]
1169,379.746835443038,4,1,0,100,1,0
7244,-66.6666666666667,4,1,0,100,0,0
7624,-100,4,1,0,100,0,0
8763,-66.6666666666667,4,1,0,100,0,0
9143,-100,4,1,0,100,0,0
9903,-66.6666666666667,4,1,0,100,0,0
11042,-100,4,1,0,100,0,0
37624,-200,4,1,0,100,0,0
38194,-100,4,1,0,100,0,0
40662,-200,4,1,0,100,0,0
41422,-100,4,1,0,100,0,0
42181,-200,4,1,0,100,0,0
42941,-100,4,1,0,100,0,0
43510,-200,4,1,0,100,0,0
44080,-100,4,1,0,100,0,0
44839,-66.6666666666667,4,1,0,100,0,0
45599,-100,4,1,0,100,0,0

[HitObjects]
70,339,1169,6,0,L|63:252,1,80,0|0,0:3|0:3,0:3:0:0:
14,171,1548,2,0,P|86:136|165:152,1,160
161,150,2118,1,0,0:0:0:0:
267,152,2308,2,0,L|272:252,1,80
271,230,2687,5,0,0:0:0:0:
271,230,2877,1,0,0:0:0:0:
283,333,3067,2,0,L|362:332,1,80,0|0,0:3|0:3,0:3:0:0:
455,322,3447,2,0,P|453:274|439:224,1,80,0|0,3:0|3:0,3:0:0:0:
431,159,3827,2,0,P|383:163|332:160,1,80,0|0,3:0|3:0,3:0:0:0:
279,242,4206,6,0,L|227:241,4,40
231,136,4776,5,0,0:0:0:0:
241,39,4966,2,0,P|194:39|141:42,1,80
64,54,5346,2,0,L|61:133,1,80
59,222,5724,1,0,0:0:0:0:
57,312,5914,1,0,0:0:0:0:
175,320,6105,6,0,L|172:240,1,80
172,149,6485,1,0,0:0:0:0:
277,151,6675,1,0,0:0:0:0:
172,149,6865,2,0,P|116:149|74:161,1,80
59,294,7244,2,0,L|186:292,1,120.000004577637
291,299,7624,6,0,L|288:218,1,80
278,137,8004,1,0,0:0:0:0:
393,131,8194,1,0,0:0:0:0:
393,131,8384,2,0,L|414:220,1,80
435,304,8763,2,0,L|315:305,1,120.000004577637
213,323,9143,6,0,P|203:278|183:220,1,80
155,170,9523,1,0,0:0:0:0:
88,113,9713,1,0,0:0:0:0:
28,174,9903,2,0,P|14:240|14:301,1,120
145,289,10282,2,0,P|149:229|154:169,1,120.000004577637
165,81,10662,1,0,0:0:0:0:
280,82,10852,5,0,0:0:0:0:
367,82,11042,2,0,L|468:82,1,80
454,183,11422,2,0,L|374:183,1,80
278,182,11801,2,0,P|264:265|260:272,1,80
266,259,12086,1,0,0:0:0:0:
266,259,12181,1,0,0:0:0:0:
178,213,12371,5,0,0:0:0:0:
73,182,12561,2,0,P|87:265|91:272,1,80
84,259,12846,1,0,0:0:0:0:
84,259,12941,1,0,0:0:0:0:
256,192,13320,12,0,14080,0:0:0:0:
412,92,23953,6,0,P|367:96|318:138,1,80
409,189,24333,1,0,0:0:0:0:
304,39,24523,1,0,0:0:0:0:
304,39,24618,1,0,0:0:0:0:
304,39,24713,1,0,0:0:0:0:
179,73,24903,5,0,0:0:0:0:
179,73,25093,2,0,L|181:191,1,80
256,236,25472,2,0,B|211:272|140:273|85:230,1,160
25,205,26042,1,0,0:0:0:0:
58,93,26232,5,0,0:0:0:0:
179,73,26422,1,0,0:0:0:0:
186,178,26612,2,0,P|236:166|271:141,1,80
311,59,26991,2,0,L|404:59,1,80
455,130,27371,2,0,L|455:213,1,80
461,308,27751,5,0,0:0:0:0:
384,248,27941,1,0,0:0:0:0:
313,311,28131,2,0,L|230:309,1,80
144,370,28510,2,0,B|116:310|115:257|144:215,1,160
205,142,29080,5,0,0:0:0:0:
205,142,29270,2,0,P|157:121|118:113,1,80
89,195,29650,2,0,P|58:229|45:268,1,80
57,342,30029,2,0,L|167:343,1,80
232,336,30409,2,0,P|244:284|270:242,1,80
294,174,30789,5,0,0:0:0:0:
380,244,30979,1,0,0:0:0:0:
468,174,31169,2,0,L|452:72,1,80
355,50,31548,2,0,P|309:59|267:56,1,80
178,56,31928,5,0,0:0:0:0:
54,54,32118,1,0,0:0:0:0:
178,56,32308,2,0,L|178:151,1,80
180,230,32687,1,0,0:0:0:0:
258,303,32877,1,0,0:0:0:0:
365,307,33067,6,0,P|385:229|357:149,1,160
308,82,33637,1,0,0:0:0:0:
217,80,33827,2,0,L|129:80,1,80
18,115,34206,1,0,0:0:0:0:
115,186,34396,1,0,0:0:0:0:
115,186,34586,6,0,L|288:185,1,160
385,250,35156,1,0,0:0:0:0:
308,313,35346,1,0,0:0:0:0:
474,310,35536,1,0,0:0:0:0:
466,183,35725,2,0,L|400:112,1,80
329,61,36105,6,0,P|277:75|251:97,1,80
256,90,36390,1,0,0:0:0:0:
256,90,36485,1,0,0:0:0:0:
305,187,36675,5,0,0:0:0:0:
209,224,36865,6,0,P|157:210|131:188,1,80
136,195,37150,1,0,0:0:0:0:
136,195,37245,1,0,0:0:0:0:
43,131,37434,5,0,0:0:0:0:
43,131,37624,2,0,L|43:247,1,80
43,308,38194,1,0,0:0:0:0:
148,340,38384,2,0,P|177:288|216:257,1,80
256,209,38763,1,0,0:0:0:0:
333,315,38953,1,0,0:0:0:0:
333,315,39143,6,0,P|364:278|390:223,1,80
468,198,39523,2,0,P|433:147|419:101,1,80
383,45,39903,1,0,0:0:0:0:
304,124,40093,1,0,0:0:0:0:
224,46,40282,2,0,P|183:57|144:82,1,80
68,127,40662,2,0,L|68:218,1,80
63,304,41232,5,0,0:0:0:0:
172,308,41422,2,0,L|170:218,1,80
239,156,41801,1,0,0:0:0:0:
239,156,41991,1,0,0:0:0:0:
236,48,42181,2,0,L|333:48,1,80
408,75,42751,5,0,0:0:0:0:
348,154,42941,2,0,P|383:177|430:171,2,80
239,156,43510,2,0,L|238:236,1,80
257,335,44080,2,0,L|151:336,1,80
91,336,44460,5,0,0:0:0:0:
165,238,44650,1,0,0:0:0:0:
49,233,44839,2,0,P|35:179|67:118,1,120.000004577637
141,66,45219,1,0,0:0:0:0:
141,66,45409,1,0,0:0:0:0:
157,173,45599,6,0,P|211:158|253:127,1,80
261,39,45979,6,0,P|317:58|357:85,1,80
334,68,46263,1,0,0:0:0:0:
334,68,46358,1,0,0:0:0:0:
426,132,46548,2,0,L|429:219,1,80
432,309,46928,5,0,0:0:0:0:
322,236,47118,1,0,0:0:0:0:
254,320,47308,5,0,0:0:0:0:
142,248,47498,1,0,0:0:0:0:
247,132,47687,5,0,0:0:0:0:
247,132,47782,1,0,0:0:0:0:
247,132,47877,1,0,0:0:0:0:
120,64,48067,1,0,0:0:0:0:
52,161,48257,2,0,P|53:209|66:255,1,80
60,239,48542,1,0,0:0:0:0:
60,239,48637,1,0,0:0:0:0:
161,328,48827,5,0,0:0:0:0:
247,218,49017,1,0,0:0:0:0:
247,218,49112,1,0,0:0:0:0:
247,218,49206,1,0,0:0:0:0:
330,304,49396,6,0,P|375:278|412:234,1,80
395,258,49681,1,0,0:0:0:0:
394,258,49776,1,0,0:0:0:0:
422,71,50156,6,0,P|382:62|340:61,1,80
243,58,50536,2,0,L|246:142,1,80
246,220,50915,1,0,0:0:0:0:
246,220,51105,1,0,0:0:0:0:
324,289,51295,2,0,P|269:314|220:309,1,80
159,333,51675,6,0,L|147:154,1,160
148,74,52244,1,0,0:0:0:0:
148,74,52434,2,0,P|215:82|236:75,1,80
265,154,52814,2,0,P|272:204|289:252,1,80
405,302,53194,2,0,L|234:309,2,160
401,148,54143,5,0,0:0:0:0:
397,47,54333,2,0,P|328:47|290:55,1,80
234,41,54713,2,0,L|231:140,1,80
228,200,55093,2,0,P|179:215|125:204,1,80
59,212,55472,5,0,0:0:0:0:
59,315,55662,1,0,0:0:0:0:
59,315,55757,1,0,0:0:0:0:
59,315,55852,2,0,B|128:306|169:344|232:318,1,160
320,308,56422,1,0,0:0:0:0:
422,309,56612,1,0,0:0:0:0:
422,309,56801,1,0,0:0:0:0:
320,308,56991,6,0,L|319:143,1,160
318,60,57561,1,0,0:0:0:0:
214,73,57751,2,0,P|169:78|131:84,2,80
193,174,58320,5,0,0:0:0:0:
195,270,58510,2,0,P|152:270|79:270,1,80
64,344,58890,2,0,L|258:345,1,160
308,338,59460,1,0,0:0:0:0:
418,341,59650,6,0,P|410:282|416:228,1,80
409,181,60029,2,0,P|408:122|419:69,1,80
424,25,60409,2,0,L|257:31,1,160
173,32,60979,1,0,0:0:0:0:
69,44,61169,2,0,P|71:96|91:129,1,80
83,120,61453,1,0,0:0:0:0:
83,120,61548,1,0,0:0:0:0:
175,180,61738,5,0,0:0:0:0:
244,266,61928,2,0,P|168:286|96:257,2,160
337,221,62877,1,0,0:0:0:0:
337,221,63067,2,0,L|328:129,1,80
429,124,63447,2,0,L|438:203,1,80
457,288,63827,2,0,P|379:304|293:312,1,160
212,310,64396,1,0,0:0:0:0:
133,373,64586,6,0,P|95:297|108:217,1,160
142,142,65156,1,0,0:0:0:0:
89,63,65346,2,0,P|167:60|254:65,1,160
350,69,65915,5,0,0:0:0:0:
350,69,66105,2,0,L|356:152,1,80
369,239,66485,2,0,P|289:244|209:237,1,160
126,224,67055,1,0,0:0:0:0:
126,224,67244,2,0,L|118:119,1,80
114,64,67624,1,0,0:0:0:0:
217,58,67814,5,0,0:0:0:0:
204,151,68004,2,0,P|255:144|291:125,1,80
364,69,68384,2,0,B|358:131|380:180|373:238,1,160
377,315,68953,1,0,0:0:0:0:
277,320,69143,2,0,P|291:270|332:241,2,80
185,313,69713,5,0,0:0:0:0:
86,328,69903,2,0,P|57:280|50:232,1,80
51,257,70187,1,0,0:0:0:0:
51,257,70282,1,0,0:0:0:0:
79,158,70472,5,0,0:0:0:0:
184,170,70662,2,0,P|170:104|93:57,2,160
167,257,71612,1,0,0:0:0:0:
254,241,71801,1,0,0:0:0:0:
334,209,71991,1,0,0:0:0:0:
418,178,72181,2,0,P|457:265|434:360,2,160
363,104,73131,5,0,0:0:0:0:
270,104,73320,2,0,L|182:108,1,80
190,107,73605,1,0,0:0:0:0:
190,107,73700,1,0,0:0:0:0:
106,118,73890,5,0,0:0:0:0:
103,203,74080,2,0,P|111:260|131:299,1,80
191,334,74460,2,0,L|354:327,1,160
441,325,75029,1,0,0:0:0:0:
443,248,75219,2,0,P|444:186|435:142,1,80
367,98,75599,6,0,L|195:93,2,160
347,198,76548,1,0,0:0:0:0:
347,198,76738,2,0,P|274:203|236:199,1,80
172,201,77118,2,0,P|137:175|112:146,1,80
113,147,77403,1,0,0:0:0:0:
113,147,77498,1,0,0:0:0:0:
192,78,77687,5,0,0:0:0:0:
261,153,77877,2,0,P|295:127|320:98,1,80
319,99,78162,1,0,0:0:0:0:
319,99,78257,1,0,0:0:0:0:
420,66,78447,1,0,0:0:0:0:
420,66,78637,2,0,L|419:225,1,160
413,318,79206,5,0,0:0:0:0:
320,324,79396,1,0,0:0:0:0:
232,327,79586,1,0,0:0:0:0:
