osu file format v14

[General]
AudioFilename: audio.mp3
AudioLeadIn: 0
PreviewTime: 1500
Countdown: 1
SampleSet: None
StackLeniency: 0.7
Mode: 0
LetterboxInBreaks: 0
WidescreenStoryboard: 1

[Editor]
DistanceSpacing: 0.7
BeatDivisor: 4
GridSize: 4
TimelineZoom: 1

[Metadata]
Title:Memories
TitleUnicode:Memories
Artist:Comic Girls (Akao Hikaru, Hondo Kaede, Onishi Saori, Takahashi Rie)
ArtistUnicode:こみっくがーるず(赤尾ひかる、本渡楓、大西沙織、高橋李依)
Creator:Batae
Version:Normal
Source:こみっくがーるず
Tags:
BeatmapID:1699810
BeatmapSetID:809718

[Difficulty]
HPDrainRate:4
CircleSize:3
OverallDifficulty:4
ApproachRate:4
SliderMultiplier:1.60000000596046
SliderTickRate:2

[Events]
//Background and Video events
0,0,"Comic-Girls-Capa.jpg",0,0
//Break Periods
//Storyboard Layer 0 (Background)
//Storyboard Layer 1 (Fail)
//Storyboard Layer 2 (Pass)
//Storyboard Layer 3 (Foreground)
//Storyboard Sound Samples

[TimingPoints]
1685,337.078651685393,4,1,0,100,1,0
1685,-200,4,1,0,50,0,0
2780,-250,4,1,0,55,0,0
4381,-200,4,1,0,60,0,0
6235,-250,4,1,0,60,0,0
7246,-200,4,1,0,65,0,0
17527,-200,4,1,0,70,0,0
25786,-200,4,1,0,55,0,0
29831,-200,4,1,0,60,0,0
30589,-250,4,1,0,60,0,0
31684,-200,4,1,0,55,0,0
33286,-250,4,1,0,55,0,0
35729,-250,4,1,0,60,0,0
36572,-200,4,1,0,60,0,0
37583,-250,4,1,0,55,0,0
45505,-250,4,1,0,60,0,0
47106,-250,4,1,0,60,0,0
51825,-250,4,1,0,65,0,0
59831,-200,4,1,0,70,0,1
70280,-200,4,1,0,70,0,0
70954,-250,4,1,0,60,0,0
77106,-200,4,1,0,65,0,1
81235,-200,4,1,0,65,0,0

[Colours]
Combo1 : 64,0,128
Combo2 : 236,70,223
Combo3 : 255,250,23
Combo4 : 0,255,255

[HitObjects]
76,228,1685,5,0,0:0:0:0:
80,140,2190,2,0,P|116:97|140:88,1,80.000000298023
289,75,2864,2,0,P|345:90|350:131,1,96.0000003576276
265,219,3707,2,0,P|215:247|172:225,1,96.0000003576276
102,122,4550,5,0,0:0:0:0:
221,47,4887,2,0,P|301:51|328:89,1,120.000000447034
349,224,5729,1,0,0:0:0:0:
226,303,6067,1,0,0:0:0:0:
105,274,6404,2,0,P|64:216|96:191,1,128.000000476837
111,63,7415,5,0,0:0:0:0:
241,71,7752,2,0,P|319:53|374:111,1,160.000000596046
368,217,8763,2,0,P|293:271|215:281,1,160.000000596046
86,221,10111,1,0,0:0:0:0:
71,103,10449,1,0,0:0:0:0:
178,48,10786,1,0,0:0:0:0:
280,53,11123,2,0,P|367:72|412:139,1,160.000000596046
400,213,12134,5,0,0:0:0:0:
305,278,12471,1,0,0:0:0:0:
201,290,12808,2,0,P|140:295|129:204,1,160.000000596046
65,194,14493,5,0,0:0:0:0:
81,70,14831,1,0,0:0:0:0:
216,49,15168,1,0,0:0:0:0:
342,59,15505,2,0,P|369:139|312:203,1,160.000000596046
228,205,16516,1,0,0:0:0:0:
136,123,16853,1,0,0:0:0:0:
229,72,17696,5,0,0:0:0:0:
352,128,18033,2,0,P|380:209|342:279,1,160.000000596046
255,281,19044,1,0,0:0:0:0:
125,287,19381,1,0,0:0:0:0:
71,197,19718,2,0,P|74:147|88:113,1,80.000000298023
204,62,20561,5,0,0:0:0:0:
305,160,20898,1,0,0:0:0:0:
378,256,21235,2,0,P|438:243|440:185,1,120.000000447034
317,98,22078,1,0,0:0:0:0:
180,157,22415,1,0,0:0:0:0:
54,253,23089,5,0,0:0:0:0:
240,49,23763,1,0,0:0:0:0:
380,181,24269,1,0,0:0:0:0:
326,257,24437,1,0,0:0:0:0:
106,69,25954,6,0,P|46:123|39:212,1,160.000000596046
41,304,26965,1,0,0:0:0:0:
177,337,27302,1,0,0:0:0:0:
304,333,27640,2,0,P|353:322|369:286,1,80.000000298023
296,159,28314,1,0,0:0:0:0:
183,153,28651,2,0,P|128:164|96:182,1,80.000000298023
65,63,29325,2,0,P|111:49|150:56,1,80.000000298023
327,57,29999,5,0,0:0:0:0:
429,184,30336,1,0,0:0:0:0:
473,299,30673,2,0,P|390:332|311:323,1,160.000000596046
119,335,31853,2,0,P|69:265|70:225,1,120.000000447034
36,128,32696,1,0,0:0:0:0:
141,57,33033,1,0,0:0:0:0:
287,108,33370,6,0,P|268:162|257:157,1,96.0000003576276
108,202,34213,2,0,P|140:248|185:264,1,96.0000003576276
317,279,35055,1,0,0:0:0:0:
406,181,35392,2,0,P|349:108|310:113,1,128.000000476837
171,203,36404,1,0,0:0:0:0:
55,154,36741,2,0,P|57:95|85:78,1,80.000000298023
316,53,37752,5,0,0:0:0:0:
403,145,38089,2,0,P|426:196|419:211,1,64.0000002384184
320,313,38763,1,0,0:0:0:0:
206,292,39269,2,0,P|142:250|143:237,1,96.0000003576276
129,80,40280,2,0,P|191:66|222:85,1,96.0000003576276
337,163,41291,1,0,0:0:0:0:
327,269,41628,2,0,P|238:276|202:220,1,160.000000596046
179,49,43145,5,0,0:0:0:0:
308,89,43482,2,0,L|263:167,1,80.000000298023
210,222,44156,1,0,0:0:0:0:
110,309,44493,2,0,P|192:344|272:340,1,160.000000596046
352,202,45673,1,0,0:0:0:0:
371,121,45842,2,0,P|293:78|219:95,1,160.000000596046
113,161,46853,1,0,0:0:0:0:
71,281,47190,1,0,0:0:0:0:
146,318,47359,2,0,P|213:324|239:298,1,96.0000003576276
110,179,48370,5,0,0:0:0:0:
176,66,48707,1,0,0:0:0:0:
280,58,49044,2,0,P|308:114|296:155,1,96.0000003576276
203,191,49887,1,0,0:0:0:0:
163,253,50055,1,0,0:0:0:0:
162,325,50224,1,0,0:0:0:0:
266,318,50561,2,0,L|330:308,1,64.0000002384184
403,199,51235,1,0,0:0:0:0:
386,137,51404,1,0,0:0:0:0:
362,85,51572,1,0,0:0:0:0:
251,62,51909,6,0,L|188:98,1,64.0000002384184
273,169,52583,2,0,L|221:225,1,64.0000002384184
164,310,53258,1,0,0:0:0:0:
310,311,53595,2,0,L|374:310,1,64.0000002384184
348,178,54269,1,0,0:0:0:0:
311,121,54437,1,0,0:0:0:0:
281,69,54606,1,0,0:0:0:0:
72,93,54943,1,0,0:0:0:0:
84,207,55280,1,0,0:0:0:0:
175,309,55617,5,0,0:0:0:0:
235,294,55786,1,0,0:0:0:0:
295,278,55954,1,0,0:0:0:0:
364,146,56291,1,0,0:0:0:0:
256,53,56628,1,0,0:0:0:0:
84,116,56965,1,0,0:0:0:0:
85,180,57134,1,0,0:0:0:0:
83,243,57302,2,0,L|132:303,1,64.0000002384184
177,334,57808,6,0,L|236:292,1,64.0000002384184
276,259,58314,2,0,L|275:182,1,64.0000002384184
99,151,58988,1,0,0:0:0:0:
127,105,59156,2,0,L|151:77,1,32.0000001192092
301,72,59662,5,0,0:0:0:0:
333,157,59999,2,0,L|396:212,1,80.000000298023
381,296,60673,1,0,0:0:0:0:
235,313,61010,1,0,0:0:0:0:
113,323,61347,2,0,L|58:259,1,80.000000298023
23,198,62022,1,0,0:0:0:0:
162,110,62359,1,0,0:0:0:0:
264,206,62696,5,0,0:0:0:0:
386,305,63033,1,0,0:0:0:0:
420,174,63370,2,0,P|429:135|436:93,1,80.000000298023
305,51,64044,1,0,0:0:0:0:
174,48,64381,1,0,0:0:0:0:
35,90,64718,2,0,L|49:170,1,80.000000298023
54,294,65561,5,0,0:0:0:0:
132,334,65729,2,0,L|214:326,1,80.000000298023
316,332,66404,1,0,0:0:0:0:
443,278,66741,1,0,0:0:0:0:
473,176,67078,2,0,L|412:137,1,64.0000002384184
311,78,67752,1,0,0:0:0:0:
205,146,68089,1,0,0:0:0:0:
74,81,68426,5,0,0:0:0:0:
47,191,68763,2,0,L|92:266,1,80.000000298023
172,311,69437,1,0,0:0:0:0:
311,306,69774,2,0,L|381:254,1,80.000000298023
339,75,71123,5,0,0:0:0:0:
157,65,71460,1,0,0:0:0:0:
79,136,71797,2,0,L|76:209,1,64.0000002384184
72,308,72471,1,0,0:0:0:0:
230,336,72808,1,0,0:0:0:0:
352,292,73145,2,0,P|389:232|356:189,1,128.000000476837
258,197,74156,5,0,0:0:0:0:
117,205,74493,1,0,0:0:0:0:
59,132,74831,2,0,P|72:96|103:77,1,64.0000002384184
215,83,75505,1,0,0:0:0:0:
336,96,75842,2,0,P|366:127|360:156,1,64.0000002384184
256,179,76516,1,0,0:0:0:0:
161,250,76853,1,0,0:0:0:0:
132,93,77190,6,0,L|213:69,1,80.000000298023
250,146,77696,2,0,L|330:124,1,80.000000298023
321,218,78370,2,0,L|390:177,1,80.000000298023
374,305,78876,2,0,L|449:247,1,80.000000298023
465,139,79550,2,0,P|416:72|336:48,1,160.000000596046
98,106,81741,6,0,L|97:193,1,80.000000298023
95,289,82583,2,0,P|168:323|249:315,1,160.000000596046
256,192,84269,12,0,87977,0:0:0:0:
