osu file format v14

[General]
AudioFilename: audio.mp3
AudioLeadIn: 0
PreviewTime: 1500
Countdown: 1
SampleSet: None
StackLeniency: 0.7
Mode: 0
LetterboxInBreaks: 0
WidescreenStoryboard: 0

[Editor]
DistanceSpacing: 0.5
BeatDivisor: 4
GridSize: 4
TimelineZoom: 1

[Metadata]
Title:Memories
TitleUnicode:Memories
Artist:Comic Girls (Akao Hikaru, Hondo Kaede, Onishi Saori, Takahashi Rie)
ArtistUnicode:こみっくがーるず(赤尾ひかる、本渡楓、大西沙織、高橋李依)
Creator:Batae
Version:Light Insane
Source:こみっくがーるず
Tags:
BeatmapID:1699049
BeatmapSetID:809718

[Difficulty]
HPDrainRate:5
CircleSize:4
OverallDifficulty:5
ApproachRate:7
SliderMultiplier:1.60000000596046
SliderTickRate:2

[Events]
//Background and Video events
0,0,"Comic-Girls-Capa.jpg",0,0
//Break Periods
//Storyboard Layer 0 (Background)
//Storyboard Layer 1 (Fail)
//Storyboard Layer 2 (Pass)
//Storyboard Layer 3 (Foreground)
//Storyboard Sound Samples

[TimingPoints]
1685,337.078651685393,4,1,0,100,1,0
1685,-200,4,1,0,50,0,0
3960,-200,4,1,0,65,0,0
5224,-200,4,1,0,50,0,0
5898,-333.333333333333,4,1,0,65,0,0
7078,-200,4,1,0,60,0,0
8005,-250,4,1,0,60,0,0
9100,-200,4,1,0,65,0,0
10027,-200,4,1,0,70,0,0
11713,-250,4,1,0,73,0,0
12892,-200,4,1,0,75,0,0
14325,-142.857142857143,4,3,0,60,0,0
20477,-250,4,3,0,70,0,0
23089,-200,4,3,0,70,0,0
26038,-250,4,1,0,55,0,0
28735,-250,4,1,0,63,0,0
31432,-250,4,1,0,55,0,0
32696,-333.333333333333,4,1,0,55,0,0
34634,-333.333333333333,4,1,0,63,0,0
37078,-333.333333333333,4,1,0,55,0,0
39269,-333.333333333333,4,1,0,60,0,0
41038,-333.333333333333,4,1,0,65,0,0
42977,-333.333333333333,4,1,0,55,0,0
45252,-333.333333333333,4,1,0,60,0,0
45926,-333.333333333333,4,1,0,65,0,0
48201,-333.333333333333,4,1,0,60,0,0
49802,-250,4,1,0,60,0,0
54016,-333.333333333333,4,1,0,55,0,0
57218,-250,4,1,0,60,0,0
58398,-166.666666666667,4,1,0,60,0,0
59831,-166.666666666667,4,1,0,65,0,1
60252,-166.666666666667,4,3,0,65,0,1
69859,-200,4,1,0,65,0,1
70870,-250.000000000001,4,1,0,65,0,0
71881,-333.333333333334,4,1,0,65,0,0
75252,-250.000000000001,4,1,0,60,0,0
77022,-250.000000000001,4,1,0,60,0,1
77611,-200,4,1,0,60,0,1
79465,-166.666666666667,4,1,0,60,0,1
81151,-250.000000000001,4,1,0,60,0,1
83763,-250.000000000001,4,1,0,60,0,0

[Colours]
Combo1 : 64,0,128
Combo2 : 236,70,223
Combo3 : 255,250,23
Combo4 : 0,255,255

[HitObjects]
141,246,1769,5,0,0:0:0:0:
71,165,2022,1,8,0:0:0:0:
89,100,2190,2,0,P|116:68|157:59,1,80.000000298023
224,57,2696,1,0,0:0:0:0:
374,132,2949,5,0,0:0:0:0:
396,207,3117,2,8,P|391:267|352:298,1,100.000000372529
301,332,3707,1,0,0:0:0:0:
229,340,3876,1,0,0:0:0:0:
141,325,4044,2,8,L|170:251,1,80.000000298023
196,172,4634,5,0,0:0:0:0:
230,106,4802,2,0,P|268:88|314:99,1,80.000000298023
356,157,5308,1,8,0:0:0:0:
359,232,5477,2,0,P|318:260|273:268,1,80.000000298023
213,269,5982,2,8,L|215:245,1,20.0000000745057
121,275,6404,5,0,0:0:0:0:
85,154,6572,1,8,0:0:0:0:
213,142,6741,1,8,0:0:0:0:
192,40,6909,1,8,0:0:0:0:
368,122,7246,5,0,0:0:0:0:
388,191,7415,2,8,P|392:226|355:256,1,80.000000298023
288,266,7920,1,8,0:0:0:0:
266,193,8089,2,8,P|259:180|263:200,1,64.0000002384184
168,243,8595,1,8,0:0:0:0:
106,286,8763,2,12,P|70:275|70:254,1,64.0000002384184
116,155,9269,5,8,0:0:0:0:
215,93,9437,1,8,0:0:0:0:
326,55,9606,2,12,P|365:81|362:126,1,80.000000298023
407,206,10111,1,8,0:0:0:0:
280,265,10280,1,8,0:0:0:0:
323,156,10449,1,8,0:0:0:0:
199,201,10617,2,12,P|147:221|135:203,1,80.000000298023
82,138,11123,5,8,0:0:0:0:
137,48,11291,1,8,0:0:0:0:
380,199,11544,1,8,0:0:0:0:
337,285,11797,2,12,P|309:301|268:297,1,64.0000002384184
163,284,12302,1,8,0:0:0:0:
224,167,12471,1,8,0:0:0:0:
81,186,12640,1,8,0:0:0:0:
120,59,12808,1,8,0:0:0:0:
226,41,12977,2,12,P|287:37|304:62,1,80.000000298023
330,238,14493,5,14,0:0:0:0:
330,238,14578,1,14,0:0:0:0:
330,238,14662,2,0,P|219:259|180:212,1,167.999995498895
174,125,15336,1,14,0:0:0:0:
127,67,15505,2,14,P|170:31|202:68,1,111.999996999264
247,103,16010,1,14,0:0:0:0:
208,189,16179,2,14,P|158:223|124:190,1,111.999996999264
81,156,16685,1,14,0:0:0:0:
366,167,17190,5,14,0:0:0:0:
316,259,17359,1,14,0:0:0:0:
250,131,17527,1,14,0:0:0:0:
164,217,17696,1,14,0:0:0:0:
146,122,17864,2,14,L|171:73,1,55.9999984996318
273,35,18201,1,14,0:0:0:0:
335,119,18370,1,14,0:0:0:0:
309,223,18538,2,14,L|249:209,1,55.9999984996318
166,179,18876,1,14,0:0:0:0:
108,110,19044,2,14,P|140:65|173:100,1,111.999996999264
234,158,19550,1,14,0:0:0:0:
254,235,19718,2,14,P|219:250|166:201,1,111.999996999264
158,69,20561,5,4,0:0:0:0:
275,70,20729,1,4,0:0:0:0:
272,178,20898,1,4,0:0:0:0:
153,177,21067,1,4,0:0:0:0:
83,137,21235,2,4,L|83:72,1,64.0000002384184
179,59,21741,1,4,0:0:0:0:
272,62,21909,1,4,0:0:0:0:
367,66,22078,1,4,0:0:0:0:
446,69,22246,2,4,L|446:141,1,64.0000002384184
247,197,23258,5,2,0:0:0:0:
75,60,23763,5,2,0:0:0:0:
417,57,24269,5,2,0:0:0:0:
425,161,24437,1,2,0:0:0:0:
423,250,24606,2,2,B|335:278|251:288|182:287|105:249,1,320.000001192092
74,159,26123,5,8,0:0:0:0:
138,44,26460,1,0,0:0:0:0:
303,76,26797,1,8,0:0:0:0:
423,91,27050,1,0,0:0:0:0:
426,212,27302,2,8,P|389:246|346:247,1,80.000000298023
228,253,27977,1,0,0:0:0:0:
159,192,28145,1,8,0:0:0:0:
161,110,28314,2,8,P|200:84|215:100,1,64.0000002384184
289,137,28819,1,8,0:0:0:0:
239,253,28988,1,8,0:0:0:0:
120,205,29156,1,8,0:0:0:0:
181,96,29325,2,8,P|221:77|238:88,1,64.0000002384184
302,156,29831,1,8,0:0:0:0:
279,254,29999,1,8,0:0:0:0:
175,302,30168,1,8,0:0:0:0:
126,236,30336,2,8,P|146:202|171:186,1,64.0000002384184
246,145,30842,1,12,0:0:0:0:
246,145,30926,1,12,0:0:0:0:
246,145,31010,1,12,0:0:0:0:
389,227,31516,5,0,0:0:0:0:
389,227,31600,1,0,0:0:0:0:
389,227,31684,2,0,P|425:249|431:233,1,64.0000002384184
450,168,32190,1,0,0:0:0:0:
304,67,32443,1,2,0:0:0:0:
227,117,32611,1,2,0:0:0:0:
159,184,32780,1,0,0:0:0:0:
159,184,32864,2,0,L|142:240,1,47.9999987139701
118,315,33370,1,2,0:0:0:0:
118,315,33538,1,2,0:0:0:0:
278,328,33791,1,0,0:0:0:0:
300,245,33960,1,0,0:0:0:0:
202,210,34128,1,0,0:0:0:0:
202,210,34213,2,0,L|222:176,1,32.0000001192092
273,79,34718,1,0,0:0:0:0:
273,79,34802,1,0,0:0:0:0:
273,79,34887,1,0,0:0:0:0:
384,146,35140,1,2,0:0:0:0:
331,252,35308,1,2,0:0:0:0:
201,247,35477,1,2,0:0:0:0:
108,168,35645,2,8,L|70:129,1,47.9999987139701
127,77,36151,2,8,L|148:102,1,23.999999356985
212,80,36488,2,8,L|207:50,1,23.999999356985
406,153,37246,5,0,0:0:0:0:
406,153,37331,1,0,0:0:0:0:
406,153,37415,2,0,L|388:200,1,47.9999987139701
278,273,38089,1,2,0:0:0:0:
192,210,38258,1,2,0:0:0:0:
126,292,38426,1,2,0:0:0:0:
55,210,38595,1,2,0:0:0:0:
111,143,38763,2,0,L|147:103,1,47.9999987139701
224,80,39353,1,2,0:0:0:0:
349,88,39522,1,2,0:0:0:0:
372,211,39690,1,2,0:0:0:0:
274,294,39859,1,2,0:0:0:0:
196,252,40027,2,0,P|204:222|223:210,1,47.9999987139701
286,177,40533,1,2,0:0:0:0:
359,122,40701,2,2,L|366:95,1,23.999999356985
209,48,41123,1,0,0:0:0:0:
136,95,41291,1,0,0:0:0:0:
80,151,41460,2,2,L|106:203,1,47.9999987139701
48,235,41965,2,2,L|69:257,1,23.999999356985
128,288,42302,2,2,L|155:305,1,23.999999356985
340,165,43145,5,8,0:0:0:0:
379,245,43314,2,0,P|361:271|336:279,1,47.9999987139701
243,264,43819,1,8,0:0:0:0:
181,221,43988,2,8,L|136:189,1,47.9999987139701
92,132,44493,1,8,0:0:0:0:
181,67,44662,1,0,0:0:0:0:
181,67,44746,1,0,0:0:0:0:
181,67,44831,2,8,L|225:103,1,47.9999987139701
318,184,45336,1,8,0:0:0:0:
240,279,45505,1,8,0:0:0:0:
141,201,45673,1,8,0:0:0:0:
108,87,45842,1,8,0:0:0:0:
257,55,46010,2,0,L|282:105,1,47.9999987139701
314,208,46516,2,8,L|301:260,1,47.9999987139701
152,230,47022,1,8,0:0:0:0:
149,77,47190,1,8,0:0:0:0:
303,111,47359,1,12,0:0:0:0:
313,277,47527,2,8,L|313:304,1,23.999999356985
97,293,48286,5,2,0:0:0:0:
110,178,48454,1,2,0:0:0:0:
184,92,48623,1,2,0:0:0:0:
310,67,48791,1,2,0:0:0:0:
338,198,48960,1,2,0:0:0:0:
338,198,49044,1,2,0:0:0:0:
270,288,49213,1,0,0:0:0:0:
201,307,49381,2,2,L|151:292,1,47.9999987139701
98,234,49887,1,0,0:0:0:0:
111,137,50055,2,2,L|144:147,1,32.0000001192092
260,174,50392,5,8,0:0:0:0:
325,78,50561,2,8,L|280:66,1,32.0000001192092
129,75,50982,1,8,0:0:0:0:
81,197,51151,1,8,0:0:0:0:
161,299,51319,1,8,0:0:0:0:
274,313,51488,1,8,0:0:0:0:
274,313,51572,2,8,L|273:277,1,32.0000001192092
274,201,51909,2,8,L|319:207,1,32.0000001192092
363,140,52246,2,8,L|408:141,1,32.0000001192092
399,58,52583,2,8,L|331:58,1,64.0000002384184
249,62,53089,5,8,0:0:0:0:
131,75,53258,1,8,0:0:0:0:
47,133,53426,1,8,0:0:0:0:
48,247,53595,2,8,P|69:280|98:285,1,64.0000002384184
203,311,54100,1,0,0:0:0:0:
328,319,54269,2,0,P|361:301|364:268,1,64.0000002384184
372,187,54859,5,0,0:0:0:0:
279,193,55027,2,0,P|235:190|229:172,1,59.9999983924626
220,104,55617,1,0,0:0:0:0:
304,46,55786,2,0,P|335:58|349:75,1,47.9999987139701
402,135,56291,1,0,0:0:0:0:
406,232,56460,2,0,P|401:263|384:269,1,47.9999987139701
286,297,56965,1,8,0:0:0:0:
286,297,57050,1,8,0:0:0:0:
172,313,57302,2,8,P|135:312|138:289,1,64.0000002384184
123,221,57808,2,8,P|96:193|117:176,1,64.0000002384184
124,95,58314,5,8,0:0:0:0:
217,64,58482,2,8,L|367:63,1,143.99999614191
438,172,59241,1,8,0:0:0:0:
387,279,59493,1,8,0:0:0:0:
61,265,59831,1,8,0:0:0:0:
68,185,59999,2,8,L|77:127,1,47.9999987139701
90,58,60336,1,14,0:0:0:0:
219,42,60505,1,14,0:0:0:0:
307,56,60673,2,14,L|399:94,1,95.9999974279402
411,205,61179,5,14,0:0:0:0:
252,170,61347,1,14,0:0:0:0:
321,310,61516,2,14,P|265:317|213:300,1,95.9999974279402
138,227,62022,1,14,0:0:0:0:
257,176,62190,2,14,P|216:126|177:103,1,95.9999974279402
98,71,62696,2,14,L|77:138,1,47.9999987139701
66,201,63033,5,14,0:0:0:0:
76,290,63201,1,14,0:0:0:0:
161,333,63370,2,14,L|262:339,1,95.9999974279402
356,317,63876,1,14,0:0:0:0:
409,235,64044,1,14,0:0:0:0:
370,147,64213,2,14,L|296:216,1,95.9999974279402
357,301,64718,5,14,0:0:0:0:
248,336,64887,2,14,L|194:295,1,47.9999987139701
154,261,65224,2,14,L|193:221,1,47.9999987139701
69,147,65561,1,14,0:0:0:0:
69,147,65645,1,14,0:0:0:0:
69,147,65729,2,14,P|101:100|139:116,1,95.9999974279402
187,158,66235,2,14,P|179:182|143:196,1,47.9999987139701
80,243,66572,5,14,0:0:0:0:
151,320,66741,2,14,P|217:331|229:304,1,95.9999974279402
241,236,67246,2,14,P|181:203|147:226,1,95.9999974279402
95,254,67752,2,14,L|93:185,1,47.9999987139701
86,111,68089,1,14,0:0:0:0:
172,37,68258,1,14,0:0:0:0:
238,123,68426,1,14,0:0:0:0:
176,233,68595,2,14,P|201:283|253:282,1,95.9999974279402
320,289,69100,2,14,P|361:264|346:207,1,95.9999974279402
321,143,69606,6,14,P|285:130|272:138,1,47.9999987139701
204,167,69943,2,14,P|173:225|197:273,1,120.000000447034
302,310,70617,1,14,0:0:0:0:
390,255,70786,1,14,0:0:0:0:
395,151,70954,2,0,P|344:140|320:145,1,64.0000002384184
217,212,71460,1,0,0:0:0:0:
148,108,71628,1,0,0:0:0:0:
248,57,71797,1,0,0:0:0:0:
356,54,71965,2,0,L|381:74,1,23.999999356985
439,185,72302,2,0,L|409:172,1,23.999999356985
303,225,72640,2,0,L|332:232,1,23.999999356985
409,319,72977,2,0,P|371:325|353:327,1,47.9999987139701
201,304,73482,6,0,L|172:289,1,23.999999356985
87,238,73819,1,0,0:0:0:0:
203,175,73988,1,0,0:0:0:0:
118,98,74156,2,0,P|128:70|146:62,1,47.9999987139701
285,119,74662,1,0,0:0:0:0:
413,76,74831,1,0,0:0:0:0:
348,213,74999,1,0,0:0:0:0:
414,335,75168,1,0,0:0:0:0:
303,326,75336,2,0,P|227:325|203:277,1,120.000000447034
109,185,76179,5,0,0:0:0:0:
109,185,76263,1,0,0:0:0:0:
109,185,76347,1,0,0:0:0:0:
109,185,76432,1,0,0:0:0:0:
109,185,76516,2,0,L|162:147,1,64.0000002384184
224,46,77022,1,0,0:0:0:0:
254,192,77190,1,0,0:0:0:0:
380,52,77359,1,0,0:0:0:0:
391,245,77527,1,0,0:0:0:0:
399,196,77696,6,0,P|375:160|339:163,1,80.000000298023
253,71,78201,1,0,0:0:0:0:
168,191,78370,1,0,0:0:0:0:
101,55,78538,1,0,0:0:0:0:
51,210,78707,2,0,P|72:250|100:254,1,60.0000002235172
179,203,79213,5,0,0:0:0:0:
170,103,79381,1,0,0:0:0:0:
264,45,79550,2,0,P|299:71|267:156,1,143.99999614191
143,212,80224,1,0,0:0:0:0:
267,309,80392,1,0,0:0:0:0:
380,200,80561,1,0,0:0:0:0:
333,82,80729,2,0,P|280:57|226:72,1,95.9999974279402
111,120,81235,5,0,0:0:0:0:
80,235,81404,1,0,0:0:0:0:
234,166,81572,1,0,0:0:0:0:
234,166,81656,1,0,0:0:0:0:
234,166,81741,1,0,0:0:0:0:
327,197,81909,1,0,0:0:0:0:
391,278,82078,2,0,P|330:302|289:303,1,95.9999974279402
141,236,82752,1,0,0:0:0:0:
288,204,82920,2,0,P|274:163|256:135,1,64.0000002384184
256,192,83932,12,0,86628,0:0:0:0:
