osu file format v14

[General]
AudioFilename: Perpetuum Mobile.mp3
AudioLeadIn: 0
PreviewTime: 2933
Countdown: 0
SampleSet: Soft
StackLeniency: 0.6
Mode: 0
LetterboxInBreaks: 0
WidescreenStoryboard: 0

[Editor]
DistanceSpacing: 1.1
BeatDivisor: 4
GridSize: 32
TimelineZoom: 1.700005

[Metadata]
Title:Perpetuum Mobile
TitleUnicode:Perpetuum Mobile
Artist:Comedian Harmonists
ArtistUnicode:Comedian Harmonists
Creator:Bonsai
Version:Profectum
Source:
Tags:BOUYAAA Squirrel JBHyperion german vocal group ensemble 20s 30s moto perpetuo johann strauss classical
BeatmapID:889939
BeatmapSetID:316390

[Difficulty]
HPDrainRate:4
CircleSize:3.5
OverallDifficulty:4.5
ApproachRate:6
SliderMultiplier:1.2
SliderTickRate:1

[Events]
//Background and Video events
0,0,"Loriot.png",0,0
//Break Periods
2,66321,71278
2,95360,100526
2,113363,123533
2,131853,133544
//Storyboard Layer 0 (Background)
//Storyboard Layer 1 (Fail)
//Storyboard Layer 2 (Pass)
//Storyboard Layer 3 (Foreground)
//Storyboard Sound Samples

[TimingPoints]
339.819612704789,337.078651685393,4,2,1,25,1,0
1688,338.028169014084,4,2,1,25,1,0
2702,328.767123287671,4,2,1,25,1,0
3030,339.55857385399,4,2,1,40,1,0
5746,332.409972299169,4,2,1,40,1,0
7075,336.134453781513,4,2,1,40,1,0
8419,338.983050847458,4,2,1,40,1,0
9096,341.880341880342,4,2,1,40,1,0
9437,348.837209302326,4,2,1,40,1,0
10134,346.820809248555,4,2,1,40,1,0
11174,339.943342776204,4,2,1,40,1,0
13213,344.827586206897,4,2,1,40,1,0
13557,370.37037037037,4,2,1,40,1,0
13927,363.636363636364,4,2,1,40,1,0
16108,368.098159509202,4,2,1,40,1,0
16844,357.142857142857,4,2,1,40,1,0
18272,348.837209302326,4,2,1,40,1,0
19667,361.44578313253,4,2,1,40,1,0
21835,352.941176470588,4,2,1,40,1,0
22540,367.197062423501,4,2,1,40,1,0
24008,370.37037037037,4,2,1,40,1,0
25489,362.537764350453,4,2,1,40,1,0
25489,-111.111111111111,4,2,1,40,0,0
25851,-111.111111111111,4,2,1,10,0,0
26032,-111.111111111111,4,2,1,40,0,0
26576,-111.111111111111,4,2,1,10,0,0
26757,-111.111111111111,4,2,1,40,0,0
28389,382.165605095541,4,2,1,40,1,0
28389,-111.111111111111,4,2,1,40,0,0
29726,344.827586206897,4,2,1,40,1,0
29898,363.636363636364,4,2,1,40,1,0
30625,-111.111111111111,4,2,1,40,0,0
30988,333.333333333333,4,2,1,40,1,0
31321,372.670807453416,4,2,1,40,1,0
31321,-111.111111111111,4,2,1,40,0,0
31693,-111.111111111111,4,2,1,10,0,0
31880,-111.111111111111,4,2,1,40,0,0
32439,-111.111111111111,4,2,1,10,0,0
32625,-111.111111111111,4,2,1,40,0,0
32811,358.208955223881,4,2,1,40,1,0
32811,-111.111111111111,4,2,1,40,0,0
34243,368.098159509202,4,2,1,40,1,0
35715,350.877192982456,4,2,1,20,1,0
37118,377.358490566038,4,2,1,40,1,0
37872,362.537764350453,4,2,1,40,1,0
38597,358.208955223881,4,2,1,40,1,0
40029,353.982300884956,4,2,1,40,1,0
41444,359.281437125748,4,2,1,40,1,0
42881,363.636363636364,4,2,1,40,1,0
44335,357.142857142857,4,2,1,40,1,0
45763,370.37037037037,4,2,1,40,1,0
47244,361.44578313253,4,2,1,40,1,0
49774,-100,4,2,1,20,0,0
50135,365.853658536585,4,2,1,40,1,0
51232,395.256916996047,4,2,1,40,1,0
51627,372.670807453416,4,2,1,40,1,0
53117,359.281437125748,4,2,1,40,1,0
53835,346.820809248555,4,2,1,40,1,0
54528,360.36036036036,4,2,1,40,1,0
55969,366.97247706422,4,2,1,40,1,0
57069,377.358490566038,4,2,1,40,1,0
57446,373.831775700935,4,2,1,40,1,0
58941,356.083086053412,4,2,1,40,1,0
60009,394.736842105263,4,2,1,40,1,0
60403,379.746835443038,4,2,1,40,1,0
61162,372.670807453416,4,2,1,40,1,0
63025,359.281437125748,4,2,1,40,1,0
63384,363.636363636364,4,2,1,40,1,0
64838,350.877192982456,4,2,1,40,1,0
65890,431.654676258993,4,2,1,40,1,0
66321,389.61038961039,4,2,1,33,1,0
67879,370.37037037037,4,2,1,33,1,0
68619,357.142857142857,4,2,1,33,1,0
69333,389.61038961039,4,2,1,33,1,0
70112,387.096774193548,4,2,1,33,1,0
70886,372.670807453416,4,2,1,33,1,0
72004,324.324324324324,4,2,1,33,1,0
72328,348.837209302326,4,2,1,33,1,0
73025,355.029585798817,4,2,1,33,1,0
73735,351.493848857645,4,2,1,33,1,0
74789,365.853658536585,4,2,1,33,1,0
75154,357.78175313059,4,2,1,33,1,0
76585,348.837209302326,4,2,1,33,1,0
77631,368.098159509202,4,2,1,33,1,0
77999,369.230769230769,4,2,1,33,1,0
80214,373.831775700935,4,2,1,33,1,0
80961,371.97768133912,4,2,1,33,1,0
83192,368.098159509202,4,2,1,33,1,0
83560,357.142857142857,4,2,1,33,1,0
83917,367.647058823529,4,2,1,40,1,0
85387,373.831775700935,4,2,1,40,1,0
86508,359.281437125748,4,2,1,40,1,0
87585,352.941176470588,4,2,1,40,1,0
87937,346.820809248555,4,2,1,40,1,0
88283,343.839541547278,4,2,1,40,1,0
89658,357.142857142857,4,2,1,40,1,0
90729,379.746835443038,4,2,1,40,1,0
91108,352.941176470588,4,2,1,33,1,0
91813,337.078651685393,4,2,1,33,1,0
92487,358.208955223881,4,2,1,40,1,0
93740,392.156862745098,4,2,1,40,1,0
93936,348.432055749129,4,2,1,40,1,0
94981,379.746835443038,4,2,1,33,1,0
95360,404.040404040404,4,2,1,20,1,0
96168,393.44262295082,4,2,1,20,1,0
96954,390.879478827362,4,2,1,20,1,0
97735,415.22491349481,4,2,1,20,1,0
98565,384.615384615385,4,2,1,20,1,0
99334,372.670807453416,4,2,1,20,1,0
101197,379.746835443038,4,2,1,20,1,0
101576,383.386581469649,4,2,1,33,1,0
104259,357.142857142857,4,2,1,33,1,0
104616,362.537764350453,4,2,1,33,1,0
107153,382.165605095541,4,2,1,33,1,0
107535,371.747211895911,4,2,1,40,1,0
109765,357.142857142857,4,2,1,40,1,0
111550,377.358490566038,4,2,1,40,1,0
111927,357.142857142857,4,2,1,40,1,0
112998,365.853658536585,4,2,1,40,1,0
113363,352.733686067019,4,2,1,40,1,0
116184,348.027842227378,4,2,1,40,1,0
117576,340.909090909091,4,2,1,40,1,0
118598,362.537764350453,4,2,1,40,1,0
118960,349.854227405248,4,2,1,40,1,0
121758,352.112676056338,4,2,1,40,1,0
124222,361.44578313253,4,2,1,40,1,0
124583,356.083086053412,4,2,1,40,1,0
126007,350.877192982456,4,2,1,40,1,0
127410,352.941176470588,4,2,1,40,1,0
128468,361.44578313253,4,2,1,40,1,0
128829,355.029585798817,4,2,1,40,1,0
129539,350.877192982456,4,2,1,40,1,0
130240,353.356890459364,4,2,1,40,1,0
131653,472.44094488189,4,2,1,25,1,0
131889,368.098159509202,4,2,1,25,1,0
132073,361.44578313253,4,2,1,25,1,0
133157,355.029585798817,4,2,1,25,1,0
134222,372.670807453416,4,2,1,25,1,0
134594,380.952380952381,4,2,1,40,1,0
136117,378.548895899054,4,2,1,40,1,0
136874,361.44578313253,4,2,1,40,1,0
137596,358.851674641148,4,2,1,40,1,0
139031,349.65034965035,4,2,1,40,1,0
140429,363.636363636364,4,2,1,33,1,0
141519,384.615384615385,4,2,1,33,1,0
141883,372.670807453416,4,2,1,33,1,0
143001,384.615384615385,4,2,1,33,1,0
143385,363.636363636364,4,2,1,33,1,0
144839,361.44578313253,4,2,1,33,1,0
146284,352.941176470588,4,2,1,33,1,0
147695,350.877192982456,4,2,1,33,1,0
149098,346.820809248555,4,2,1,40,1,0
149791,338.983050847458,4,2,1,40,1,0
150468,346.820809248555,4,2,1,40,1,0
150641,-100,4,2,1,20,0,0
151508,365.853658536585,4,2,1,15,1,0
151508,-100,4,2,1,15,0,0
151887,347.826086956522,4,2,1,15,1,0

[Colours]
Combo1 : 187,217,188
Combo2 : 255,225,164
Combo3 : 174,172,196
Combo4 : 153,209,242

[HitObjects]
289,135,3030,6,0,P|314:119|343:110,1,60,2|0,0:0|0:0,0:0:0:0:
402,166,3369,2,0,P|376:181|347:190,1,60
275,217,3709,1,2,0:0:0:0:
266,294,3878,2,0,L|287:331,2,30
196,265,4218,1,0,0:0:0:0:
196,265,4388,5,2,0:0:0:0:
123,294,4558,2,0,L|108:323,2,30
118,220,4897,1,0,0:0:0:0:
118,220,5067,1,2,0:0:0:0:
48,180,5237,2,0,L|-4:185,2,30
110,132,5576,1,0,0:0:0:0:
170,81,5746,6,0,P|199:79|228:70,1,60,2|0,0:0|0:0,0:0:0:0:
288,121,6078,2,0,P|301:94|308:65,1,60,2|0,0:0|0:0,0:0:0:0:
382,39,6410,2,0,P|388:68|401:95,1,60,2|0,0:0|0:0,0:0:0:0:
361,162,6742,2,0,P|389:171|419:173,1,60,2|0,0:0|0:0,0:0:0:0:
456,241,7075,5,2,0:0:0:0:
360,379,7411,1,2,0:0:0:0:
192,379,7747,1,2,0:0:0:0:
96,241,8083,1,2,0:0:0:0:
191,104,8419,5,2,0:0:0:0:
191,104,8588,2,0,L|212:14,1,60,2|0,0:0|0:0,0:0:0:0:
275,77,8927,2,0,L|341:12,1,60,2|0,0:0|0:0,0:0:0:0:
360,100,9266,2,0,L|450:82,1,60,2|0,0:0|0:0,0:0:0:0:
420,166,9611,2,0,L|505:200,1,60,2|0,0:0|0:0,0:0:0:0:
424,248,9960,6,0,L|403:338,1,60,2|0,0:0|0:0,0:0:0:0:
340,275,10307,2,0,L|273:339,1,60,2|0,0:0|0:0,0:0:0:0:
255,252,10654,2,0,L|164:269,1,60,2|0,0:0|0:0,0:0:0:0:
190,185,11001,1,2,0:0:0:0:
126,136,11174,6,0,P|97:128|67:127,1,60,0|2,0:0|0:0,0:0:0:0:
80,203,11513,2,0,P|53:217|31:238,1,60,0|2,0:0|0:0,0:0:0:0:
90,291,11853,2,0,P|82:320|81:350,1,60,0|2,0:0|0:0,0:0:0:0:
157,337,12193,2,0,P|171:363|192:385,1,60,0|2,0:0|0:0,0:0:0:0:
251,332,12533,6,0,P|272:311|298:296,1,60,2|0,0:0|0:0,0:0:0:0:
375,277,12873,1,2,0:0:0:0:
452,289,13043,1,0,0:0:0:0:
508,341,13213,1,2,0:0:0:0:
506,184,13557,1,2,0:0:0:0:
325,215,13927,6,0,P|267:202|228:157,1,120,2|0,0:0|0:0,0:0:0:0:
150,22,14654,2,0,P|207:34|246:79,1,120,2|0,0:0|0:0,0:0:0:0:
174,218,15381,2,0,P|124:249|65:245,1,120,2|0,0:0|0:0,0:0:0:0:
89,93,16108,1,2,0:0:0:0:
89,93,16292,1,2,0:0:0:0:
242,119,16660,5,0,0:0:0:0:
242,119,16844,1,2,0:0:0:0:
217,285,17201,1,0,0:0:0:0:
371,351,17558,1,2,0:0:0:0:
485,228,17915,1,0,0:0:0:0:
401,77,18272,6,0,P|355:38|183:69,1,240,2|2,0:0|0:0,0:0:0:0:
63,173,19318,1,2,0:0:0:0:
174,300,19667,5,2,0:0:0:0:
174,300,19847,2,0,L|180:372,2,60
189,223,20389,1,2,0:0:0:0:
189,223,20570,2,0,L|195:151,2,60
251,279,21112,5,2,0:0:0:0:
251,279,21293,2,0,L|296:334,2,60
277,203,21835,2,0,L|312:114,1,60,2|0,0:0|0:0,0:0:0:0:
375,165,22187,2,0,L|446:100,1,60,2|0,0:0|0:0,0:0:0:0:
484,170,22540,5,2,0:0:0:0:
375,297,22907,1,0,0:0:0:0:
211,259,23274,1,2,0:0:0:0:
82,367,23641,1,0,0:0:0:0:
3,207,24008,5,2,0:0:0:0:
112,80,24378,1,0,0:0:0:0:
276,118,24748,1,2,0:0:0:0:
405,12,25119,1,0,0:0:0:0:
452,196,25489,6,0,P|396:287|312:284,1,161.999995056153
320,224,26214,2,0,P|266:166|187:169,1,161.999995056153
116,195,26939,6,0,L|126:323,1,107.999996704102
239,383,27664,2,0,L|230:275,1,107.999996704102
183,126,28389,5,2,0:0:0:0:
245,172,28580,2,0,P|302:185|355:165,3,107.999996704102,2|2|2|2,0:0|0:0|0:0|0:0,0:0:0:0:
432,21,30079,5,2,0:0:0:0:
437,98,30261,1,2,0:0:0:0:
443,175,30443,1,2,0:0:0:0:
455,252,30625,2,0,L|502:338,2,53.9999983520508,2|0|2,0:0|0:0|0:0,0:0:0:0:
356,144,31321,6,0,P|279:125|221:181,1,161.999995056153
166,233,32066,2,0,P|243:252|301:196,1,161.999995056153
372,219,32811,6,0,L|380:326,1,107.999996704102
490,239,33527,2,0,L|481:131,1,107.999996704102
346,21,34243,5,2,0:0:0:0:
293,78,34427,1,2,0:0:0:0:
397,158,34795,1,2,0:0:0:0:
265,151,35163,1,2,0:0:0:0:
316,272,35531,6,0,P|317:329|274:372,1,117,2|2,0:0|0:0,0:0:0:0:
201,384,36065,1,2,0:0:0:0:
127,355,36241,1,2,0:0:0:0:
85,289,36416,2,0,P|85:232|132:173,1,120,2|0,0:0|0:0,0:0:0:0:
200,59,37118,6,0,L|198:11,2,30,2|0|0,0:0|0:0|0:0,0:0:0:0:
277,70,37495,2,0,L|294:25,2,30,2|0|0,0:0|0:0|0:0,0:0:0:0:
351,103,37872,2,0,L|384:71,2,30,2|0|0,0:0|0:0|0:0,0:0:0:0:
389,170,38234,2,0,L|437:150,2,30,2|0|0,0:0|0:0|0:0,0:0:0:0:
399,249,38597,5,2,0:0:0:0:
269,335,38955,1,0,0:0:0:0:
424,334,39313,1,0,0:0:0:0:
289,255,39671,1,0,0:0:0:0:
153,336,40029,6,0,L|110:341,2,30,2|0|0,0:0|0:0|0:0,0:0:0:0:
124,263,40382,2,0,L|94:239,2,30,2|0|0,0:0|0:0|0:0,0:0:0:0:
181,209,40736,2,0,L|213:171,2,30,2|0|0,0:0|0:0|0:0,0:0:0:0:
131,148,41090,2,0,L|124:93,2,30,2|0|0,0:0|0:0|0:0,0:0:0:0:
57,170,41444,5,2,0:0:0:0:
165,42,41803,1,0,0:0:0:0:
281,162,42162,1,2,0:0:0:0:
420,68,42521,1,0,0:0:0:0:
502,212,42881,1,2,0:0:0:0:
391,351,43244,5,0,0:0:0:0:
330,233,43608,2,0,P|274:189|217:190,1,120,2|0,0:0|0:0,0:0:0:0:
177,246,44153,1,0,0:0:0:0:
126,307,44335,2,0,P|67:300|23:261,1,120,2|0,0:0|0:0,0:0:0:0:
23,105,45049,2,0,P|66:65|125:59,1,120,2|0,0:0|0:0,0:0:0:0:
177,120,45585,1,0,0:0:0:0:
227,179,45763,6,0,P|285:172|329:133,1,120,2|0,0:0|0:0,0:0:0:0:
403,8,46503,2,0,L|419:141,1,120,2|0,0:0|0:0,0:0:0:0:
453,198,47059,1,0,0:0:0:0:
494,267,47244,2,0,P|440:291|382:281,1,120,2|0,0:0|0:0,0:0:0:0:
227,302,47966,1,2,0:0:0:0:
340,78,48689,6,0,L|352:30,4,30,2|0|0|0|0,0:0|0:0|0:0|0:0|0:0,0:0:0:0:
256,210,49412,2,0,P|211:234|135:226,1,120,2|0,0:0|0:0,0:0:0:0:
172,78,50135,2,0,L|160:30,4,30,2|0|0|0|0,0:0|0:0|0:0|0:0|0:0,0:0:0:0:
256,210,50866,2,0,P|301:234|377:226,1,120,2|0,0:0|0:0,0:0:0:0:
470,99,51627,6,0,L|486:52,2,30,2|0|0,0:0|0:0|0:0,0:0:0:0:
442,172,51999,1,0,0:0:0:0:
390,319,52372,2,0,L|379:347,2,30,2|0|0,0:0|0:0|0:0,0:0:0:0:
416,245,52745,1,0,0:0:0:0:
350,70,53117,6,0,L|333:23,2,30,2|0|0,0:0|0:0|0:0,0:0:0:0:
376,143,53476,2,0,L|385:171,2,30,2|0|0,0:0|0:0|0:0,0:0:0:0:
297,130,53835,2,0,P|238:154|217:175,1,60,2|0,0:0|0:0,0:0:0:0:
180,199,54181,1,0,0:0:0:0:
54,325,54528,5,2,0:0:0:0:
54,325,54888,2,0,L|36:130,1,180,2|0,0:0|0:0,0:0:0:0:
69,74,55609,1,0,0:0:0:0:
133,30,55789,1,0,0:0:0:0:
213,23,55969,5,2,0:0:0:0:
213,23,56335,2,0,L|229:218,1,180,2|0,0:0|0:0,0:0:0:0:
275,264,57069,1,0,0:0:0:0:
350,288,57257,1,0,0:0:0:0:
401,350,57446,5,2,0:0:0:0:
512,209,57819,1,2,0:0:0:0:
374,94,58193,1,2,0:0:0:0:
259,236,58567,1,2,0:0:0:0:
443,270,58941,5,2,0:0:0:0:
429,193,59119,1,0,0:0:0:0:
480,134,59297,1,2,0:0:0:0:
465,56,59475,1,0,0:0:0:0:
397,18,59653,1,2,0:0:0:0:
327,152,60009,1,2,0:0:0:0:
140,150,60403,5,2,0:0:0:0:
140,150,60782,1,0,0:0:0:0:
271,40,61162,1,2,0:0:0:0:
307,108,61348,1,0,0:0:0:0:
306,185,61534,1,0,0:0:0:0:
272,255,61721,1,0,0:0:0:0:
313,320,61907,5,2,0:0:0:0:
384,167,62280,1,0,0:0:0:0:
396,334,62652,1,2,0:0:0:0:
306,185,63025,1,0,0:0:0:0:
170,300,63384,5,2,0:0:0:0:
216,364,63565,1,0,0:0:0:0:
139,370,63747,1,0,0:0:0:0:
109,204,64111,1,2,0:0:0:0:
140,134,64292,1,0,0:0:0:0:
63,140,64474,1,0,0:0:0:0:
2,316,64838,5,2,0:0:0:0:
63,140,65188,1,2,0:0:0:0:
168,285,65539,1,2,0:0:0:0:
166,342,72328,5,2,0:0:0:0:
419,290,73025,1,2,0:0:0:0:
351,39,73735,1,2,0:0:0:0:
98,91,74437,1,2,0:0:0:0:
323,232,75154,5,2,0:0:0:0:
311,308,75332,1,2,0:0:0:0:
186,213,75690,1,2,0:0:0:0:
199,136,75869,1,2,0:0:0:0:
125,163,76048,1,2,0:0:0:0:
3,65,76406,1,2,0:0:0:0:
75,30,76585,6,0,P|104:23|145:26,1,60,2|0,0:0|0:0,0:0:0:0:
205,55,76933,2,0,P|234:55|264:48,1,60,2|0,0:0|0:0,0:0:0:0:
327,2,77282,1,2,0:0:0:0:
335,79,77457,1,2,0:0:0:0:
344,156,77631,1,2,0:0:0:0:
227,292,77999,6,0,P|182:252|164:196,1,120,2|0,0:0|0:0,0:0:0:0:
206,33,78737,2,0,P|250:72|268:128,1,120,2|0,0:0|0:0,0:0:0:0:
386,248,79475,2,0,P|443:261|499:242,1,120,2|0,0:0|0:0,0:0:0:0:
431,90,80214,1,2,0:0:0:0:
128,192,80961,6,0,P|146:248|191:288,1,120,2|0,0:0|0:0,0:0:0:0:
232,124,81704,2,0,P|214:68|170:29,1,120,2|0,0:0|0:0,0:0:0:0:
0,5,82448,2,0,P|18:61|62:100,1,120,2|0,0:0|0:0,0:0:0:0:
232,124,83192,1,2,0:0:0:0:
467,31,83917,5,2,0:0:0:0:
478,198,84284,1,2,0:0:0:0:
332,112,84652,1,2,0:0:0:0:
321,279,85019,1,2,0:0:0:0:
165,347,85387,5,2,0:0:0:0:
176,180,85760,1,2,0:0:0:0:
32,266,86134,1,2,0:0:0:0:
21,98,86508,1,2,0:0:0:0:
201,79,86867,6,0,L|285:75,1,60,2|0,0:0|0:0,0:0:0:0:
323,123,87226,2,0,L|407:127,1,60,2|0,0:0|0:0,0:0:0:0:
382,205,87585,2,0,L|322:207,1,60,2|0,0:0|0:0,0:0:0:0:
260,254,87937,2,0,L|200:251,1,60,2|0,0:0|0:0,0:0:0:0:
138,296,88283,5,2,0:0:0:0:
138,296,88454,1,0,0:0:0:0:
60,303,88626,1,0,0:0:0:0:
60,303,88798,1,0,0:0:0:0:
25,233,88970,1,2,0:0:0:0:
25,233,89142,1,0,0:0:0:0:
79,176,89314,1,0,0:0:0:0:
79,176,89486,1,0,0:0:0:0:
143,214,89658,6,0,L|182:232,2,30,2|0|0,0:0|0:0|0:0,0:0:0:0:
192,153,90015,2,0,L|234:155,2,30,2|0|0,0:0|0:0|0:0,0:0:0:0:
153,85,90372,2,0,L|110:82,2,30,2|0|0,0:0|0:0|0:0,0:0:0:0:
202,23,90729,2,0,L|163:5,2,30,2|0|0,0:0|0:0|0:0,0:0:0:0:
282,9,91108,5,2,0:0:0:0:
429,202,92487,6,0,L|436:244,2,30,2|0|0,0:0|0:0|0:0,0:0:0:0:
356,232,92845,2,0,L|347:273,2,30,2|0|0,0:0|0:0|0:0,0:0:0:0:
301,177,93203,2,0,L|309:134,2,30,2|0|0,0:0|0:0|0:0,0:0:0:0:
228,207,93561,2,0,L|220:164,2,30,2|0|0,0:0|0:0|0:0,0:0:0:0:
184,273,93936,6,0,P|205:293|241:312,1,60,2|0,0:0|0:0,0:0:0:0:
306,327,94284,2,0,P|331:311|360:303,1,60
438,308,94632,1,2,0:0:0:0:
446,230,94807,1,0,0:0:0:0:
454,154,94981,1,0,0:0:0:0:
389,92,101576,6,0,P|330:79|274:98,1,120,2|0,0:0|0:0,0:0:0:0:
131,186,102342,2,0,P|189:173|245:192,1,120,2|0,0:0|0:0,0:0:0:0:
385,285,103109,2,0,P|328:303|270:290,1,120,2|0,0:0|0:0,0:0:0:0:
131,186,103876,2,0,P|187:204|245:191,1,120,2|0,0:0|0:0,0:0:0:0:
386,84,104616,6,0,P|358:96|318:101,1,60,2|0,0:0|0:0,0:0:0:0:
251,104,104978,2,0,P|221:108|194:121,1,60,2|0,0:0|0:0,0:0:0:0:
194,199,105341,2,0,P|221:211|261:216,1,60,2|0,0:0|0:0,0:0:0:0:
329,219,105703,2,0,P|358:223|385:236,1,60,2|0,0:0|0:0,0:0:0:0:
451,279,106066,6,0,L|471:339,2,60,2|0|2,0:0|0:0|0:0,0:0:0:0:
457,201,106609,1,0,0:0:0:0:
462,122,106791,2,0,L|424:8,1,120,2|0,0:0|0:0,0:0:0:0:
245,15,107535,5,2,0:0:0:0:
245,15,108092,5,0,0:0:0:0:
293,82,108278,1,2,0:0:0:0:
293,82,108836,5,0,0:0:0:0:
235,134,109022,1,2,0:0:0:0:
235,134,109579,5,0,0:0:0:0:
281,199,109765,2,0,P|308:210|337:215,1,60,2|0,0:0|0:0,0:0:0:0:
385,277,110122,2,0,P|414:282|441:293,1,60,2|0,0:0|0:0,0:0:0:0:
492,361,110479,5,2,0:0:0:0:
492,361,111015,5,0,0:0:0:0:
415,366,111193,1,2,0:0:0:0:
415,366,111738,5,0,0:0:0:0:
369,303,111927,1,2,0:0:0:0:
369,303,112462,5,0,0:0:0:0:
385,226,112641,1,2,0:0:0:0:
224,258,112998,1,2,0:0:0:0:
10,293,124583,6,0,P|49:338|105:357,1,120,2|0,0:0|0:0,0:0:0:0:
199,219,125295,2,0,P|255:202|312:217,1,120,2|0,0:0|0:0,0:0:0:0:
407,356,126007,2,0,P|463:336|501:291,1,120,2|0,0:0|0:0,0:0:0:0:
465,132,126708,5,2,0:0:0:0:
395,167,126884,1,0,0:0:0:0:
325,201,127059,1,2,0:0:0:0:
255,236,127235,1,0,0:0:0:0:
177,231,127410,6,0,P|125:200|96:147,1,120,2|0,0:0|0:0,0:0:0:0:
199,10,128115,2,0,P|256:26|313:10,1,120,2|0,0:0|0:0,0:0:0:0:
414,148,128829,2,0,P|385:199|334:230,1,120,2|0,0:0|0:0,0:0:0:0:
256,99,129539,1,2,0:0:0:0:
256,192,130240,12,0,131653,0:0:0:0:
439,48,134594,5,2,0:0:0:0:
271,40,134974,1,0,0:0:0:0:
184,183,135355,1,2,0:0:0:0:
352,175,135735,1,0,0:0:0:0:
479,303,136117,5,2,0:0:0:0:
487,135,136495,1,0,0:0:0:0:
319,84,136874,1,2,0:0:0:0:
327,252,137235,1,0,0:0:0:0:
180,340,137596,6,0,L|156:276,1,60,2|0,0:0|0:0,0:0:0:0:
199,217,137954,2,0,L|200:148,1,60,2|0,0:0|0:0,0:0:0:0:
268,118,138313,2,0,L|295:55,1,60,2|0,0:0|0:0,0:0:0:0:
367,43,138671,2,0,L|415:-4,1,60,2|0,0:0|0:0,0:0:0:0:
477,45,139031,5,2,0:0:0:0:
496,120,139205,1,0,0:0:0:0:
489,197,139380,1,0,0:0:0:0:
489,197,139555,1,0,0:0:0:0:
409,192,139730,1,2,0:0:0:0:
332,204,139905,1,0,0:0:0:0:
270,249,140080,1,0,0:0:0:0:
270,249,140254,1,0,0:0:0:0:
189,248,140429,6,0,P|159:247|130:237,1,60,2|0,0:0|0:0,0:0:0:0:
69,188,140792,2,0,P|66:158|75:129,1,60
145,91,141156,1,2,0:0:0:0:
219,67,141338,2,0,L|218:24,2,30
265,136,141711,1,0,0:0:0:0:
265,136,141883,5,2,0:0:0:0:
302,204,142069,2,0,L|302:233,2,30
343,137,142442,1,0,0:0:0:0:
343,137,142628,1,2,0:0:0:0:
382,69,142814,2,0,L|381:26,2,30
423,135,143193,1,0,0:0:0:0:
466,204,143385,6,0,P|445:225|419:239,1,60,2|0,0:0|0:0,0:0:0:0:
341,251,143748,2,0,P|311:246|285:232,1,60
242,166,144112,2,0,L|238:90,2,60,2|0|0,0:0|0:0|0:0,0:0:0:0:
207,235,144657,1,0,0:0:0:0:
207,235,144839,6,0,L|210:294,2,60,2|0|0,0:0|0:0|0:0,0:0:0:0:
166,168,145381,1,0,0:0:0:0:
166,168,145561,2,0,L|162:92,2,60,2|0|0,0:0|0:0|0:0,0:0:0:0:
124,234,146104,1,0,0:0:0:0:
81,301,146284,5,2,0:0:0:0:
81,301,146460,2,0,P|137:344|194:342,1,120,2|0,0:0|0:0,0:0:0:0:
252,306,146989,2,0,L|271:121,1,180,2|0,0:0|0:0,0:0:0:0:
280,48,147695,5,2,0:0:0:0:
178,181,148045,1,2,0:0:0:0:
345,199,148396,1,2,0:0:0:0:
250,337,148747,1,2,0:0:0:0:
83,319,149098,1,2,0:0:0:0:
1,99,149618,5,2,0:0:0:0:
78,80,149791,1,2,0:0:0:0:
154,92,149960,1,2,0:0:0:0:
224,125,150129,1,2,0:0:0:0:
301,137,150299,1,2,0:0:0:0:
372,111,150468,6,0,L|451:65,2,60,2|0|0,0:0|0:0|0:0,0:0:0:0:
362,188,150988,1,0,0:0:0:0:
394,258,151161,2,0,P|394:287|386:316,1,60,2|0,0:0|0:0,0:0:0:0:
308,306,151508,2,0,P|307:276|315:247,1,60,2|0,0:0|0:0,0:0:0:0:
