osu file format v14

[General]
AudioFilename: Perpetuum Mobile.mp3
AudioLeadIn: 0
PreviewTime: 2933
Countdown: 0
SampleSet: Soft
StackLeniency: 0.3
Mode: 2
LetterboxInBreaks: 0
WidescreenStoryboard: 0

[Editor]
Bookmarks: 134594
DistanceSpacing: 1.6
BeatDivisor: 3
GridSize: 4
TimelineZoom: 5.680001

[Metadata]
Title:Perpetuum Mobile
TitleUnicode:Perpetuum Mobile
Artist:Comedian Harmonists
ArtistUnicode:Comedian Harmonists
Creator:Bonsai
Version:Pluvium Hyperionis
Source:
Tags:BOUYAAA Squirrel JBHyperion german vocal group ensemble 20s 30s moto perpetuo johann strauss classical
BeatmapID:900134
BeatmapSetID:316390

[Difficulty]
HPDrainRate:6
CircleSize:4.5
OverallDifficulty:9
ApproachRate:9
SliderMultiplier:1.6
SliderTickRate:1

[Events]
//Background and Video events
0,0,"Loriot.png",0,0
//Break Periods
2,66321,71728
2,116032,121158
//Storyboard Layer 0 (Background)
//Storyboard Layer 1 (Fail)
//Storyboard Layer 2 (Pass)
//Storyboard Layer 3 (Foreground)
//Storyboard Sound Samples

[TimingPoints]
339.819612704789,337.078651685393,4,2,1,25,1,0
1688,338.028169014084,4,2,1,25,1,0
2702,328.767123287671,4,2,1,25,1,0
3030,339.55857385399,4,2,1,40,1,0
5746,332.409972299169,4,2,1,40,1,0
7075,336.134453781513,4,2,1,40,1,0
8419,338.983050847458,4,2,1,40,1,0
9096,341.880341880342,4,2,1,40,1,0
9437,348.837209302326,4,2,1,40,1,0
10134,346.820809248555,4,2,1,40,1,0
11174,339.943342776204,4,2,1,40,1,0
13213,344.827586206897,4,2,1,40,1,0
13557,370.37037037037,4,2,1,40,1,0
13927,363.636363636364,4,2,1,40,1,0
16108,368.098159509202,4,2,1,40,1,0
16844,357.142857142857,4,2,1,40,1,0
18272,348.837209302326,4,2,1,40,1,0
19667,361.44578313253,4,2,1,40,1,0
21835,352.941176470588,4,2,1,40,1,0
22540,367.197062423501,4,2,1,40,1,0
24008,370.37037037037,4,2,1,40,1,0
25489,362.537764350453,4,2,1,40,1,0
25489,-133.333333333333,4,2,1,40,0,0
26214,-111.111111111111,4,2,1,40,0,0
27301,-100,4,2,1,40,0,0
27664,-117.647058823529,4,2,1,40,0,0
28389,382.165605095541,4,2,1,40,1,0
29726,344.827586206897,4,2,1,40,1,0
29898,363.636363636364,4,2,1,40,1,0
30988,333.333333333333,4,2,1,40,1,0
31321,372.670807453416,4,2,1,40,1,0
31321,-133.333333333333,4,2,1,40,0,0
32066,-111.111111111111,4,2,1,40,0,0
32811,358.208955223881,4,2,1,40,1,0
32811,-111.111111111111,4,2,1,40,0,0
33527,-117.647058823529,4,2,1,40,0,0
34243,368.098159509202,4,2,1,40,1,0
35715,350.877192982456,4,2,1,20,1,0
37118,377.358490566038,4,2,1,40,1,0
37872,362.537764350453,4,2,1,40,1,0
38597,358.208955223881,4,2,1,40,1,0
40029,353.982300884956,4,2,1,40,1,0
40029,-66.6666666666667,4,2,1,40,0,0
41444,359.281437125748,4,2,1,40,1,0
42881,363.636363636364,4,2,1,40,1,0
43608,-60.6060606060606,4,2,1,40,0,0
43971,-100,4,2,1,40,0,0
44335,357.142857142857,4,2,1,40,1,0
44335,-60.6060606060606,4,2,1,40,0,0
44692,-100,4,2,1,40,0,0
45763,370.37037037037,4,2,1,40,1,0
45763,-90.9090909090909,4,2,1,40,0,0
47244,361.44578313253,4,2,1,40,1,0
50135,365.853658536585,4,2,1,40,1,0
51232,395.256916996047,4,2,1,40,1,0
51627,372.670807453416,4,2,1,40,1,0
53117,359.281437125748,4,2,1,40,1,0
53835,346.820809248555,4,2,1,40,1,0
54528,360.36036036036,4,2,1,40,1,0
54888,-66.6666666666667,4,2,1,40,0,0
55248,-100,4,2,1,40,0,0
55969,366.97247706422,4,2,1,40,1,0
56335,-66.6666666666667,4,2,1,40,0,0
56702,-100,4,2,1,40,0,0
57069,377.358490566038,4,2,1,40,1,0
57446,373.831775700935,4,2,1,40,1,0
58941,356.083086053412,4,2,1,40,1,0
60009,394.736842105263,4,2,1,40,1,0
60403,379.746835443038,4,2,1,40,1,0
61162,372.670807453416,4,2,1,40,1,0
63025,359.281437125748,4,2,1,40,1,0
63384,363.636363636364,4,2,1,40,1,0
63384,-66.6666666666667,4,2,1,40,0,0
64838,350.877192982456,4,2,1,40,1,0
65890,431.654676258993,4,2,1,40,1,0
66321,389.61038961039,4,2,1,33,1,0
67879,370.37037037037,4,2,1,33,1,0
68619,357.142857142857,4,2,1,33,1,0
69333,389.61038961039,4,2,1,33,1,0
70112,387.096774193548,4,2,1,33,1,0
70886,372.670807453416,4,2,1,33,1,0
72004,324.324324324324,4,2,1,33,1,0
72328,348.837209302326,4,2,1,33,1,0
73025,355.029585798817,4,2,1,33,1,0
73735,351.493848857645,4,2,1,33,1,0
74789,365.853658536585,4,2,1,33,1,0
75154,357.78175313059,4,2,1,33,1,0
76585,348.837209302326,4,2,1,33,1,0
77631,368.098159509202,4,2,1,33,1,0
77999,369.230769230769,4,2,1,33,1,0
80214,373.831775700935,4,2,1,33,1,0
80961,371.97768133912,4,2,1,33,1,0
83192,368.098159509202,4,2,1,33,1,0
83560,357.142857142857,4,2,1,33,1,0
83917,367.647058823529,4,2,1,40,1,0
83917,-66.6666666666667,4,2,1,40,0,0
83939,-66.6666666666667,4,2,1,5,0,0
84284,-66.6666666666667,4,2,1,40,0,0
84307,-66.6666666666667,4,2,1,5,0,0
84652,-66.6666666666667,4,2,1,40,0,0
84675,-66.6666666666667,4,2,1,5,0,0
85019,-66.6666666666667,4,2,1,40,0,0
85042,-66.6666666666667,4,2,1,5,0,0
85387,373.831775700935,4,2,1,40,1,0
85387,-66.6666666666667,4,2,1,40,0,0
85410,-66.6666666666667,4,2,1,5,0,0
85760,-66.6666666666667,4,2,1,40,0,0
85784,-66.6666666666667,4,2,1,5,0,0
86134,-66.6666666666667,4,2,1,40,0,0
86158,-66.6666666666667,4,2,1,5,0,0
86508,359.281437125748,4,2,1,40,1,0
86508,-66.6666666666667,4,2,1,40,0,0
86530,-66.6666666666667,4,2,1,5,0,0
86867,-66.6666666666667,4,2,1,40,0,0
86889,-66.6666666666667,4,2,1,5,0,0
87046,-66.6666666666667,4,2,1,40,0,0
87249,-66.6666666666667,4,2,1,5,0,0
87406,-66.6666666666667,4,2,1,40,0,0
87585,352.941176470588,4,2,1,40,1,0
87585,-66.6666666666667,4,2,1,40,0,0
87607,-66.6666666666667,4,2,1,5,0,0
87761,-66.6666666666667,4,2,1,40,0,0
87937,346.820809248555,4,2,1,40,1,0
87937,-66.6666666666667,4,2,1,40,0,0
87958,-66.6666666666667,4,2,1,5,0,0
88110,-66.6666666666667,4,2,1,40,0,0
88283,343.839541547278,4,2,1,40,1,0
89658,357.142857142857,4,2,1,40,1,0
90729,379.746835443038,4,2,1,40,1,0
91108,352.941176470588,4,2,1,33,1,0
91813,337.078651685393,4,2,1,33,1,0
92487,358.208955223881,4,2,1,40,1,0
93740,392.156862745098,4,2,1,40,1,0
93936,348.432055749129,4,2,1,40,1,0
94981,379.746835443038,4,2,1,33,1,0
95170,-100,4,2,1,20,0,0
95360,404.040404040404,4,2,1,20,1,0
96168,393.44262295082,4,2,1,20,1,0
96954,390.879478827362,4,2,1,20,1,0
97735,415.22491349481,4,2,1,20,1,0
98565,384.615384615385,4,2,1,20,1,0
99334,372.670807453416,4,2,1,20,1,0
101197,379.746835443038,4,2,1,20,1,0
101576,383.386581469649,4,2,1,33,1,0
104259,357.142857142857,4,2,1,33,1,0
104616,362.537764350453,4,2,1,33,1,0
106066,-83.3333333333333,4,2,1,33,0,0
107153,382.165605095541,4,2,1,33,1,0
107535,371.747211895911,4,2,1,40,1,0
107535,-83.3333333333333,4,2,1,40,0,0
109765,357.142857142857,4,2,1,40,1,0
110479,-83.3333333333333,4,2,1,40,0,0
111550,377.358490566038,4,2,1,40,1,0
111927,357.142857142857,4,2,1,40,1,0
111927,-83.3333333333333,4,2,1,40,0,0
112998,365.853658536585,4,2,1,40,1,0
113363,352.733686067019,4,2,1,40,1,0
113715,-100,4,2,1,40,0,0
114068,-100,4,2,1,40,0,0
114421,-100,4,2,1,40,0,0
114773,-100,4,2,1,40,0,0
115126,-100,4,2,1,40,0,0
115479,-100,4,2,1,40,0,0
115832,-100,4,2,1,40,0,0
116184,348.027842227378,4,2,1,40,1,0
117576,340.909090909091,4,2,1,40,1,0
118598,362.537764350453,4,2,1,40,1,0
118960,349.854227405248,4,2,1,40,1,0
121758,352.112676056338,4,2,1,40,1,0
122110,-100,4,2,1,40,0,0
122462,-100,4,2,1,40,0,0
122814,-100,4,2,1,40,0,0
123166,-100,4,2,1,40,0,0
123518,-100,4,2,1,40,0,0
123870,-100,4,2,1,40,0,0
124222,361.44578313253,4,2,1,40,1,0
124583,356.083086053412,4,2,1,40,1,0
126007,350.877192982456,4,2,1,40,1,0
127410,352.941176470588,4,2,1,40,1,0
127410,-80,4,2,1,40,0,0
128468,361.44578313253,4,2,1,40,1,0
128829,355.029585798817,4,2,1,40,1,0
129539,350.877192982456,4,2,1,40,1,0
130240,353.356890459364,4,2,1,40,1,0
131653,472.44094488189,4,2,1,25,1,0
131889,368.098159509202,4,2,1,25,1,0
132073,361.44578313253,4,2,1,25,1,0
133157,355.029585798817,4,2,1,25,1,0
134222,372.670807453416,4,2,1,25,1,0
134594,380.952380952381,4,2,1,40,1,0
134594,-66.6666666666667,4,2,1,40,0,0
134617,-66.6666666666667,4,2,1,5,0,0
134974,-66.6666666666667,4,2,1,40,0,0
134998,-66.6666666666667,4,2,1,5,0,0
135355,-66.6666666666667,4,2,1,40,0,0
135379,-66.6666666666667,4,2,1,5,0,0
135736,-66.6666666666667,4,2,1,40,0,0
135760,-66.6666666666667,4,2,1,5,0,0
136117,378.548895899054,4,2,1,40,1,0
136117,-66.6666666666667,4,2,1,40,0,0
136140,-66.6666666666667,4,2,1,5,0,0
136495,-66.6666666666667,4,2,1,40,0,0
136519,-66.6666666666667,4,2,1,5,0,0
136874,361.44578313253,4,2,1,40,1,0
136874,-66.6666666666667,4,2,1,40,0,0
136896,-66.6666666666667,4,2,1,5,0,0
137235,-66.6666666666667,4,2,1,40,0,0
137258,-66.6666666666667,4,2,1,5,0,0
137596,358.851674641148,4,2,1,40,1,0
137596,-66.6666666666667,4,2,1,40,0,0
137618,-66.6666666666667,4,2,1,5,0,0
137775,-66.6666666666667,4,2,1,40,0,0
137977,-66.6666666666667,4,2,1,5,0,0
138134,-66.6666666666667,4,2,1,40,0,0
138336,-66.6666666666667,4,2,1,5,0,0
138493,-66.6666666666667,4,2,1,40,0,0
138694,-66.6666666666667,4,2,1,5,0,0
138851,-66.6666666666667,4,2,1,40,0,0
139031,349.65034965035,4,2,1,40,1,0
140429,363.636363636364,4,2,1,33,1,0
141519,384.615384615385,4,2,1,33,1,0
141883,372.670807453416,4,2,1,33,1,0
143001,384.615384615385,4,2,1,33,1,0
143385,363.636363636364,4,2,1,33,1,0
144839,361.44578313253,4,2,1,33,1,0
146284,352.941176470588,4,2,1,33,1,0
146284,-133.333333333333,4,2,1,33,0,0
146989,-100,4,2,1,33,0,0
147695,350.877192982456,4,2,1,33,1,0
149098,346.820809248555,4,2,1,40,1,0
149791,338.983050847458,4,2,1,40,1,0
150468,346.820809248555,4,2,1,40,1,0
150641,-100,4,2,1,20,0,0
151508,365.853658536585,4,2,1,15,1,0
151508,-100,4,2,1,15,0,0
151887,347.826086956522,4,2,1,15,1,0

[Colours]
Combo1 : 187,217,188
Combo2 : 255,225,164
Combo3 : 174,172,196
Combo4 : 153,209,242

[HitObjects]
210,192,3030,6,0,L|134:152,1,80,2|0,0:0|0:0,0:0:0:0:
298,192,3369,2,0,L|382:192,1,80,0|0,0:0|0:0,0:0:0:0:
218,192,3709,1,2,0:0:0:0:
378,192,3878,2,0,L|422:192,2,40,0|0|0,0:0|0:0|0:0,0:0:0:0:
250,192,4218,1,0,0:0:0:0:
422,304,4388,5,2,0:0:0:0:
282,304,4558,2,0,L|234:304,1,40,0|0,0:0|0:0,0:0:0:0:
332,308,4727,2,0,L|404:268,1,80,0|0,0:0|0:0,0:0:0:0:
242,304,5067,1,2,0:0:0:0:
98,308,5237,2,0,L|50:308,1,40,0|0,0:0|0:0,0:0:0:0:
148,308,5406,2,0,L|220:272,1,80
66,220,5746,5,2,0:0:0:0:
178,220,5912,1,0,0:0:0:0:
54,152,6078,1,2,0:0:0:0:
190,152,6244,1,0,0:0:0:0:
326,152,6410,1,2,0:0:0:0:
178,84,6576,1,0,0:0:0:0:
338,84,6742,1,2,0:0:0:0:
166,20,6908,1,0,0:0:0:0:
406,24,7075,1,2,0:0:0:0:
310,192,7243,6,0,L|277:225,1,40,0|0,0:0|0:0,0:0:0:0:
434,192,7411,1,2,0:0:0:0:
481,233,7495,1,0,0:0:0:0:
463,294,7579,1,0,0:0:0:0:
401,303,7663,1,0,0:0:0:0:
242,304,7747,5,2,0:0:0:0:
185,275,7831,1,0,0:0:0:0:
234,240,7915,1,0,0:0:0:0:
282,204,7999,1,0,0:0:0:0:
226,180,8083,1,2,0:0:0:0:
174,180,8167,1,0,0:0:0:0:
130,144,8251,1,0,0:0:0:0:
118,88,8335,1,0,0:0:0:0:
276,88,8419,5,0,0:0:0:0:
132,168,8588,2,0,L|54:202,2,80,2|0|2,0:0|0:0|0:0,0:0:0:0:
292,260,9096,2,0,L|218:229,1,80,0|2,0:0|0:0,0:0:0:0:
92,328,9437,2,0,L|166:297,1,80,0|2,0:0|0:0,0:0:0:0:
336,260,9785,5,0,0:0:0:0:
208,260,9960,1,2,0:0:0:0:
368,260,10134,2,0,L|443:222,1,80,0|2,0:0|0:0,0:0:0:0:
280,192,10480,2,0,L|328:124,1,80,0|2,0:0|0:0,0:0:0:0:
164,120,10827,2,0,L|164:32,1,80,0|2,0:0|0:0,0:0:0:0:
328,192,11174,5,0,0:0:0:0:
184,240,11343,2,0,L|264:212,2,80,2|0|2,0:0|0:0|0:0,0:0:0:0:
344,192,11853,2,0,L|420:164,1,80,0|2,0:0|0:0,0:0:0:0:
248,112,12193,2,0,L|172:84,1,80,0|2,0:0|0:0,0:0:0:0:
344,56,12533,5,2,0:0:0:0:
216,56,12703,1,0,0:0:0:0:
356,56,12873,1,2,0:0:0:0:
204,56,13043,1,0,0:0:0:0:
440,56,13213,1,2,0:0:0:0:
36,192,13557,1,2,0:0:0:0:
264,192,13927,6,0,P|316:208|344:264,1,120,2|0,0:0|0:0,0:0:0:0:
268,292,14290,2,0,P|215:288|171:258,1,106.666666666667,0|0,0:0|0:0,0:0:0:0:
244,208,14654,2,0,L|357:186,1,106.666666666667,2|0,0:0|0:0,0:0:0:0:
444,116,15017,2,0,P|432:80|368:50,1,106.666666666667
180,48,15381,6,0,P|144:88|181:109,1,106.666666666667,2|0,0:0|0:0,0:0:0:0:
280,140,15745,2,0,L|340:192,1,80,0|0,0:0|0:0,0:0:0:0:
184,192,16108,1,2,0:0:0:0:
424,192,16292,1,2,0:0:0:0:
192,232,16660,5,0,0:0:0:0:
440,232,16844,1,2,0:0:0:0:
232,232,17201,1,0,0:0:0:0:
472,232,17558,1,2,0:0:0:0:
200,232,17915,1,0,0:0:0:0:
496,232,18272,1,2,0:0:0:0:
352,196,18446,6,0,L|308:196,1,40
372,196,18620,1,0,0:0:0:0:
433,219,18707,1,0,0:0:0:0:
470,273,18794,1,0,0:0:0:0:
469,339,18881,1,0,0:0:0:0:
324,340,18969,1,2,0:0:0:0:
261,330,19056,1,0,0:0:0:0:
247,268,19143,1,0,0:0:0:0:
298,232,19230,1,0,0:0:0:0:
440,152,19318,1,2,0:0:0:0:
24,152,19667,5,2,0:0:0:0:
104,152,19847,1,0,0:0:0:0:
8,152,20028,1,0,0:0:0:0:
120,152,20209,1,0,0:0:0:0:
360,152,20389,5,2,0:0:0:0:
280,152,20570,1,0,0:0:0:0:
376,152,20751,1,0,0:0:0:0:
264,152,20932,1,0,0:0:0:0:
24,192,21112,5,2,0:0:0:0:
112,288,21293,1,0,0:0:0:0:
200,188,21474,1,0,0:0:0:0:
288,92,21654,1,0,0:0:0:0:
124,88,21835,6,0,L|96:39,1,40,2|0,0:0|0:0,0:0:0:0:
184,92,22011,2,0,L|224:52,1,40,2|0,0:0|0:0,0:0:0:0:
124,88,22187,2,0,L|76:59,1,40,2|0,0:0|0:0,0:0:0:0:
184,92,22364,2,0,L|239:77,1,40,2|0,0:0|0:0,0:0:0:0:
72,92,22540,5,2,0:0:0:0:
236,188,22907,1,0,0:0:0:0:
44,188,23274,1,2,0:0:0:0:
172,188,23641,1,0,0:0:0:0:
396,188,24008,5,2,0:0:0:0:
236,188,24378,1,0,0:0:0:0:
428,188,24748,1,0,0:0:0:0:
300,188,25119,1,0,0:0:0:0:
132,192,25489,6,0,P|28:253|5:315,1,180.000006866455,0|0,0:0|0:0,0:0:0:0:
112,300,26214,2,0,P|192:272|119:195,1,215.999993408203,0|0,0:0|0:0,0:0:0:0:
264,192,26939,1,0,0:0:0:0:
20,192,27301,2,0,L|116:140,1,106.666666666667
292,140,27664,2,0,P|344:180|344:232,1,102.000001945496
204,212,28026,2,0,P|224:264|268:280,1,102.000001945496
324,280,28389,5,2,0:0:0:0:
76,280,28580,2,0,L|55:194,1,80,2|0,0:0|0:0,0:0:0:0:
220,192,28962,2,0,L|238:112,1,80,2|0,0:0|0:0,0:0:0:0:
92,136,29344,2,0,L|85:57,1,80,2|0,0:0|0:0,0:0:0:0:
212,112,29726,2,0,L|220:32,1,80,2|0,0:0|0:0,0:0:0:0:
40,324,30079,5,2,0:0:0:0:
192,324,30261,1,2,0:0:0:0:
344,324,30443,1,2,0:0:0:0:
164,260,30625,2,0,L|96:216,1,80,2|2,0:0|0:0,0:0:0:0:
152,180,30898,1,0,0:0:0:0:
256,180,30988,1,2,0:0:0:0:
56,116,31321,6,0,P|80:48|184:28,1,180.000006866455,0|0,0:0|0:0,0:0:0:0:
288,112,32066,2,0,P|208:181|102:183,1,215.999993408203,0|0,0:0|0:0,0:0:0:0:
220,256,32811,1,0,0:0:0:0:
4,256,33169,2,0,P|8:304|56:336,1,107.999996704102
200,336,33527,2,0,L|296:304,1,102.000001945496
216,268,33885,2,0,B|168:252|168:252|216:224,1,102.000001945496,0|0,0:0|0:0,0:0:0:0:
312,224,34243,5,2,0:0:0:0:
72,224,34427,1,2,0:0:0:0:
340,224,34795,1,2,0:0:0:0:
116,224,35163,1,2,0:0:0:0:
308,224,35531,2,0,L|240:176,1,80,2|0,0:0|0:0,0:0:0:0:
408,44,35890,5,2,0:0:0:0:
264,44,36065,1,2,0:0:0:0:
120,44,36241,1,2,0:0:0:0:
300,108,36416,1,2,0:0:0:0:
352,144,36503,1,0,0:0:0:0:
324,200,36591,1,0,0:0:0:0:
260,200,36679,1,0,0:0:0:0:
100,200,36767,1,2,0:0:0:0:
368,192,37118,5,2,0:0:0:0:
424,192,37212,1,0,0:0:0:0:
480,192,37306,1,0,0:0:0:0:
320,136,37495,1,2,0:0:0:0:
268,108,37589,1,0,0:0:0:0:
216,80,37684,1,0,0:0:0:0:
384,192,37872,5,2,0:0:0:0:
422,234,37962,1,0,0:0:0:0:
460,276,38053,1,0,0:0:0:0:
300,264,38234,1,2,0:0:0:0:
270,315,38325,1,0,0:0:0:0:
241,367,38415,1,0,0:0:0:0:
384,192,38597,5,2,0:0:0:0:
256,192,38776,1,0,0:0:0:0:
368,192,38955,1,0,0:0:0:0:
240,192,39134,1,0,0:0:0:0:
80,192,39313,5,2,0:0:0:0:
208,192,39492,1,0,0:0:0:0:
96,192,39671,1,0,0:0:0:0:
224,192,39850,1,0,0:0:0:0:
388,72,40029,6,0,L|416:20,2,60.0000022888184,2|0|0,0:0|0:0|0:0,0:0:0:0:
260,100,40382,2,2,L|212:64,2,60.0000022888184,2|0|0,0:0|0:0|0:0,0:0:0:0:
404,144,40736,2,0,L|456:116,2,60.0000022888184,2|0|0,0:0|0:0|0:0,0:0:0:0:
244,172,41090,2,2,L|184:172,2,60.0000022888184,2|0|0,0:0|0:0|0:0,0:0:0:0:
484,216,41444,5,2,0:0:0:0:
228,260,41803,1,2,0:0:0:0:
436,296,42162,1,2,0:0:0:0:
276,336,42521,1,2,0:0:0:0:
480,252,42881,6,0,L|408:212,1,80,2|0,0:0|0:0,0:0:0:0:
264,192,43244,2,0,L|336:152,1,80,0|0,0:0|0:0,0:0:0:0:
496,80,43608,2,0,L|428:80,3,66.0000006294251,2|0|0|0,0:0|0:0|0:0|0:0,0:0:0:0:
336,80,43971,2,0,L|256:64,1,80,0|0,0:0|0:0,0:0:0:0:
92,136,44335,6,0,L|160:136,3,66.0000006294251,2|0|0|0,0:0|0:0|0:0|0:0,0:0:0:0:
252,136,44692,2,0,L|332:152,1,80,0|0,0:0|0:0,0:0:0:0:
176,228,45049,5,2,0:0:0:0:
114,252,45138,1,0,0:0:0:0:
109,318,45227,1,0,0:0:0:0:
166,352,45316,1,0,0:0:0:0:
268,352,45406,1,0,0:0:0:0:
140,352,45585,1,0,0:0:0:0:
308,352,45763,5,2,0:0:0:0:
44,320,45948,2,0,P|0:248|72:200,1,176.000005371094,2|0,0:0|0:0,0:0:0:0:
120,200,46411,1,0,0:0:0:0:
272,200,46503,5,2,0:0:0:0:
320,240,46595,1,0,0:0:0:0:
296,296,46688,1,0,0:0:0:0:
232,296,46780,1,0,0:0:0:0:
296,296,46874,1,2,0:0:0:0:
356,288,46966,1,0,0:0:0:0:
380,232,47059,1,0,0:0:0:0:
344,184,47151,1,0,0:0:0:0:
244,184,47244,1,2,0:0:0:0:
484,192,47424,6,0,P|492:120|420:88,1,160,2|0,0:0|0:0,0:0:0:0:
365,90,47876,1,0,0:0:0:0:
220,88,47966,1,2,0:0:0:0:
152,88,48057,1,0,0:0:0:0:
220,88,48147,1,0,0:0:0:0:
288,88,48237,1,0,0:0:0:0:
220,88,48328,1,0,0:0:0:0:
44,192,48689,6,0,L|9:231,3,40,2|0|0|0,0:0|0:0|0:0|0:0,0:0:0:0:
180,192,49051,2,0,P|264:208|320:264,2,160,2|2|0,0:0|0:0|0:0,0:0:0:0:
432,192,50135,6,0,L|467:231,3,40,2|0|0|0,0:0|0:0|0:0|0:0,0:0:0:0:
300,192,50500,2,0,P|216:208|160:264,1,160,2|2,0:0|0:0,0:0:0:0:
324,256,51049,2,0,L|376:256,1,40,0|0,0:0|0:0,0:0:0:0:
216,256,51232,1,0,0:0:0:0:
420,112,51627,6,0,L|460:92,2,40,2|0|0,0:0|0:0|0:0,0:0:0:0:
300,116,51999,2,0,L|216:116,1,80,0|0,0:0|0:0,0:0:0:0:
396,180,52372,2,0,L|448:200,2,40,2|0|0,0:0|0:0|0:0,0:0:0:0:
276,252,52745,2,0,L|360:252,1,80,0|0,0:0|0:0,0:0:0:0:
172,192,53117,5,2,0:0:0:0:
116,192,53207,1,0,0:0:0:0:
60,192,53296,1,0,0:0:0:0:
236,192,53476,1,2,0:0:0:0:
292,192,53566,1,0,0:0:0:0:
348,192,53655,1,0,0:0:0:0:
164,136,53835,5,2,0:0:0:0:
90,119,53921,1,0,0:0:0:0:
82,44,54008,1,0,0:0:0:0:
149,12,54095,1,0,0:0:0:0:
202,65,54181,1,2,0:0:0:0:
396,192,54528,5,2,0:0:0:0:
60,192,54888,2,0,P|-2:244|102:304,1,240.000009155274,2|0,0:0|0:0,0:0:0:0:
192,308,55428,1,0,0:0:0:0:
320,308,55609,1,0,0:0:0:0:
160,308,55789,1,0,0:0:0:0:
396,308,55969,1,2,0:0:0:0:
80,88,56335,6,0,P|12:168|108:192,1,240.000009155274,2|0,0:0|0:0,0:0:0:0:
286,192,56886,1,0,0:0:0:0:
168,192,57069,1,0,0:0:0:0:
48,192,57257,1,0,0:0:0:0:
352,192,57446,5,2,0:0:0:0:
96,192,57819,1,2,0:0:0:0:
384,192,58193,1,2,0:0:0:0:
64,192,58567,1,2,0:0:0:0:
364,192,58941,5,2,0:0:0:0:
244,192,59119,1,2,0:0:0:0:
388,192,59297,1,2,0:0:0:0:
228,192,59475,1,2,0:0:0:0:
460,192,59653,1,2,0:0:0:0:
40,192,60009,1,0,0:0:0:0:
336,192,60403,5,2,0:0:0:0:
176,280,60782,1,0,0:0:0:0:
404,120,61162,1,2,0:0:0:0:
212,120,61348,1,0,0:0:0:0:
340,120,61534,1,0,0:0:0:0:
228,120,61721,1,0,0:0:0:0:
468,120,61907,5,2,0:0:0:0:
212,192,62280,1,0,0:0:0:0:
468,268,62652,1,2,0:0:0:0:
168,268,63025,1,0,0:0:0:0:
436,192,63384,6,0,L|320:152,2,120,2|0|0,0:0|0:0|0:0,0:0:0:0:
100,268,64111,2,0,L|216:228,2,120,2|0|0,0:0|0:0|0:0,0:0:0:0:
432,192,64838,5,2,0:0:0:0:
144,192,65188,1,2,0:0:0:0:
400,192,65539,2,0,P|468:240|488:316,1,160,2|0,0:0|0:0,0:0:0:0:
256,345,72328,5,2,0:0:0:0:
400,248,72502,2,0,L|448:248,1,40
380,248,72676,1,0,0:0:0:0:
304,240,72764,1,0,0:0:0:0:
276,169,72851,1,0,0:0:0:0:
326,112,72938,1,0,0:0:0:0:
484,112,73025,5,2,0:0:0:0:
356,112,73202,2,0,L|308:112,1,40
376,112,73380,1,0,0:0:0:0:
451,119,73468,1,0,0:0:0:0:
479,190,73557,1,0,0:0:0:0:
429,247,73646,1,0,0:0:0:0:
272,248,73735,5,2,0:0:0:0:
198,242,73822,1,0,0:0:0:0:
192,169,73910,1,0,0:0:0:0:
263,150,73998,1,0,0:0:0:0:
334,156,74086,1,0,0:0:0:0:
384,112,74174,1,0,0:0:0:0:
350,56,74262,1,0,0:0:0:0:
286,56,74350,1,0,0:0:0:0:
126,56,74437,5,2,0:0:0:0:
62,95,74525,1,0,0:0:0:0:
82,166,74613,1,0,0:0:0:0:
156,168,74701,1,0,0:0:0:0:
228,196,74789,2,0,L|308:196,1,80
66,264,75154,5,2,0:0:0:0:
194,264,75332,1,2,0:0:0:0:
74,340,75511,2,0,L|122:340,1,40
186,300,75690,2,0,L|142:300,1,40,2|0,0:0|0:0,0:0:0:0:
294,196,75869,5,2,0:0:0:0:
184,196,76047,1,2,0:0:0:0:
304,120,76227,2,0,L|352:120,1,40
272,68,76406,2,0,L|224:68,1,40,2|0,0:0|0:0,0:0:0:0:
382,196,76585,5,2,0:0:0:0:
268,256,76759,2,0,L|222:256,1,40,2|0,0:0|0:0,0:0:0:0:
292,324,76933,2,0,L|342:324,1,40,2|0,0:0|0:0,0:0:0:0:
260,380,77108,2,0,L|206:380,1,40,2|0,0:0|0:0,0:0:0:0:
380,324,77282,1,2,0:0:0:0:
440,296,77369,1,0,0:0:0:0:
428,232,77457,1,2,0:0:0:0:
376,196,77544,1,0,0:0:0:0:
224,196,77631,1,2,0:0:0:0:
352,32,77999,6,0,L|371:118,1,80,2|0,0:0|0:0,0:0:0:0:
224,32,78368,2,0,L|216:132,1,80,2|0,0:0|0:0,0:0:0:0:
372,176,78737,2,0,L|428:248,1,80,2|0,0:0|0:0,0:0:0:0:
260,176,79106,2,0,L|184:220,1,80,2|0,0:0|0:0,0:0:0:0:
360,272,79475,6,0,L|282:290,1,80,2|0,0:0|0:0,0:0:0:0:
104,292,79844,2,0,L|184:292,1,80,2|0,0:0|0:0,0:0:0:0:
344,288,80214,2,0,P|428:240|344:176,1,240,2|0,0:0|0:0,0:0:0:0:
96,300,80961,6,0,L|16:300,1,80,2|0,0:0|0:0,0:0:0:0:
184,236,81332,2,0,L|260:210,1,80,2|0,0:0|0:0,0:0:0:0:
408,192,81704,2,0,L|340:144,1,80,2|0,0:0|0:0,0:0:0:0:
188,156,82076,2,0,L|236:88,1,80,2|0,0:0|0:0,0:0:0:0:
376,92,82448,6,0,L|343:14,1,80,2|0,0:0|0:0,0:0:0:0:
196,156,82820,2,0,L|209:237,1,80,2|0,0:0|0:0,0:0:0:0:
68,232,83192,2,0,L|68:312,1,80,2|0,0:0|0:0,0:0:0:0:
176,312,83560,1,0,0:0:0:0:
16,312,83738,1,0,0:0:0:0:
368,312,83917,6,0,L|388:312,1,15.0000005722046,2|0,0:0|0:0,0:0:0:0:
136,240,84284,2,0,L|118:236,1,15.0000005722046,2|0,0:0|0:0,0:0:0:0:
416,192,84652,2,0,L|432:176,1,15.0000005722046,2|0,0:0|0:0,0:0:0:0:
176,164,85019,2,0,L|165:141,1,15.0000005722046,2|0,0:0|0:0,0:0:0:0:
460,248,85387,6,0,L|467:271,1,15.0000005722046,2|0,0:0|0:0,0:0:0:0:
216,272,85760,2,0,L|200:292,1,15.0000005722046,2|0,0:0|0:0,0:0:0:0:
496,320,86134,2,0,L|516:340,1,15.0000005722046,2|0,0:0|0:0,0:0:0:0:
248,320,86508,2,0,L|232:320,1,15.0000005722046,2|0,0:0|0:0,0:0:0:0:
404,220,86867,6,0,L|416:200,1,15.0000005722046,2|0,0:0|0:0,0:0:0:0:
284,220,87046,1,0,0:0:0:0:
464,220,87226,2,0,L|484:208,1,15.0000005722046,2|0,0:0|0:0,0:0:0:0:
332,220,87406,1,0,0:0:0:0:
88,220,87585,6,0,L|76:200,1,15.0000005722046,2|0,0:0|0:0,0:0:0:0:
204,220,87761,1,0,0:0:0:0:
24,220,87937,2,0,L|4:208,1,15.0000005722046,2|0,0:0|0:0,0:0:0:0:
156,220,88110,1,0,0:0:0:0:
404,192,88283,5,2,0:0:0:0:
284,192,88454,1,2,0:0:0:0:
436,192,88626,1,2,0:0:0:0:
308,192,88798,1,2,0:0:0:0:
68,192,88970,5,2,0:0:0:0:
212,192,89141,1,2,0:0:0:0:
52,192,89313,1,2,0:0:0:0:
196,192,89485,1,2,0:0:0:0:
428,192,89658,5,2,0:0:0:0:
428,192,89747,1,0,0:0:0:0:
428,192,89836,1,0,0:0:0:0:
168,192,90015,1,2,0:0:0:0:
168,192,90104,1,0,0:0:0:0:
168,192,90193,1,0,0:0:0:0:
408,192,90372,1,2,0:0:0:0:
408,192,90461,1,0,0:0:0:0:
408,192,90550,1,0,0:0:0:0:
124,192,90729,1,2,0:0:0:0:
124,192,90823,1,0,0:0:0:0:
124,192,90918,1,0,0:0:0:0:
384,192,91108,6,0,L|312:232,2,80,2|0|0,0:0|0:0|0:0,0:0:0:0:
464,192,91637,1,0,0:0:0:0:
296,192,91813,1,0,0:0:0:0:
436,264,91981,2,0,L|364:304,2,80,0|0|0,0:0|0:0|0:0,0:0:0:0:
192,192,92487,5,2,0:0:0:0:
192,192,92576,1,0,0:0:0:0:
192,192,92666,1,0,0:0:0:0:
452,192,92845,1,2,0:0:0:0:
452,192,92934,1,0,0:0:0:0:
452,192,93024,1,0,0:0:0:0:
132,192,93203,1,2,0:0:0:0:
132,192,93292,1,0,0:0:0:0:
132,192,93382,1,0,0:0:0:0:
412,192,93561,1,2,0:0:0:0:
412,192,93651,1,0,0:0:0:0:
412,192,93740,1,0,0:0:0:0:
140,192,93936,5,2,0:0:0:0:
284,228,94110,1,0,0:0:0:0:
124,264,94285,1,0,0:0:0:0:
252,268,94459,1,0,0:0:0:0:
396,336,94632,2,0,L|480:336,2,80,2|0|0,0:0|0:0|0:0,0:0:0:0:
268,336,95170,1,2,0:0:0:0:
72,336,95360,5,2,0:0:0:0:
268,192,95966,1,2,0:0:0:0:
456,192,96168,1,2,0:0:0:0:
312,192,96758,1,2,0:0:0:0:
128,192,96954,1,2,0:0:0:0:
232,192,97149,1,2,0:0:0:0:
40,192,97344,1,2,0:0:0:0:
492,192,97735,1,2,0:0:0:0:
252,48,98357,1,2,0:0:0:0:
448,48,98565,5,2,0:0:0:0:
336,88,98757,2,0,L|328:172,1,80,0|0,0:0|0:0,0:0:0:0:
424,192,99141,1,2,0:0:0:0:
236,192,99334,1,2,0:0:0:0:
348,192,99520,2,0,L|416:264,1,80,0|0,0:0|0:0,0:0:0:0:
240,252,99893,1,2,0:0:0:0:
416,252,100079,5,2,0:0:0:0:
304,252,100265,1,2,0:0:0:0:
496,252,100452,1,2,0:0:0:0:
176,252,100824,1,2,0:0:0:0:
72,252,101011,2,0,L|136:192,1,80
399,192,101576,6,0,P|379:256|299:296,1,160,2|0,0:0|0:0,0:0:0:0:
139,296,102342,2,0,P|99:244|167:216,1,160,2|0,0:0|0:0,0:0:0:0:
359,216,103109,2,0,P|415:191|439:96,1,160,2|0,0:0|0:0,0:0:0:0:
152,40,103876,2,0,P|79:70|28:136,1,160,2|0,0:0|0:0,0:0:0:0:
312,192,104616,6,0,L|232:160,1,80,2|0,0:0|0:0,0:0:0:0:
140,260,104978,2,2,L|220:228,1,80,2|0,0:0|0:0,0:0:0:0:
376,260,105341,2,0,L|296:260,1,80,2|0,0:0|0:0,0:0:0:0:
184,328,105703,2,0,L|264:328,1,80,2|0,0:0|0:0,0:0:0:0:
440,260,106066,5,2,0:0:0:0:
248,260,106247,2,0,L|155:231,2,95.9999970703126,0|2|0,0:0|0:0|0:0,0:0:0:0:
488,260,106791,2,0,P|512:204|408:176,1,191.999994140625,2|0,0:0|0:0,0:0:0:0:
59,192,107535,5,2,0:0:0:0:
211,192,107720,2,0,L|259:176,2,47.9999985351563,0|0|0,0:0|0:0|0:0,0:0:0:0:
19,192,108092,1,2,0:0:0:0:
307,248,108278,1,2,0:0:0:0:
163,248,108464,2,0,L|111:248,2,47.9999985351563,0|0|0,0:0|0:0|0:0,0:0:0:0:
355,248,108836,1,2,0:0:0:0:
67,328,109021,5,2,0:0:0:0:
211,328,109207,2,0,L|268:309,2,47.9999985351563,0|0|0,0:0|0:0|0:0,0:0:0:0:
35,328,109579,1,2,0:0:0:0:
311,240,109765,2,0,L|403:240,1,80,2|0,0:0|0:0,0:0:0:0:
127,192,110122,2,0,L|35:192,1,80,2|0,0:0|0:0,0:0:0:0:
431,156,110479,5,2,0:0:0:0:
287,108,110657,1,0,0:0:0:0:
234,78,110746,1,0,0:0:0:0:
242,18,110835,1,0,0:0:0:0:
300,4,110924,1,0,0:0:0:0:
399,44,111015,1,2,0:0:0:0:
111,44,111193,1,2,0:0:0:0:
256,192,111372,2,0,L|271:235,3,31.9999990234375,0|0|0|0,0:0|0:0|0:0|0:0,0:0:0:0:
140,196,111738,1,2,0:0:0:0:
413,356,111927,5,2,0:0:0:0:
289,280,112105,2,0,L|254:267,3,31.9999990234375
161,284,112462,1,2,0:0:0:0:
440,284,112641,1,2,0:0:0:0:
28,284,112998,1,2,0:0:0:0:
256,192,113363,12,0,115832,0:0:0:0:
256,192,121758,12,0,124222,0:0:0:0:
328,192,124583,5,2,0:0:0:0:
377,181,124672,1,0,0:0:0:0:
386,131,124761,1,0,0:0:0:0:
345,103,124850,1,0,0:0:0:0:
236,100,124939,2,0,L|180:72,3,40,2|0|0|0,0:0|0:0|0:0|0:0,0:0:0:0:
252,100,125295,5,2,0:0:0:0:
302,114,125384,1,0,0:0:0:0:
341,150,125473,1,0,0:0:0:0:
359,200,125562,1,0,0:0:0:0:
248,204,125651,2,0,L|200:204,3,40,2|0|0|0,0:0|0:0|0:0|0:0,0:0:0:0:
152,204,126007,5,2,0:0:0:0:
104,243,126094,1,0,0:0:0:0:
133,297,126182,1,0,0:0:0:0:
192,296,126270,1,0,0:0:0:0:
352,296,126357,1,2,0:0:0:0:
418,264,126444,1,0,0:0:0:0:
398,193,126532,1,0,0:0:0:0:
325,201,126620,1,0,0:0:0:0:
164,192,126708,5,2,0:0:0:0:
89,172,126795,1,0,0:0:0:0:
58,101,126883,1,2,0:0:0:0:
94,32,126971,1,0,0:0:0:0:
176,32,127059,1,2,0:0:0:0:
226,46,127146,1,0,0:0:0:0:
256,89,127234,1,2,0:0:0:0:
252,141,127322,1,0,0:0:0:0:
72,192,127410,5,2,0:0:0:0:
43,264,127498,1,0,0:0:0:0:
81,331,127586,1,0,0:0:0:0:
157,344,127674,1,0,0:0:0:0:
248,344,127762,2,0,L|300:344,3,50,2|0|0|0,0:0|0:0|0:0|0:0,0:0:0:0:
208,344,128115,5,2,0:0:0:0:
141,311,128203,1,0,0:0:0:0:
161,240,128291,1,0,0:0:0:0:
235,247,128379,1,0,0:0:0:0:
332,244,128468,2,0,L|384:243,3,40,2|0|0|0,0:0|0:0|0:0|0:0,0:0:0:0:
292,244,128829,5,2,0:0:0:0:
216,222,128917,1,0,0:0:0:0:
172,158,129006,1,0,0:0:0:0:
180,79,129095,1,0,0:0:0:0:
340,36,129184,1,2,0:0:0:0:
411,51,129272,1,0,0:0:0:0:
408,125,129361,1,0,0:0:0:0:
335,134,129450,1,0,0:0:0:0:
172,158,129539,5,2,0:0:0:0:
100,173,129626,1,0,0:0:0:0:
103,247,129714,1,0,0:0:0:0:
176,256,129802,1,0,0:0:0:0:
96,316,129889,1,0,0:0:0:0:
44,344,129977,1,0,0:0:0:0:
92,376,130065,1,0,0:0:0:0:
152,376,130153,1,0,0:0:0:0:
356,376,130240,5,0,0:0:0:0:
256,192,130416,12,0,131653,0:0:0:0:
116,192,131889,6,0,L|100:228,2,40,0|0|0,0:0|0:0|0:0,0:0:0:0:
228,192,132253,1,0,0:0:0:0:
84,136,132434,1,0,0:0:0:0:
180,136,132615,1,0,0:0:0:0:
52,76,132795,1,0,0:0:0:0:
132,76,132976,1,0,0:0:0:0:
18,20,133157,1,0,0:0:0:0:
84,20,133334,1,0,0:0:0:0:
260,136,133512,5,0,0:0:0:0:
162,136,133689,1,0,0:0:0:0:
292,76,133867,1,0,0:0:0:0:
208,76,134044,1,0,0:0:0:0:
326,20,134222,1,0,0:0:0:0:
256,20,134408,1,0,0:0:0:0:
496,136,134594,6,0,L|481:136,1,15.0000005722046,2|0,0:0|0:0,0:0:0:0:
196,192,134974,2,0,L|174:192,1,15.0000005722046,2|0,0:0|0:0,0:0:0:0:
452,208,135355,2,0,L|469:208,1,15.0000005722046,2|0,0:0|0:0,0:0:0:0:
208,260,135736,2,0,L|224:260,1,15.0000005722046,2|0,0:0|0:0,0:0:0:0:
408,260,136117,6,0,L|420:236,1,15.0000005722046,2|0,0:0|0:0,0:0:0:0:
188,260,136495,2,0,L|176:236,1,15.0000005722046,2|0,0:0|0:0,0:0:0:0:
464,344,136874,2,0,L|476:320,1,15.0000005722046,2|0,0:0|0:0,0:0:0:0:
160,344,137235,2,0,L|148:320,1,15.0000005722046,2|0,0:0|0:0,0:0:0:0:
380,192,137596,6,0,L|392:172,1,15.0000005722046,2|0,0:0|0:0,0:0:0:0:
240,192,137775,1,0,0:0:0:0:
72,192,137954,2,0,L|52:180,1,15.0000005722046,2|0,0:0|0:0,0:0:0:0:
208,192,138134,1,0,0:0:0:0:
460,192,138313,6,0,L|472:172,1,15.0000005722046,2|0,0:0|0:0,0:0:0:0:
344,192,138493,1,0,0:0:0:0:
176,192,138672,2,0,L|156:180,1,15.0000005722046,2|0,0:0|0:0,0:0:0:0:
312,192,138851,1,0,0:0:0:0:
40,72,139031,5,2,0:0:0:0:
168,72,139205,1,0,0:0:0:0:
8,72,139380,1,0,0:0:0:0:
156,72,139555,1,0,0:0:0:0:
384,72,139730,5,2,0:0:0:0:
256,72,139905,1,0,0:0:0:0:
400,72,140079,1,0,0:0:0:0:
272,72,140254,1,0,0:0:0:0:
500,192,140429,6,0,L|420:216,2,80,2|0|0,0:0|0:0|0:0,0:0:0:0:
368,192,140974,1,0,0:0:0:0:
128,192,141156,1,2,0:0:0:0:
232,112,141338,1,0,0:0:0:0:
176,112,141429,1,0,0:0:0:0:
120,112,141519,1,0,0:0:0:0:
280,192,141711,1,0,0:0:0:0:
44,192,141883,5,2,0:0:0:0:
164,192,142069,2,0,L|208:192,2,40,0|0|0,0:0|0:0|0:0,0:0:0:0:
12,264,142442,1,0,0:0:0:0:
172,264,142628,1,2,0:0:0:0:
52,344,142814,2,0,L|12:312,2,40,0|0|0,0:0|0:0|0:0,0:0:0:0:
148,344,143193,1,0,0:0:0:0:
396,192,143385,6,0,L|472:169,2,80,2|0|0,0:0|0:0|0:0,0:0:0:0:
260,192,143930,1,0,0:0:0:0:
500,252,144112,1,2,0:0:0:0:
380,276,144294,2,0,L|336:276,2,40,0|0|0,0:0|0:0|0:0,0:0:0:0:
484,192,144657,1,0,0:0:0:0:
320,192,144839,5,2,0:0:0:0:
428,112,145019,2,0,L|452:71,2,40,0|0|0,0:0|0:0|0:0,0:0:0:0:
320,112,145381,1,0,0:0:0:0:
468,112,145561,1,2,0:0:0:0:
352,112,145742,2,0,L|328:68,2,40,0|0|0,0:0|0:0|0:0,0:0:0:0:
252,116,146104,1,0,0:0:0:0:
388,192,146284,5,2,0:0:0:0:
204,192,146460,2,0,P|144:208|108:272,1,120.000004577637,2|0,0:0|0:0,0:0:0:0:
272,264,146989,1,2,0:0:0:0:
152,336,147166,1,0,0:0:0:0:
212,336,147254,1,0,0:0:0:0:
312,336,147342,2,0,L|392:336,1,80
156,192,147695,6,0,L|56:192,1,80,2|0,0:0|0:0,0:0:0:0:
224,124,148045,2,0,L|140:76,1,80,2|0,0:0|0:0,0:0:0:0:
316,192,148396,2,0,L|416:192,1,80,2|0,0:0|0:0,0:0:0:0:
248,124,148747,2,0,L|332:76,1,80,2|0,0:0|0:0,0:0:0:0:
72,192,149098,5,2,0:0:0:0:
208,192,149271,1,0,0:0:0:0:
268,192,149358,1,0,0:0:0:0:
328,192,149444,1,0,0:0:0:0:
168,112,149618,1,2,0:0:0:0:
412,112,149791,1,2,0:0:0:0:
284,112,149960,1,2,0:0:0:0:
396,112,150129,1,2,0:0:0:0:
300,112,150299,1,2,0:0:0:0:
64,112,150468,5,2,0:0:0:0:
184,168,150641,2,0,L|213:192,3,26.6666666666667,0|0|0|2,0:0|0:0|0:0|0:0,0:0:0:0:
60,168,150988,1,0,0:0:0:0:
188,252,151161,1,2,0:0:0:0:
76,256,151335,1,0,0:0:0:0:
172,320,151508,1,2,0:0:0:0:
104,320,151690,1,0,0:0:0:0:
