osu file format v14

[General]
AudioFilename: Perpetuum Mobile.mp3
AudioLeadIn: 0
PreviewTime: 2933
Countdown: 0
SampleSet: Soft
StackLeniency: 0.3
Mode: 0
LetterboxInBreaks: 0
WidescreenStoryboard: 0

[Editor]
Bookmarks: 101585,113366,124576
DistanceSpacing: 0.8
BeatDivisor: 6
GridSize: 16
TimelineZoom: 6.991997

[Metadata]
Title:Perpetuum Mobile
TitleUnicode:Perpetuum Mobile
Artist:Comedian Harmonists
ArtistUnicode:Comedian Harmonists
Creator:Bonsai
Version:Insanum BOUYAAAi
Source:
Tags:BOUYAAA Squirrel JBHyperion german vocal group ensemble 20s 30s moto perpetuo johann strauss classical
BeatmapID:887583
BeatmapSetID:316390

[Difficulty]
HPDrainRate:6
CircleSize:4
OverallDifficulty:7
ApproachRate:9
SliderMultiplier:1.4
SliderTickRate:1

[Events]
//Background and Video events
0,0,"Loriot.png",0,0
//Break Periods
2,113363,123983
2,131853,133994
//Storyboard Layer 0 (Background)
//Storyboard Layer 1 (Fail)
//Storyboard Layer 2 (Pass)
//Storyboard Layer 3 (Foreground)
//Storyboard Sound Samples

[TimingPoints]
339.819612704789,337.078651685393,4,2,1,25,1,0
1688,338.028169014084,4,2,1,25,1,0
2702,328.767123287671,4,2,1,25,1,0
3030,339.55857385399,4,2,1,40,1,0
5746,332.409972299169,4,2,1,40,1,0
7075,336.134453781513,4,2,1,40,1,0
8419,338.983050847458,4,2,1,40,1,0
9096,341.880341880342,4,2,1,40,1,0
9437,348.837209302326,4,2,1,40,1,0
10134,346.820809248555,4,2,1,40,1,0
11174,339.943342776204,4,2,1,40,1,0
13213,344.827586206897,4,2,1,40,1,0
13557,370.37037037037,4,2,1,40,1,0
13927,363.636363636364,4,2,1,40,1,0
16108,368.098159509202,4,2,1,40,1,0
16844,357.142857142857,4,2,1,40,1,0
18272,348.837209302326,4,2,1,40,1,0
19667,361.44578313253,4,2,1,40,1,0
21835,352.941176470588,4,2,1,40,1,0
22540,367.197062423501,4,2,1,40,1,0
24008,370.37037037037,4,2,1,40,1,0
25489,362.537764350453,4,2,1,40,1,0
26939,-83.3333333333333,4,2,0,40,0,0
27301,-83.3333333333333,4,2,0,40,0,0
28389,382.165605095541,4,2,1,40,1,0
29726,344.827586206897,4,2,1,40,1,0
29898,363.636363636364,4,2,1,40,1,0
30988,333.333333333333,4,2,1,40,1,0
31071,-125,4,2,0,10,0,0
31321,372.670807453416,4,2,1,40,1,0
32811,358.208955223881,4,2,1,40,1,0
32811,-83.3333333333333,4,2,1,40,0,0
34243,368.098159509202,4,2,1,40,1,0
34335,-100,4,2,0,10,0,0
34427,-100,4,2,1,40,0,0
35715,350.877192982456,4,2,1,20,1,0
37118,377.358490566038,4,2,1,40,1,0
37872,362.537764350453,4,2,1,40,1,0
38597,358.208955223881,4,2,1,40,1,0
40029,353.982300884956,4,2,1,40,1,0
41444,359.281437125748,4,2,1,40,1,0
42881,363.636363636364,4,2,1,40,1,0
44335,357.142857142857,4,2,1,40,1,0
45763,370.37037037037,4,2,1,40,1,0
46225,-100,4,2,0,10,0,0
46318,-100,4,2,0,40,0,0
47244,361.44578313253,4,2,1,40,1,0
47695,-100,4,2,0,10,0,0
47786,-100,4,2,0,40,0,0
49322,-100,4,2,0,10,0,0
49412,-100,4,2,0,40,0,0
50135,365.853658536585,4,2,1,40,1,0
51232,395.256916996047,4,2,1,40,1,0
51627,372.670807453416,4,2,1,40,1,0
53117,359.281437125748,4,2,1,40,1,0
53835,346.820809248555,4,2,1,40,1,0
54528,360.36036036036,4,2,1,40,1,0
54888,-83.3333333333333,4,2,0,40,0,0
55969,366.97247706422,4,2,1,40,1,0
56335,-83.3333333333333,4,2,0,40,0,0
57069,377.358490566038,4,2,1,40,1,0
57446,373.831775700935,4,2,1,40,1,0
58941,356.083086053412,4,2,1,40,1,0
59831,-100,4,2,0,10,0,0
59920,-100,4,2,0,40,0,0
60009,394.736842105263,4,2,1,40,1,0
60403,379.746835443038,4,2,1,40,1,0
61162,372.670807453416,4,2,1,40,1,0
63025,359.281437125748,4,2,1,40,1,0
63384,363.636363636364,4,2,1,40,1,0
64838,350.877192982456,4,2,1,40,1,0
65890,431.654676258993,4,2,1,40,1,0
66321,389.61038961039,4,2,1,33,1,0
67879,370.37037037037,4,2,1,33,1,0
68619,357.142857142857,4,2,1,33,1,0
69333,389.61038961039,4,2,1,33,1,0
70112,387.096774193548,4,2,1,33,1,0
70886,372.670807453416,4,2,1,33,1,0
72004,324.324324324324,4,2,1,33,1,0
72328,348.837209302326,4,2,1,33,1,0
73025,355.029585798817,4,2,1,33,1,0
73735,351.493848857645,4,2,1,33,1,0
74789,365.853658536585,4,2,1,33,1,0
75154,357.78175313059,4,2,1,33,1,0
76585,348.837209302326,4,2,1,33,1,0
77631,368.098159509202,4,2,1,33,1,0
77999,369.230769230769,4,2,1,33,1,0
80214,373.831775700935,4,2,1,33,1,0
80961,371.97768133912,4,2,1,33,1,0
83192,368.098159509202,4,2,1,33,1,0
83560,357.142857142857,4,2,1,33,1,0
83917,367.647058823529,4,2,1,40,1,0
85387,373.831775700935,4,2,1,40,1,0
86508,359.281437125748,4,2,1,40,1,0
87585,352.941176470588,4,2,1,40,1,0
87937,346.820809248555,4,2,1,40,1,0
88283,343.839541547278,4,2,1,40,1,0
89658,357.142857142857,4,2,1,40,1,0
90729,379.746835443038,4,2,1,40,1,0
91108,352.941176470588,4,2,1,33,1,0
91813,337.078651685393,4,2,1,33,1,0
92487,358.208955223881,4,2,1,40,1,0
93740,392.156862745098,4,2,1,40,1,0
93936,348.432055749129,4,2,1,40,1,0
94981,379.746835443038,4,2,1,33,1,0
95170,-100,4,2,0,20,0,0
95360,404.040404040404,4,2,1,20,1,0
95764,-100,4,2,0,10,0,0
95865,-100,4,2,0,20,0,0
96168,393.44262295082,4,2,1,20,1,0
96561,-100,4,2,0,10,0,0
96659,-100,4,2,0,20,0,0
96954,390.879478827362,4,2,1,20,1,0
97735,415.22491349481,4,2,1,20,1,0
98565,384.615384615385,4,2,1,20,1,0
99334,372.670807453416,4,2,1,20,1,0
101197,379.746835443038,4,2,1,20,1,0
101576,383.386581469649,4,2,1,33,1,0
101576,-125,4,2,1,33,0,0
104259,357.142857142857,4,2,1,33,1,0
104616,362.537764350453,4,2,1,33,1,0
107153,382.165605095541,4,2,1,33,1,0
107535,371.747211895911,4,2,1,40,1,0
109765,357.142857142857,4,2,1,40,1,0
111550,377.358490566038,4,2,1,40,1,0
111927,357.142857142857,4,2,1,40,1,0
112998,365.853658536585,4,2,1,40,1,0
113363,352.733686067019,4,2,1,40,1,0
116184,348.027842227378,4,2,1,40,1,0
117576,340.909090909091,4,2,1,40,1,0
118598,362.537764350453,4,2,1,40,1,0
118960,349.854227405248,4,2,1,40,1,0
121758,352.112676056338,4,2,1,40,1,0
124222,361.44578313253,4,2,1,40,1,0
124583,356.083086053412,4,2,1,40,1,0
126007,350.877192982456,4,2,1,40,1,0
127410,352.941176470588,4,2,1,40,1,0
128468,361.44578313253,4,2,1,40,1,0
128829,355.029585798817,4,2,1,40,1,0
129539,350.877192982456,4,2,1,40,1,0
130240,353.356890459364,4,2,0,40,1,0
130240,-166.666666666667,4,2,0,40,0,0
131653,472.44094488189,4,2,1,25,1,0
131889,368.098159509202,4,2,1,25,1,0
132073,361.44578313253,4,2,1,25,1,0
133157,355.029585798817,4,2,1,25,1,0
134222,372.670807453416,4,2,1,25,1,0
134594,380.952380952381,4,2,1,40,1,0
136117,378.548895899054,4,2,1,40,1,0
136874,361.44578313253,4,2,1,40,1,0
137596,358.851674641148,4,2,1,40,1,0
139031,349.65034965035,4,2,1,40,1,0
140429,363.636363636364,4,2,1,33,1,0
141519,384.615384615385,4,2,1,33,1,0
141883,372.670807453416,4,2,1,33,1,0
143001,384.615384615385,4,2,1,33,1,0
143385,363.636363636364,4,2,1,33,1,0
144839,361.44578313253,4,2,1,33,1,0
146284,352.941176470588,4,2,1,33,1,0
147695,350.877192982456,4,2,1,33,1,0
149098,346.820809248555,4,2,1,40,1,0
149791,338.983050847458,4,2,1,40,1,0
150468,346.820809248555,4,2,1,40,1,0
150641,-100,4,2,1,20,0,0
151508,365.853658536585,4,2,1,15,1,0
151508,-100,4,2,1,15,0,0
151887,347.826086956522,4,2,1,15,1,0

[Colours]
Combo1 : 187,217,188
Combo2 : 255,225,164
Combo3 : 174,172,196
Combo4 : 153,209,242

[HitObjects]
256,276,3030,5,2,0:0:0:0:
191,152,3199,1,0,0:0:0:0:
329,195,3369,2,0,P|345:248|344:279,1,70
299,362,3709,1,2,0:0:0:0:
408,357,3878,1,0,3:0:0:0:
408,357,3963,1,0,3:0:0:0:
408,357,4048,1,0,3:0:0:0:
446,265,4218,1,0,0:0:0:0:
261,278,4388,6,0,L|177:270,1,70,2|0,0:0|3:0,0:0:0:0:
178,278,4642,1,0,3:0:0:0:
164,285,4727,1,0,3:0:0:0:
209,366,4897,1,0,0:0:0:0:
70,315,5067,2,0,P|70:261|84:237,1,70,2|0,0:0|3:0,0:0:0:0:
124,192,5322,1,0,3:0:0:0:
129,182,5406,2,0,L|115:86,1,70,0|0,3:0|0:0,0:0:0:0:
68,55,5746,5,2,0:0:0:0:
44,129,5912,1,0,0:0:0:0:
166,55,6078,1,2,0:0:0:0:
194,148,6244,1,0,0:0:0:0:
251,17,6410,1,2,0:0:0:0:
303,145,6577,1,0,0:0:0:0:
388,0,6743,1,2,0:0:0:0:
370,192,6909,1,0,0:0:0:0:
480,26,7075,5,2,0:0:0:0:
432,96,7243,1,0,0:0:0:0:
428,120,7327,1,0,0:0:0:0:
435,144,7411,1,2,0:0:0:0:
451,161,7495,1,0,0:0:0:0:
467,178,7579,1,0,0:0:0:0:
477,200,7663,1,0,0:0:0:0:
472,224,7747,6,0,P|463:271|466:287,3,35,2|0|0|0,0:0|0:0|0:0|0:0,0:0:0:0:
394,312,8083,2,0,P|386:291|372:268,3,35,2|0|0|0,0:0|0:0|0:0|0:0,0:0:0:0:
297,257,8419,6,0,L|201:277,1,70,2|0,0:0|0:0,0:0:0:0:
252,181,8757,2,0,L|167:207,1,70
40,329,9096,2,0,P|102:345|118:358,1,70,2|0,0:0|0:0,0:0:0:0:
8,249,9437,2,0,P|62:244|99:251,1,70
241,351,9785,6,0,P|226:303|238:265,1,70,2|0,0:0|0:0,0:0:0:0:
321,300,10134,2,0,L|334:215,1,70
235,92,10480,1,2,0:0:0:0:
256,186,10654,1,0,0:0:0:0:
401,127,10827,1,0,0:0:0:0:
341,49,11001,1,0,0:0:0:0:
361,224,11174,6,0,P|406:236|443:222,2,70,2|0|2,0:0|0:0|0:0,0:0:0:0:
231,181,11683,1,0,0:0:0:0:
262,370,11853,2,0,P|277:334|276:290,1,70,2|0,0:0|0:0,0:0:0:0:
13,207,12193,2,0,L|31:293,1,70,2|0,0:0|0:0,0:0:0:0:
211,174,12533,5,2,0:0:0:0:
173,321,12703,1,2,0:0:0:0:
336,176,12873,1,2,0:0:0:0:
121,236,13043,1,2,0:0:0:0:
393,287,13213,1,2,0:0:0:0:
404,281,13557,1,4,0:0:0:0:
412,78,13927,6,0,P|352:64|288:96,1,105,0|0,0:0|2:0,0:0:0:0:
269,150,14290,2,0,L|160:135,1,93.3333333333333,0|0,0:0|2:0,0:0:0:0:
93,103,14654,2,0,P|23:145|11:179,1,93.3333333333333,0|0,0:0|2:0,0:0:0:0:
59,225,15017,2,0,P|79:280|73:323,1,93.3333333333333,0|0,0:0|2:0,0:0:0:0:
13,365,15381,6,0,L|131:356,1,93.3333333333333,0|0,0:0|2:0,0:0:0:0:
177,317,15745,1,0,0:0:0:0:
292,369,15927,1,0,0:0:0:0:
108,277,16108,2,0,P|139:246|195:242,1,70
181,242,16660,5,2,0:0:0:0:
325,296,16844,2,0,L|427:285,1,70,2|0,0:0|0:0,0:0:0:0:
193,150,17201,2,0,P|141:157|114:175,1,70,2|0,0:0|0:0,0:0:0:0:
365,204,17558,2,0,L|431:178,1,70,2|0,0:0|0:0,0:0:0:0:
176,240,17915,2,0,P|150:284|151:314,1,70,2|0,0:0|0:0,0:0:0:0:
410,370,18272,5,2,0:0:0:0:
333,321,18446,1,0,0:0:0:0:
301,316,18533,1,0,0:0:0:0:
270,324,18620,1,0,0:0:0:0:
243,340,18708,1,0,0:0:0:0:
216,357,18795,1,0,0:0:0:0:
188,371,18882,1,0,0:0:0:0:
157,377,18969,1,2,0:0:0:0:
125,377,19056,1,0,0:0:0:0:
95,365,19144,1,0,0:0:0:0:
74,341,19231,1,0,0:0:0:0:
68,310,19318,1,0,0:0:0:0:
229,205,19667,5,2,0:0:0:0:
158,290,19847,1,0,0:0:0:0:
16,219,20028,2,0,P|-12:260|-14:291,1,70
116,165,20389,5,2,0:0:0:0:
84,78,20570,1,0,0:0:0:0:
229,25,20751,2,0,L|216:109,1,70
226,233,21112,5,2,0:0:0:0:
336,171,21293,1,0,0:0:0:0:
324,324,21474,2,0,P|324:289|303:240,1,70
199,313,21835,5,2,0:0:0:0:
173,330,21923,1,0,0:0:0:0:
143,340,22011,1,2,0:0:0:0:
111,339,22099,1,0,0:0:0:0:
81,329,22187,1,2,0:0:0:0:
58,306,22276,1,0,0:0:0:0:
50,275,22364,1,2,0:0:0:0:
58,244,22452,1,0,0:0:0:0:
77,220,22540,6,0,B|104:182|104:182|88:64,1,140,2|0,0:0|0:0,0:0:0:0:
224,18,23274,2,0,P|191:71|208:146,1,140
426,72,24008,2,0,L|285:88,1,140
432,179,24748,2,0,L|507:186,1,70,0|0,0:0|2:0,0:0:0:0:
341,247,25119,2,0,L|266:239,1,70,0|0,0:0|2:0,0:0:0:0:
442,319,25489,6,0,B|391:389|300:360|300:360|249:372,1,210
46,257,26214,2,0,P|125:258|194:290,1,140
154,378,26757,1,0,0:0:0:0:
214,194,26939,6,0,P|254:171|328:179,1,83.9999974365235,2|0,0:0|2:0,0:0:0:0:
394,243,27301,2,0,L|401:368,1,111.999996582031,2|0,0:0|0:0,0:0:0:0:
489,376,27664,2,0,L|507:195,1,167.999994873047,2|2,0:0|0:0,0:0:0:0:
505,195,28389,5,0,0:0:0:0:
442,48,28580,2,0,L|428:144,1,70,2|0,0:0|0:0,0:0:0:0:
322,98,28962,2,0,L|336:177,1,70,2|0,0:0|0:0,0:0:0:0:
209,54,29344,2,0,L|203:134,1,70,2|0,0:0|0:0,0:0:0:0:
89,22,29726,2,0,L|108:120,1,70,2|0,0:0|0:0,0:0:0:0:
80,207,30079,5,2,0:0:0:0:
142,345,30261,1,2,0:0:0:0:
73,294,30443,1,2,0:0:0:0:
149,260,30625,2,0,P|203:283|220:306,1,70,2|0,0:0|0:0,0:0:0:0:
220,305,30898,1,0,0:0:0:0:
227,326,30988,2,0,L|321:316,1,70,0|0,0:0|2:0,0:0:0:0:
491,211,31321,6,0,P|384:156|306:220,1,210
392,384,32066,2,0,B|402:330|402:330|404:231,1,140
305,203,32625,1,0,0:0:0:0:
206,339,32811,6,0,P|245:358|323:353,1,83.9999974365235,2|0,0:0|0:0,0:0:0:0:
145,252,33169,2,0,L|0:270,1,111.999996582031,2|0,0:0|0:0,0:0:0:0:
237,263,33527,2,0,P|264:169|209:81,1,167.999994873047,4|0,0:0|0:0,0:0:0:0:
24,49,34243,6,0,L|5:94,1,35
39,56,34427,2,0,L|27:156,1,70,2|0,0:0|0:0,0:0:0:0:
117,30,34795,2,0,L|134:124,1,70,2|0,0:0|0:0,0:0:0:0:
251,53,35163,2,0,L|239:148,1,70,2|0,0:0|0:0,0:0:0:0:
356,19,35531,6,0,L|385:180,1,137,2|2,0:0|0:0,0:0:0:0:
344,337,36065,1,2,0:0:0:0:
432,269,36241,1,2,0:0:0:0:
296,229,36416,2,0,P|245:236|185:274,1,105,2|0,0:0|0:0,0:0:0:0:
195,284,36767,1,0,0:0:0:0:
32,307,37118,5,2,0:0:0:0:
32,307,37212,1,0,0:0:0:0:
32,307,37306,1,0,0:0:0:0:
140,374,37495,2,0,L|195:371,2,35
101,243,37872,1,2,0:0:0:0:
106,224,37962,1,0,0:0:0:0:
112,204,38053,1,0,0:0:0:0:
181,109,38234,1,0,0:0:0:0:
187,129,38325,1,0,0:0:0:0:
192,148,38415,1,0,0:0:0:0:
85,107,38597,6,0,P|91:69|121:31,1,70,2|0,0:0|0:0,0:0:0:0:
278,146,38955,2,0,P|272:184|242:222,1,70,2|0,0:0|0:0,0:0:0:0:
0,306,39313,2,0,P|4:341|22:371,1,70,2|0,0:0|0:0,0:0:0:0:
192,268,39671,2,0,P|187:233|170:204,1,70,2|0,0:0|0:0,0:0:0:0:
247,366,40029,5,2,0:0:0:0:
267,369,40117,1,0,0:0:0:0:
285,372,40205,1,0,0:0:0:0:
403,320,40382,2,0,L|414:364,2,35
320,254,40736,1,2,0:0:0:0:
320,254,40825,1,0,0:0:0:0:
320,254,40913,1,0,0:0:0:0:
397,187,41090,1,0,0:0:0:0:
402,169,41179,1,0,0:0:0:0:
398,147,41267,1,0,0:0:0:0:
291,89,41444,6,0,L|188:100,1,70,2|0,0:0|0:0,0:0:0:0:
97,226,41803,1,2,0:0:0:0:
120,132,41982,1,0,0:0:0:0:
176,268,42162,2,0,P|191:335|187:366,1,70,2|0,0:0|0:0,0:0:0:0:
8,264,42521,2,0,P|9:196|15:171,1,70,2|0,0:0|0:0,0:0:0:0:
199,174,42881,5,2,0:0:0:0:
206,186,43062,1,0,0:0:0:0:
358,132,43244,1,0,0:0:0:0:
260,106,43426,1,0,0:0:0:0:
309,217,43608,1,2,0:0:0:0:
339,226,43699,1,0,0:0:0:0:
370,226,43790,1,0,0:0:0:0:
399,215,43881,1,0,0:0:0:0:
423,195,43971,1,0,0:0:0:0:
475,99,44153,1,0,0:0:0:0:
354,149,44335,5,2,0:0:0:0:
354,149,44424,1,0,0:0:0:0:
354,149,44513,2,0,L|347:99,2,35
395,38,44870,1,0,0:0:0:0:
258,101,45049,1,2,0:0:0:0:
226,98,45138,1,0,0:0:0:0:
194,94,45227,1,0,0:0:0:0:
162,91,45317,1,0,0:0:0:0:
130,88,45406,1,0,0:0:0:0:
202,15,45585,1,0,0:0:0:0:
277,189,45763,5,2,0:0:0:0:
54,160,45948,2,0,P|119:147|169:177,1,105,2|0,0:0|2:0,0:0:0:0:
212,215,46318,2,0,P|235:200|256:171,1,35
183,288,46503,1,2,0:0:0:0:
203,312,46596,1,0,0:0:0:0:
230,327,46688,1,0,0:0:0:0:
261,331,46781,1,0,0:0:0:0:
292,327,46874,1,0,0:0:0:0:
318,310,46966,1,0,0:0:0:0:
345,293,47059,1,0,0:0:0:0:
376,289,47151,1,0,0:0:0:0:
407,298,47244,5,2,0:0:0:0:
487,367,47424,2,0,L|493:232,1,105,2|0,0:0|2:0,0:0:0:0:
437,182,47786,2,0,L|415:233,1,35
452,100,47966,1,2,0:0:0:0:
448,90,48057,1,0,0:0:0:0:
444,80,48147,1,0,0:0:0:0:
440,70,48237,1,0,0:0:0:0:
436,60,48328,1,0,0:0:0:0:
157,59,48689,5,2,0:0:0:0:
62,110,48870,1,2,2:0:0:0:
62,110,48960,1,2,2:0:0:0:
62,110,49051,2,0,P|44:169|73:230,1,105,0|0,3:0|2:0,0:0:0:0:
85,229,49412,2,0,L|242:217,1,140,2|0,0:0|0:0,0:0:0:0:
280,137,49954,1,0,0:0:0:0:
353,288,50135,5,2,0:0:0:0:
394,202,50317,1,2,2:0:0:0:
414,215,50409,1,2,2:0:0:0:
430,232,50500,2,0,P|447:278|443:317,1,70,0|0,3:0|0:0,0:0:0:0:
304,373,50866,2,0,P|259:324|266:246,1,140,2|0,0:0|0:0,0:0:0:0:
305,184,51429,1,0,0:0:0:0:
185,133,51627,5,0,3:0:0:0:
185,133,51720,1,0,3:0:0:0:
185,133,51813,1,0,3:0:0:0:
265,62,51999,2,2,L|258:2,2,35
108,53,52372,1,0,3:0:0:0:
108,53,52465,1,0,3:0:0:0:
108,53,52558,1,0,3:0:0:0:
201,142,52745,2,2,L|260:135,2,35
61,182,53117,5,0,3:0:0:0:
57,195,53206,1,0,3:0:0:0:
54,208,53296,1,0,3:0:0:0:
197,250,53476,1,2,0:0:0:0:
193,237,53565,1,2,0:0:0:0:
190,224,53655,1,2,0:0:0:0:
106,316,53835,1,0,3:0:0:0:
112,328,53921,1,0,3:0:0:0:
121,338,54008,1,0,3:0:0:0:
133,345,54095,1,0,3:0:0:0:
146,348,54181,2,0,B|188:342|188:342|243:344,1,70,2|0,0:0|0:0,0:0:0:0:
394,283,54528,6,0,P|352:276|316:280,1,70,2|0,0:0|0:0,0:0:0:0:
426,364,54888,2,0,P|469:327|454:217,1,167.999994873047,4|0,0:0|0:0,0:0:0:0:
303,181,55428,1,0,0:0:0:0:
487,131,55609,1,2,0:0:0:0:
371,255,55789,1,0,0:0:0:0:
404,116,55969,6,0,B|404:78|404:78|395:26,1,70,2|0,0:0|0:0,0:0:0:0:
216,129,56335,2,0,P|206:212|267:276,1,167.999994873047,4|0,0:0|0:0,0:0:0:0:
364,265,56886,1,0,0:0:0:0:
300,179,57069,1,2,0:0:0:0:
464,204,57257,1,0,0:0:0:0:
267,282,57446,6,0,P|243:295|180:294,1,70,2|0,0:0|0:0,0:0:0:0:
48,190,57819,2,0,P|82:192|113:207,1,70,2|0,0:0|0:0,0:0:0:0:
68,368,58193,2,0,L|58:272,1,70,2|0,0:0|0:0,0:0:0:0:
214,198,58567,2,0,L|221:107,1,70,2|0,0:0|0:0,0:0:0:0:
201,328,58941,5,2,0:0:0:0:
112,203,59119,1,2,0:0:0:0:
323,277,59297,2,0,L|330:361,1,70,2|2,0:0|0:0,0:0:0:0:
214,198,59653,2,0,L|221:107,1,70,2|0,0:0|0:0,0:0:0:0:
428,69,60009,1,4,0:0:0:0:
435,79,60403,6,0,L|431:157,1,70,2|0,0:0|0:0,0:0:0:0:
336,182,60782,2,0,L|342:91,1,70,2|0,0:0|0:0,0:0:0:0:
220,47,61162,1,2,0:0:0:0:
239,134,61348,1,0,0:0:0:0:
128,68,61534,1,2,0:0:0:0:
149,158,61721,1,0,0:0:0:0:
13,122,61907,6,0,L|0:215,1,70,2|0,0:0|0:0,0:0:0:0:
111,303,62280,2,0,P|110:248|94:213,1,70,2|0,0:0|0:0,0:0:0:0:
25,339,62652,2,0,L|181:364,1,140,2|0,0:0|0:0,0:0:0:0:
363,293,63384,5,0,3:0:0:0:
268,347,63565,1,0,3:0:0:0:
447,361,63747,2,0,P|466:321|468:281,1,70,2|0,0:0|0:0,0:0:0:0:
371,150,64111,5,0,3:0:0:0:
420,227,64293,1,0,3:0:0:0:
424,64,64474,2,0,P|365:46|329:56,1,70,2|0,0:0|0:0,0:0:0:0:
147,112,64838,5,0,3:0:0:0:
255,132,65013,1,0,3:0:0:0:
84,172,65188,1,2,0:0:0:0:
281,215,65364,1,2,0:0:0:0:
211,53,65539,5,2,0:0:0:0:
163,273,65890,1,4,0:0:0:0:
164,292,66321,6,0,P|219:341|303:331,1,140
371,229,67100,2,0,B|427:223|427:223|523:244,1,140
243,254,67879,6,0,L|257:108,1,140
369,29,68619,2,0,P|392:78|387:164,1,140
141,111,69333,6,0,P|131:63|134:33,1,70
60,178,69722,2,0,P|40:137|33:100,1,70
150,259,70112,2,0,P|146:308|136:344,1,70
48,286,70499,2,0,P|31:337|15:359,1,70
228,155,70886,2,0,P|269:135|300:131,1,70
441,201,71258,2,0,P|375:194|344:209,1,70
263,255,71631,2,0,P|316:265|340:273,1,70
426,336,72004,2,0,P|362:360|341:378,1,70
226,383,72328,5,2,0:0:0:0:
169,289,72502,1,0,0:0:0:0:
146,280,72589,1,0,0:0:0:0:
121,283,72676,1,0,0:0:0:0:
98,294,72764,1,0,0:0:0:0:
81,312,72851,1,0,0:0:0:0:
75,335,72938,1,0,0:0:0:0:
80,358,73025,1,2,0:0:0:0:
270,306,73202,5,0,0:0:0:0:
273,281,73291,1,0,0:0:0:0:
276,257,73380,1,0,0:0:0:0:
280,232,73468,1,0,0:0:0:0:
283,207,73557,1,0,0:0:0:0:
285,183,73646,1,0,0:0:0:0:
287,159,73735,1,2,0:0:0:0:
225,81,73910,5,0,0:0:0:0:
243,65,73998,1,0,0:0:0:0:
265,55,74086,1,0,0:0:0:0:
289,52,74174,1,0,0:0:0:0:
312,59,74262,1,0,0:0:0:0:
333,70,74350,1,0,0:0:0:0:
355,80,74437,2,0,P|402:97|417:97,3,35,2|0|0|0,0:0|0:0|0:0|0:0,0:0:0:0:
474,101,74789,2,0,P|469:71|436:26,1,70
415,227,75154,6,0,L|431:319,1,70,2|2,0:0|0:0,0:0:0:0:
327,364,75511,1,0,0:0:0:0:
330,339,75601,1,0,0:0:0:0:
319,316,75690,1,2,0:0:0:0:
296,306,75780,1,0,0:0:0:0:
271,301,75869,6,0,L|175:315,1,70,2|2,0:0|0:0,0:0:0:0:
108,373,76227,1,0,0:0:0:0:
88,358,76316,1,0,0:0:0:0:
78,335,76406,1,2,0:0:0:0:
79,310,76495,1,0,0:0:0:0:
89,286,76585,6,0,P|103:234|98:210,1,70,2|2,0:0|0:0,0:0:0:0:
87,194,76846,1,0,0:0:0:0:
63,178,76933,2,0,L|3:188,3,35,2|0|2|0,0:0|0:0|0:0|0:0,0:0:0:0:
133,129,77282,2,0,L|197:143,3,35,2|0|2|0,0:0|0:0|0:0|0:0,0:0:0:0:
82,56,77631,2,0,P|113:44|161:48,1,70,2|0,0:0|0:0,0:0:0:0:
337,82,77999,6,0,B|393:73|393:73|414:58|414:58|484:47,2,140
248,28,79106,1,0,0:0:0:0:
253,128,79475,2,0,P|308:173|396:159,1,140
254,234,80214,2,0,B|240:275|240:275|252:394,1,140
198,167,80961,6,0,P|126:154|68:181,1,140
85,344,81704,2,0,P|157:357|215:330,1,140
142,260,82448,1,0,0:0:0:0:
146,253,82820,1,0,0:0:0:0:
317,214,83192,2,0,P|417:232|456:278,1,140
344,347,83917,5,0,1:0:0:0:
427,142,84284,1,2,0:0:0:0:
461,346,84652,5,0,1:0:0:0:
315,184,85019,1,2,0:0:0:0:
501,218,85387,5,0,1:0:0:0:
272,300,85760,1,2,0:0:0:0:
371,149,86134,5,0,1:0:0:0:
411,368,86508,1,2,0:0:0:0:
417,215,86867,5,0,1:0:0:0:
367,298,87046,1,2,0:0:0:0:
301,166,87226,1,0,1:0:0:0:
285,265,87406,1,2,0:0:0:0:
174,167,87585,1,0,1:0:0:0:
198,276,87761,1,2,0:0:0:0:
57,230,87937,1,0,1:0:0:0:
129,320,88110,1,2,0:0:0:0:
157,152,88283,5,0,1:0:0:0:
209,298,88454,1,2,0:0:0:0:
264,117,88626,1,0,1:0:0:0:
286,299,88798,1,2,0:0:0:0:
383,118,88970,1,0,1:0:0:0:
357,318,89142,1,0,1:0:0:0:
486,143,89314,1,0,1:0:0:0:
420,356,89486,1,0,1:0:0:0:
389,176,89658,6,2,L|381:121,2,35
454,263,90015,2,2,L|515:275,2,35
349,285,90372,1,2,0:0:0:0:
349,285,90461,1,2,0:0:0:0:
349,285,90550,1,2,0:0:0:0:
479,176,90729,1,2,0:0:0:0:
479,176,90823,1,2,0:0:0:0:
479,176,90918,1,2,0:0:0:0:
299,102,91108,6,0,L|284:193,1,70,2|0,0:0|0:0,0:0:0:0:
196,139,91460,2,0,L|211:217,1,70
144,347,91813,2,0,L|128:265,1,70,2|0,0:0|0:0,0:0:0:0:
41,384,92150,2,0,L|57:289,1,70
92,191,92487,5,2,0:0:0:0:
92,191,92576,1,2,0:0:0:0:
92,191,92666,1,2,0:0:0:0:
231,293,92845,1,2,0:0:0:0:
231,293,92934,1,2,0:0:0:0:
231,293,93024,1,2,0:0:0:0:
239,137,93203,1,2,0:0:0:0:
239,137,93292,1,2,0:0:0:0:
239,137,93382,1,2,0:0:0:0:
126,294,93561,2,2,L|131:339,2,35
297,213,93936,6,0,P|359:230|386:251,1,70,2|0,0:0|0:0,0:0:0:0:
468,358,94284,1,0,0:0:0:0:
362,346,94458,1,0,0:0:0:0:
454,171,94632,2,0,P|484:217|491:245,1,70,2|0,0:0|0:0,0:0:0:0:
362,346,94981,1,0,0:0:0:0:
365,354,95170,1,0,0:0:0:0:
239,286,95360,6,0,P|179:279|114:324,1,140,2|0,0:0|0:0,0:0:0:0:
200,370,95966,1,0,0:0:0:0:
144,207,96168,2,0,P|56:214|14:172,1,140,2|0,0:0|0:0,0:0:0:0:
96,135,96758,1,0,0:0:0:0:
256,95,96954,5,2,0:0:0:0:
294,172,97149,1,0,0:0:0:0:
170,88,97344,2,0,P|186:43|231:15,1,70,2|0,0:0|2:0,0:0:0:0:
353,46,97735,1,2,0:0:0:0:
240,198,98357,1,0,0:0:0:0:
327,149,98565,6,0,L|413:162,1,70,2|0,0:0|0:0,0:0:0:0:
455,225,98949,1,0,0:0:0:0:
488,146,99141,1,0,0:0:0:0:
378,280,99334,2,0,P|411:310|449:318,1,70,2|0,0:0|0:0,0:0:0:0:
284,242,99706,2,0,L|211:253,1,70
90,340,100079,5,2,0:0:0:0:
183,362,100265,1,0,0:0:0:0:
48,264,100452,2,0,P|12:303|5:326,1,70,2|0,0:0|0:0,0:0:0:0:
142,243,100824,2,0,L|131:146,1,70,2|0,0:0|0:0,0:0:0:0:
123,91,101197,1,0,0:0:0:0:
135,83,101576,6,0,P|170:90|246:54,1,112,0|0,0:0|2:0,0:0:0:0:
438,192,102342,2,0,P|403:199|327:163,1,112,0|0,0:0|2:0,0:0:0:0:
208,354,103109,1,0,0:0:0:0:
115,260,103492,2,0,B|74:264|74:264|47:255|47:255|17:258|-13:251,2,112
182,89,104616,5,2,0:0:0:0:
117,170,104797,1,0,0:0:0:0:
337,195,104978,5,2,0:0:0:0:
299,98,105159,1,0,0:0:0:0:
170,276,105341,5,2,0:0:0:0:
272,291,105522,1,0,0:0:0:0:
182,89,105703,5,2,0:0:0:0:
117,170,105884,1,0,0:0:0:0:
292,93,106066,6,0,L|370:85,1,70,2|0,0:0|0:0,0:0:0:0:
497,181,106428,2,0,L|398:176,1,70,2|0,0:0|0:0,0:0:0:0:
295,264,106791,2,0,P|364:248|437:283,1,140,2|0,0:0|0:0,0:0:0:0:
440,296,107535,5,2,0:0:0:0:
362,374,107720,2,0,L|356:332,2,35,2|2|2,2:0|2:0|2:0,2:0:0:0:
468,383,108092,1,0,0:0:0:0:
267,345,108278,5,2,0:0:0:0:
294,257,108464,2,0,L|281:204,2,35,2|2|2,2:0|2:0|2:0,2:0:0:0:
203,280,108836,1,0,0:0:0:0:
424,296,109021,5,2,0:0:0:0:
469,221,109207,2,0,L|518:214,2,35,2|2|2,2:0|2:0|2:0,2:0:0:0:
376,221,109579,1,0,0:0:0:0:
444,56,109765,1,2,0:0:0:0:
489,136,109943,1,0,0:0:0:0:
348,79,110122,2,0,P|350:39|371:-1,1,70,2|0,0:0|0:0,0:0:0:0:
384,220,110479,5,2,0:0:0:0:
301,164,110657,2,0,L|264:160,2,35,2|2|2,2:0|2:0|2:0,2:0:0:0:
390,132,111015,1,0,0:0:0:0:
289,286,111193,1,2,0:0:0:0:
376,340,111372,2,0,L|416:336,2,35,2|2|2,2:0|2:0|2:0,2:0:0:0:
289,384,111738,1,0,0:0:0:0:
210,217,111927,5,2,0:0:0:0:
155,291,112105,2,0,L|159:331,2,35,2|2|2,2:0|2:0|2:0,2:0:0:0:
117,206,112462,1,0,0:0:0:0:
248,297,112641,2,0,P|281:268|282:170,1,140,2|0,0:0|0:0,0:0:0:0:
113,78,124583,5,2,0:0:0:0:
97,96,124672,1,0,0:0:0:0:
88,119,124761,1,0,0:0:0:0:
85,143,124850,1,0,0:0:0:0:
88,167,124939,2,0,P|95:198|97:232,3,35,2|0|0|0,0:0|0:0|0:0|0:0,0:0:0:0:
34,256,125295,2,0,P|23:285|21:299,3,35,2|0|0|0,0:0|0:0|0:0|0:0,0:0:0:0:
105,299,125651,1,2,0:0:0:0:
128,291,125740,1,0,0:0:0:0:
152,287,125829,1,0,0:0:0:0:
175,292,125918,1,0,0:0:0:0:
196,305,126007,6,0,P|224:318|234:320,3,35,2|0|0|0,0:0|0:0|0:0|0:0,0:0:0:0:
288,264,126357,2,0,P|314:255|334:254,3,35,2|0|0|0,0:0|0:0|0:0|0:0,0:0:0:0:
383,315,126708,1,2,0:0:0:0:
402,300,126796,1,0,0:0:0:0:
412,277,126884,1,0,0:0:0:0:
414,252,126971,1,0,0:0:0:0:
408,228,127059,1,2,0:0:0:0:
400,204,127147,1,0,0:0:0:0:
390,181,127235,1,0,0:0:0:0:
387,157,127322,1,0,0:0:0:0:
398,135,127410,6,0,L|447:139,3,35,2|0|0|0,0:0|0:0|0:0|0:0,0:0:0:0:
372,57,127762,2,0,L|421:63,3,35,2|0|0|0,0:0|0:0|0:0|0:0,0:0:0:0:
286,79,128115,2,0,P|276:103|272:122,3,35,2|0|0|0,0:0|0:0|0:0|0:0,0:0:0:0:
203,50,128468,2,0,P|201:33|191:9,3,35,2|0|0|0,0:0|0:0|0:0|0:0,0:0:0:0:
120,59,128829,5,2,0:0:0:0:
105,79,128917,1,0,0:0:0:0:
96,101,129006,1,0,0:0:0:0:
94,125,129095,1,0,0:0:0:0:
101,148,129184,2,0,P|114:195|115:209,3,35,2|0|0|0,0:0|0:0|0:0|0:0,0:0:0:0:
46,234,129539,1,2,0:0:0:0:
62,252,129626,1,0,0:0:0:0:
83,264,129714,1,0,0:0:0:0:
107,267,129802,1,0,0:0:0:0:
131,263,129889,1,2,0:0:0:0:
153,252,129977,1,0,0:0:0:0:
172,237,130065,1,0,0:0:0:0:
194,227,130153,1,0,0:0:0:0:
216,218,130240,6,2,B|275:196|331:240|331:240|377:230|377:230|471:310|516:187|433:210,1,335.999989746094,2|0,0:0|0:0,0:0:0:0:
334,131,134594,5,0,3:0:0:0:
302,324,134974,1,2,0:0:0:0:
421,192,135355,5,0,3:0:0:0:
222,232,135736,1,2,0:0:0:0:
420,302,136117,5,0,3:0:0:0:
274,148,136495,1,2,0:0:0:0:
316,348,136874,5,0,3:0:0:0:
369,124,137235,1,2,0:0:0:0:
186,318,137596,5,0,3:0:0:0:
131,235,137775,1,2,0:0:0:0:
267,281,137954,1,0,3:0:0:0:
245,191,138133,1,2,0:0:0:0:
355,281,138312,1,0,3:0:0:0:
372,187,138492,1,2,0:0:0:0:
431,320,138671,1,0,3:0:0:0:
488,241,138851,1,2,0:0:0:0:
355,299,139031,5,0,3:0:0:0:
388,184,139205,1,2,0:0:0:0:
279,304,139380,1,0,3:0:0:0:
274,153,139555,1,2,0:0:0:0:
212,330,139730,1,0,3:0:0:0:
151,174,139905,1,2,3:0:0:0:
151,379,140079,1,0,3:0:0:0:
31,241,140254,1,2,3:0:0:0:
209,294,140429,6,0,L|280:306,2,70,2|0|0,0:0|0:0|0:0,0:0:0:0:
149,229,140974,1,0,0:0:0:0:
124,312,141156,1,2,0:0:0:0:
63,252,141338,2,0,L|12:258,2,35
176,148,141711,1,0,0:0:0:0:
238,217,141883,5,2,0:0:0:0:
92,162,142069,2,0,L|84:118,2,35
148,231,142442,1,0,0:0:0:0:
259,133,142628,1,2,0:0:0:0:
316,204,142814,2,0,L|325:250,2,35
346,122,143193,1,0,0:0:0:0:
236,215,143385,6,0,L|228:303,1,70,2|0,0:0|0:0,0:0:0:0:
405,359,143748,2,0,L|394:272,1,70
224,371,144112,1,2,0:0:0:0:
156,325,144294,1,0,0:0:0:0:
156,325,144385,1,0,0:0:0:0:
156,325,144475,1,0,0:0:0:0:
231,287,144657,1,0,0:0:0:0:
100,258,144839,1,2,0:0:0:0:
70,340,145019,2,0,L|81:390,2,35
13,275,145381,1,0,0:0:0:0:
128,177,145561,6,0,P|167:211|177:241,1,70,2|0,0:0|0:0,0:0:0:0:
175,234,145832,1,0,0:0:0:0:
175,242,145923,1,0,0:0:0:0:
97,257,146104,1,0,0:0:0:0:
46,155,146284,6,0,P|70:112|110:97,1,70,2|0,0:0|0:0,0:0:0:0:
181,118,146636,2,0,L|266:128,1,70
376,94,146989,1,2,0:0:0:0:
331,175,147166,1,0,0:0:0:0:
331,175,147254,1,0,0:0:0:0:
331,175,147342,1,0,0:0:0:0:
425,171,147519,1,0,0:0:0:0:
302,263,147695,6,0,P|338:279|394:283,1,70,2|0,0:0|0:0,0:0:0:0:
233,320,148045,2,0,P|268:345|305:364,1,70,2|0,0:0|0:0,0:0:0:0:
120,286,148396,2,0,P|84:300|46:333,1,70,2|0,0:0|0:0,0:0:0:0:
86,210,148747,2,0,P|37:215|3:225,1,70,2|0,0:0|0:0,0:0:0:0:
229,178,149098,5,2,0:0:0:0:
259,99,149271,2,0,L|246:55,2,35,2|2|2,0:0|0:0|0:0,0:0:0:0:
313,167,149618,1,0,0:0:0:0:
175,108,149791,2,0,P|145:144|144:192,1,70,2|0,0:0|0:0,0:0:0:0:
275,244,150129,2,0,P|305:208|306:160,1,70,2|0,0:0|0:0,0:0:0:0:
151,254,150468,5,2,0:0:0:0:
214,320,150641,2,0,L|204:355,3,23.3333333333333,0|0|0|0,3:0|3:0|3:0|3:0,0:0:0:0:
131,336,150988,1,0,0:0:0:0:
165,171,151161,2,0,P|213:192|229:214,1,70,2|0,0:0|0:0,0:0:0:0:
131,336,151508,2,0,P|95:325|71:283,1,70,2|0,0:0|0:0,0:0:0:0:
