osu file format v14

[General]
AudioFilename: Perpetuum Mobile.mp3
AudioLeadIn: 0
PreviewTime: 2933
Countdown: 0
SampleSet: Soft
StackLeniency: 0.6
Mode: 0
LetterboxInBreaks: 0
WidescreenStoryboard: 0

[Editor]
DistanceSpacing: 1.1
BeatDivisor: 2
GridSize: 32
TimelineZoom: 1.700005

[Metadata]
Title:Perpetuum Mobile
TitleUnicode:Perpetuum Mobile
Artist:Comedian Harmonists
ArtistUnicode:Comedian Harmonists
Creator:Bonsai
Version:Difficilor
Source:
Tags:BOUYAAA Squirrel JBHyperion german vocal group ensemble 20s 30s moto perpetuo johann strauss classical
BeatmapID:887584
BeatmapSetID:316390

[Difficulty]
HPDrainRate:5
CircleSize:4
OverallDifficulty:6
ApproachRate:7.8
SliderMultiplier:1.4
SliderTickRate:1

[Events]
//Background and Video events
0,0,"Loriot.png",0,0
//Break Periods
2,66321,71549
2,113363,123804
2,131853,133815
//Storyboard Layer 0 (Background)
//Storyboard Layer 1 (Fail)
//Storyboard Layer 2 (Pass)
//Storyboard Layer 3 (Foreground)
//Storyboard Sound Samples

[TimingPoints]
339.819612704789,337.078651685393,4,2,1,25,1,0
1688,338.028169014084,4,2,1,25,1,0
2702,328.767123287671,4,2,1,25,1,0
3030,339.55857385399,4,2,1,40,1,0
5746,332.409972299169,4,2,1,40,1,0
7075,336.134453781513,4,2,1,40,1,0
8419,338.983050847458,4,2,1,40,1,0
9096,341.880341880342,4,2,1,40,1,0
9437,348.837209302326,4,2,1,40,1,0
10134,346.820809248555,4,2,1,40,1,0
11174,339.943342776204,4,2,1,40,1,0
13213,344.827586206897,4,2,1,40,1,0
13557,370.37037037037,4,2,1,40,1,0
13927,363.636363636364,4,2,1,40,1,0
15381,-83.3333333333333,4,2,1,40,0,0
15745,-100,4,2,1,40,0,0
16108,368.098159509202,4,2,1,40,1,0
16844,357.142857142857,4,2,1,40,1,0
18272,348.837209302326,4,2,1,40,1,0
19667,361.44578313253,4,2,1,40,1,0
21835,352.941176470588,4,2,1,40,1,0
22540,367.197062423501,4,2,1,40,1,0
24008,370.37037037037,4,2,1,40,1,0
25489,362.537764350453,4,2,1,40,1,0
25489,-125,4,2,1,40,0,0
25851,-125,4,2,1,10,0,0
26032,-125,4,2,1,40,0,0
26576,-125,4,2,1,10,0,0
26757,-125,4,2,1,40,0,0
26939,-100,4,2,1,40,0,0
28389,382.165605095541,4,2,1,40,1,0
28389,-111.111111111111,4,2,1,40,0,0
29726,344.827586206897,4,2,1,40,1,0
29898,363.636363636364,4,2,1,40,1,0
29898,-111.111111111111,4,2,1,40,0,0
30988,333.333333333333,4,2,1,40,1,0
31321,372.670807453416,4,2,1,40,1,0
31321,-125,4,2,1,40,0,0
31693,-125,4,2,1,10,0,0
31880,-125,4,2,1,40,0,0
32439,-125,4,2,1,10,0,0
32625,-125,4,2,1,40,0,0
32811,358.208955223881,4,2,1,40,1,0
34243,368.098159509202,4,2,1,40,1,0
35715,350.877192982456,4,2,1,20,1,0
37118,377.358490566038,4,2,1,40,1,0
37872,362.537764350453,4,2,1,40,1,0
38597,358.208955223881,4,2,1,40,1,0
40029,353.982300884956,4,2,1,40,1,0
41444,359.281437125748,4,2,1,40,1,0
42881,363.636363636364,4,2,1,40,1,0
44335,357.142857142857,4,2,1,40,1,0
45763,370.37037037037,4,2,1,40,1,0
47244,361.44578313253,4,2,1,40,1,0
49774,-100,4,2,1,20,0,0
50135,365.853658536585,4,2,1,40,1,0
51232,395.256916996047,4,2,1,40,1,0
51627,372.670807453416,4,2,1,40,1,0
53117,359.281437125748,4,2,1,40,1,0
53835,346.820809248555,4,2,1,40,1,0
54528,360.36036036036,4,2,1,40,1,0
55969,366.97247706422,4,2,1,40,1,0
57069,377.358490566038,4,2,1,40,1,0
57446,373.831775700935,4,2,1,40,1,0
58941,356.083086053412,4,2,1,40,1,0
60009,394.736842105263,4,2,1,40,1,0
60403,379.746835443038,4,2,1,40,1,0
61162,372.670807453416,4,2,1,40,1,0
63025,359.281437125748,4,2,1,40,1,0
63384,363.636363636364,4,2,1,40,1,0
64838,350.877192982456,4,2,1,40,1,0
65890,431.654676258993,4,2,1,40,1,0
66321,389.61038961039,4,2,1,33,1,0
67879,370.37037037037,4,2,1,33,1,0
68619,357.142857142857,4,2,1,33,1,0
69333,389.61038961039,4,2,1,33,1,0
70112,387.096774193548,4,2,1,33,1,0
70886,372.670807453416,4,2,1,33,1,0
72004,324.324324324324,4,2,1,33,1,0
72328,348.837209302326,4,2,1,33,1,0
73025,355.029585798817,4,2,1,33,1,0
73735,351.493848857645,4,2,1,33,1,0
74789,365.853658536585,4,2,1,33,1,0
75154,357.78175313059,4,2,1,33,1,0
76585,348.837209302326,4,2,1,33,1,0
77631,368.098159509202,4,2,1,33,1,0
77999,369.230769230769,4,2,1,33,1,0
80214,373.831775700935,4,2,1,33,1,0
80961,371.97768133912,4,2,1,33,1,0
83192,368.098159509202,4,2,1,33,1,0
83560,357.142857142857,4,2,1,33,1,0
83917,367.647058823529,4,2,1,40,1,0
85387,373.831775700935,4,2,1,40,1,0
86508,359.281437125748,4,2,1,40,1,0
87585,352.941176470588,4,2,1,40,1,0
87937,346.820809248555,4,2,1,40,1,0
88283,343.839541547278,4,2,1,40,1,0
89658,357.142857142857,4,2,1,40,1,0
90729,379.746835443038,4,2,1,40,1,0
91108,352.941176470588,4,2,1,33,1,0
91813,337.078651685393,4,2,1,33,1,0
92487,358.208955223881,4,2,1,40,1,0
93740,392.156862745098,4,2,1,40,1,0
93936,348.432055749129,4,2,1,40,1,0
94981,379.746835443038,4,2,1,33,1,0
95170,-100,4,2,1,20,0,0
95360,404.040404040404,4,2,1,20,1,0
96168,393.44262295082,4,2,1,20,1,0
96954,390.879478827362,4,2,1,20,1,0
97735,415.22491349481,4,2,1,20,1,0
98565,384.615384615385,4,2,1,20,1,0
99334,372.670807453416,4,2,1,20,1,0
101197,379.746835443038,4,2,1,20,1,0
101576,383.386581469649,4,2,1,33,1,0
101576,-125,4,2,1,33,0,0
104259,357.142857142857,4,2,1,33,1,0
104616,362.537764350453,4,2,1,33,1,0
104616,-111.111111111111,4,2,1,33,0,0
107153,382.165605095541,4,2,1,33,1,0
107535,371.747211895911,4,2,1,40,1,0
109765,357.142857142857,4,2,1,40,1,0
111550,377.358490566038,4,2,1,40,1,0
111927,357.142857142857,4,2,1,40,1,0
112998,365.853658536585,4,2,1,40,1,0
113363,352.733686067019,4,2,1,40,1,0
116184,348.027842227378,4,2,1,40,1,0
117576,340.909090909091,4,2,1,40,1,0
118598,362.537764350453,4,2,1,40,1,0
118960,349.854227405248,4,2,1,40,1,0
121758,352.112676056338,4,2,1,40,1,0
124222,361.44578313253,4,2,1,40,1,0
124583,356.083086053412,4,2,1,40,1,0
126007,350.877192982456,4,2,1,40,1,0
127410,352.941176470588,4,2,1,40,1,0
128468,361.44578313253,4,2,1,40,1,0
128829,355.029585798817,4,2,1,40,1,0
129539,350.877192982456,4,2,1,40,1,0
130240,353.356890459364,4,2,1,40,1,0
131653,472.44094488189,4,2,1,25,1,0
131889,368.098159509202,4,2,1,25,1,0
132073,361.44578313253,4,2,1,25,1,0
133157,355.029585798817,4,2,1,25,1,0
134222,372.670807453416,4,2,1,25,1,0
134594,380.952380952381,4,2,1,40,1,0
136117,378.548895899054,4,2,1,40,1,0
136874,361.44578313253,4,2,1,40,1,0
137596,358.851674641148,4,2,1,40,1,0
139031,349.65034965035,4,2,1,40,1,0
140429,363.636363636364,4,2,1,33,1,0
141519,384.615384615385,4,2,1,33,1,0
141883,372.670807453416,4,2,1,33,1,0
143001,384.615384615385,4,2,1,33,1,0
143385,363.636363636364,4,2,1,33,1,0
144839,361.44578313253,4,2,1,33,1,0
146284,352.941176470588,4,2,1,33,1,0
147695,350.877192982456,4,2,1,33,1,0
149098,346.820809248555,4,2,1,40,1,0
149791,338.983050847458,4,2,1,40,1,0
150468,346.820809248555,4,2,1,40,1,0
150641,-111.111111111111,4,2,1,20,0,0
151508,365.853658536585,4,2,1,15,1,0
151508,-111.111111111111,4,2,1,15,0,0
151887,347.826086956522,4,2,1,15,1,0

[Colours]
Combo1 : 187,217,188
Combo2 : 255,225,164
Combo3 : 174,172,196
Combo4 : 153,209,242

[HitObjects]
44,161,3030,5,2,0:0:0:0:
119,145,3199,1,0,0:0:0:0:
195,157,3369,1,0,0:0:0:0:
257,201,3539,1,0,0:0:0:0:
293,269,3709,2,0,P|324:298|362:315,1,70,2|0,0:0|0:0,0:0:0:0:
383,325,3963,1,0,0:0:0:0:
383,325,4048,1,0,0:0:0:0:
383,219,4218,1,0,0:0:0:0:
383,113,4388,6,0,P|351:83|313:66,1,70,2|0,0:0|0:0,0:0:0:0:
293,57,4642,1,0,0:0:0:0:
293,57,4727,1,0,0:0:0:0:
293,162,4897,1,0,0:0:0:0:
293,269,5067,2,0,P|262:298|224:315,1,70,2|0,0:0|0:0,0:0:0:0:
203,325,5321,1,0,0:0:0:0:
203,325,5406,1,0,0:0:0:0:
203,219,5576,1,0,0:0:0:0:
136,134,5746,5,2,0:0:0:0:
97,200,5912,1,0,0:0:0:0:
112,275,6078,1,2,0:0:0:0:
172,322,6244,1,0,0:0:0:0:
248,317,6410,1,2,0:0:0:0:
295,257,6576,1,0,0:0:0:0:
370,242,6742,1,2,0:0:0:0:
436,281,6908,1,0,0:0:0:0:
471,354,7075,5,2,0:0:0:0:
471,354,7411,1,2,0:0:0:0:
474,144,7747,1,2,0:0:0:0:
474,144,8083,1,2,0:0:0:0:
284,57,8419,6,0,P|241:47|199:51,1,70,2|0,0:0|0:0,0:0:0:0:
231,123,8757,2,0,P|189:137|157:164,1,70,2|0,0:0|0:0,0:0:0:0:
187,225,9096,2,0,P|174:266|149:300,1,70,2|0,0:0|0:0,0:0:0:0:
104,238,9437,2,0,P|70:266|31:281,1,70,2|0,0:0|0:0,0:0:0:0:
31,201,9785,6,0,L|29:96,1,70,2|0,0:0|0:0,0:0:0:0:
105,149,10134,2,0,L|103:44,1,70,2|0,0:0|0:0,0:0:0:0:
180,81,10480,2,0,L|178:150,1,70,2|0,0:0|0:0,0:0:0:0:
254,133,10827,2,0,L|252:202,1,70,2|0,0:0|0:0,0:0:0:0:
307,294,11174,6,0,P|340:303|375:303,1,70,2|0,0:0|0:0,0:0:0:0:
449,283,11513,1,0,0:0:0:0:
501,227,11683,1,0,0:0:0:0:
501,121,11853,2,0,P|482:91|456:68,1,70,2|0,0:0|0:0,0:0:0:0:
388,34,12192,1,0,0:0:0:0:
312,41,12362,1,0,0:0:0:0:
231,109,12533,5,2,0:0:0:0:
296,161,12703,1,0,0:0:0:0:
217,207,12873,1,2,0:0:0:0:
302,254,13043,1,0,0:0:0:0:
208,299,13213,1,2,0:0:0:0:
32,213,13557,1,2,0:0:0:0:
165,44,13927,6,0,P|216:53|267:42,1,105,2|0,0:0|0:0,0:0:0:0:
303,29,14290,2,0,P|354:19|404:29,1,93.3333333333333
443,42,14654,2,0,P|437:88|446:133,1,93.3333333333333,2|0,0:0|0:0,0:0:0:0:
462,182,15017,2,0,P|470:227|465:273,1,93.3333333333333
441,331,15381,6,0,P|395:320|328:332,1,111.999996582031,2|0,0:0|0:0,0:0:0:0:
284,352,15745,2,0,P|238:360|198:355,1,70
131,279,16108,1,2,0:0:0:0:
95,380,16292,1,2,0:0:0:0:
95,380,16660,5,0,0:0:0:0:
201,356,16844,1,2,0:0:0:0:
25,309,17201,1,0,0:0:0:0:
213,253,17558,1,2,0:0:0:0:
12,190,17915,1,0,0:0:0:0:
234,133,18272,1,2,0:0:0:0:
284,368,18969,5,2,0:0:0:0:
284,368,19318,1,2,0:0:0:0:
420,218,19667,6,0,P|423:183|418:148,1,70,2|0,0:0|0:0,0:0:0:0:
401,75,20028,1,0,0:0:0:0:
401,75,20209,1,0,0:0:0:0:
313,131,20389,2,0,P|280:143|245:147,1,70,2|0,0:0|0:0,0:0:0:0:
170,150,20750,1,0,0:0:0:0:
170,150,20931,1,0,0:0:0:0:
204,50,21112,6,0,P|236:37|271:33,1,70,2|0,0:0|0:0,0:0:0:0:
347,31,21473,1,0,0:0:0:0:
347,31,21654,1,0,0:0:0:0:
393,127,21835,1,2,0:0:0:0:
343,185,22011,1,2,0:0:0:0:
272,215,22187,1,2,0:0:0:0:
195,207,22364,1,2,0:0:0:0:
130,126,22540,5,2,0:0:0:0:
152,334,22907,1,0,0:0:0:0:
304,189,23274,1,2,0:0:0:0:
272,382,23641,1,0,0:0:0:0:
463,352,24008,5,2,0:0:0:0:
437,172,24378,1,0,0:0:0:0:
295,286,24748,1,2,0:0:0:0:
294,117,25119,1,0,0:0:0:0:
93,140,25489,6,0,P|90:223|47:294,1,168
7,355,26214,2,0,P|85:380|167:364,1,168
238,333,26939,6,0,P|212:295|253:217,1,140
397,152,27573,1,0,0:0:0:0:
397,152,27664,2,0,L|249:145,1,140
94,43,28389,5,2,0:0:0:0:
165,66,28580,2,0,P|240:71|313:40,3,125.999996154785,2|2|2|2,0:0|0:0|0:0|0:0,0:0:0:0:
490,87,30079,5,2,0:0:0:0:
480,162,30261,1,2,0:0:0:0:
470,237,30443,1,2,0:0:0:0:
458,311,30625,2,0,P|423:317|391:319,1,62.9999980773926,2|2,0:0|0:0,0:0:0:0:
363,319,30898,1,0,0:0:0:0:
332,313,30988,1,2,0:0:0:0:
343,150,31321,6,0,P|263:126|182:145,1,168
111,174,32066,2,0,P|127:255|101:334,1,168
176,372,32811,6,0,P|214:346|292:387,1,140
446,361,33437,1,0,0:0:0:0:
446,361,33527,2,0,L|439:221,1,140
337,41,34243,5,2,0:0:0:0:
298,138,34427,1,2,0:0:0:0:
288,164,34795,1,2,0:0:0:0:
279,190,35163,1,2,0:0:0:0:
270,216,35531,6,0,P|268:292|187:318,1,137,2|2,0:0|0:0,0:0:0:0:
145,322,36065,1,2,0:0:0:0:
87,270,36241,1,2,0:0:0:0:
78,193,36416,2,0,L|211:155,1,105,2|0,0:0|0:0,0:0:0:0:
212,154,36767,1,2,0:0:0:0:
336,3,37118,5,2,0:0:0:0:
370,8,37212,1,0,0:0:0:0:
404,12,37306,1,0,0:0:0:0:
478,86,37495,2,0,L|536:93,2,35,2|0|0,0:0|0:0|0:0,0:0:0:0:
392,155,37872,1,2,0:0:0:0:
358,160,37962,1,0,0:0:0:0:
324,164,38053,1,0,0:0:0:0:
250,238,38234,2,0,L|192:245,2,35,2|0|0,0:0|0:0|0:0,0:0:0:0:
330,318,38597,6,0,L|343:229,1,70,2|0,0:0|0:0,0:0:0:0:
419,318,38955,2,0,L|432:229,1,70
512,175,39313,2,0,L|501:105,1,70,2|0,0:0|0:0,0:0:0:0:
423,175,39671,2,0,L|412:105,1,70
322,175,40029,6,0,L|317:209,2,35,2|0|0,0:0|0:0|0:0,0:0:0:0:
229,224,40382,1,2,0:0:0:0:
207,250,40471,1,0,0:0:0:0:
185,276,40559,1,0,0:0:0:0:
92,225,40736,2,0,L|58:215,2,35,2|0|0,0:0|0:0|0:0,0:0:0:0:
58,126,41089,1,2,0:0:0:0:
36,100,41178,1,0,0:0:0:0:
14,74,41266,1,0,0:0:0:0:
90,4,41444,5,2,0:0:0:0:
0,177,41803,1,2,0:0:0:0:
209,161,42162,1,2,0:0:0:0:
291,338,42521,1,2,0:0:0:0:
342,136,42881,6,0,P|362:107|387:82,1,70,2|0,0:0|0:0,0:0:0:0:
490,101,43244,2,0,P|469:129|444:154,1,70
377,235,43608,1,2,0:0:0:0:
387,268,43699,1,0,0:0:0:0:
397,301,43790,2,0,L|415:363,2,35
297,267,44153,1,0,0:0:0:0:
297,159,44335,5,2,0:0:0:0:
297,125,44424,1,0,0:0:0:0:
297,91,44513,2,0,L|297:38,2,35
206,145,44870,1,0,0:0:0:0:
177,246,45049,1,2,0:0:0:0:
167,279,45138,1,0,0:0:0:0:
157,312,45227,2,0,L|139:374,2,35
256,340,45585,1,0,0:0:0:0:
353,312,45763,1,2,0:0:0:0:
278,237,45948,6,0,P|279:154|307:102,1,140,2|0,0:0|0:0,0:0:0:0:
332,82,46411,1,0,0:0:0:0:
362,65,46503,2,0,L|428:45,3,35,2|0|0|0,0:0|0:0|0:0|0:0,0:0:0:0:
430,51,46874,2,0,L|486:53,3,35,2|0|0|0,0:0|0:0|0:0|0:0,0:0:0:0:
499,62,47244,1,2,0:0:0:0:
444,151,47424,6,0,P|365:175|306:165,1,140,2|0,0:0|0:0,0:0:0:0:
277,152,47876,1,0,0:0:0:0:
248,131,47966,2,0,L|215:87,3,35,2|0|0|0,0:0|0:0|0:0|0:0,0:0:0:0:
212,70,48328,1,0,0:0:0:0:
228,279,48689,6,0,L|225:314,3,35,2|0|0|0,0:0|0:0|0:0|0:0,0:0:0:0:
189,315,49051,2,0,P|138:358|55:358,2,140,2|2|0,0:0|0:0|0:0,0:0:0:0:
307,144,50135,2,0,L|310:109,3,35,2|0|0|0,0:0|0:0|0:0|0:0,0:0:0:0:
346,108,50500,2,0,P|397:65|480:65,2,140,2|2|0,0:0|0:0|0:0,0:0:0:0:
403,325,51627,5,2,0:0:0:0:
403,325,51720,1,0,0:0:0:0:
403,325,51814,1,0,0:0:0:0:
375,223,52000,2,0,L|395:191,2,35
287,273,52372,1,2,0:0:0:0:
287,273,52465,1,0,0:0:0:0:
287,273,52559,1,0,0:0:0:0:
189,311,52745,2,0,L|170:340,2,35
170,213,53117,5,2,0:0:0:0:
170,213,53206,1,0,0:0:0:0:
170,213,53296,1,0,0:0:0:0:
89,145,53476,2,0,L|26:135,2,35,2|0|0,0:0|0:0|0:0,0:0:0:0:
189,103,53835,2,0,L|279:95,1,70,2|0,0:0|0:0,0:0:0:0:
297,98,54095,1,0,0:0:0:0:
297,98,54181,1,2,0:0:0:0:
464,221,54528,5,2,0:0:0:0:
464,221,54888,2,0,P|385:178|294:246,1,210,2|0,0:0|0:0,0:0:0:0:
295,318,55609,1,0,0:0:0:0:
218,318,55789,1,0,0:0:0:0:
222,245,55969,5,2,0:0:0:0:
222,245,56335,2,0,P|143:182|53:225,1,210,2|0,0:0|0:0,0:0:0:0:
46,300,57069,1,0,0:0:0:0:
106,347,57257,1,0,0:0:0:0:
209,322,57446,5,2,0:0:0:0:
124,130,57819,1,2,0:0:0:0:
316,45,58193,1,2,0:0:0:0:
401,237,58567,1,2,0:0:0:0:
183,202,58941,6,0,P|148:199|113:206,1,70,2|0,0:0|0:0,0:0:0:0:
57,259,59297,1,2,0:0:0:0:
40,183,59475,1,0,0:0:0:0:
70,112,59653,1,2,0:0:0:0:
239,197,60009,1,2,0:0:0:0:
359,15,60403,5,2,0:0:0:0:
359,15,60782,1,0,0:0:0:0:
500,175,61162,1,2,0:0:0:0:
484,250,61348,1,0,0:0:0:0:
437,310,61534,1,0,0:0:0:0:
364,336,61721,1,0,0:0:0:0:
287,337,61907,5,2,0:0:0:0:
174,159,62280,1,0,0:0:0:0:
180,368,62652,1,2,0:0:0:0:
275,172,63025,1,0,0:0:0:0:
68,192,63384,5,2,0:0:0:0:
124,279,63565,1,0,0:0:0:0:
145,176,63747,1,0,0:0:0:0:
339,96,64111,1,2,0:0:0:0:
282,184,64292,1,0,0:0:0:0:
262,80,64474,1,0,0:0:0:0:
211,284,64838,5,2,0:0:0:0:
262,80,65188,1,2,0:0:0:0:
322,281,65539,1,2,0:0:0:0:
146,231,65890,1,0,0:0:0:0:
107,312,72328,5,2,0:0:0:0:
441,186,73025,5,2,0:0:0:0:
111,29,73735,5,2,0:0:0:0:
441,186,74437,5,2,0:0:0:0:
107,312,75154,5,2,0:0:0:0:
207,341,75332,1,2,0:0:0:0:
390,238,75690,5,2,0:0:0:0:
458,158,75869,1,2,0:0:0:0:
353,145,76048,1,2,0:0:0:0:
143,128,76406,5,2,0:0:0:0:
111,29,76585,2,0,P|145:24|180:28,1,70,2|0,0:0|0:0,0:0:0:0:
255,42,76933,2,0,P|289:46|324:41,1,70,2|0,0:0|0:0,0:0:0:0:
400,27,77282,1,2,0:0:0:0:
391,103,77457,1,2,0:0:0:0:
382,175,77631,1,2,0:0:0:0:
232,321,77999,6,0,P|149:328|94:306,1,140,2|2,0:0|0:0,0:0:0:0:
32,123,78737,2,0,P|114:115|169:137,1,140,2|2,0:0|0:0,0:0:0:0:
354,189,79475,6,0,P|369:121|352:54,1,140,2|2,0:0|0:0,0:0:0:0:
241,213,80214,1,2,0:0:0:0:
385,119,80961,6,0,P|439:76|507:62,1,140,2|2,0:0|0:0,0:0:0:0:
333,179,81704,2,0,P|278:221|210:235,1,140,2|2,0:0|0:0,0:0:0:0:
9,301,82448,6,0,P|63:258|131:245,1,140,2|2,0:0|0:0,0:0:0:0:
336,300,83192,1,2,0:0:0:0:
72,17,83917,5,2,0:0:0:0:
278,54,84284,1,2,0:0:0:0:
93,154,84652,1,2,0:0:0:0:
294,211,85019,1,2,0:0:0:0:
146,356,85387,5,2,0:0:0:0:
93,154,85760,1,2,0:0:0:0:
9,346,86134,1,2,0:0:0:0:
218,283,86508,1,2,0:0:0:0:
295,87,86867,6,0,L|288:10,1,70,2|0,0:0|0:0,0:0:0:0:
375,75,87226,2,0,L|368:144,1,70,2|0,0:0|0:0,0:0:0:0:
436,227,87585,2,0,L|443:157,1,70,2|0,0:0|0:0,0:0:0:0:
359,222,87937,2,0,L|365:291,1,70,2|0,0:0|0:0,0:0:0:0:
269,336,88283,5,2,0:0:0:0:
199,303,88454,1,2,0:0:0:0:
133,344,88626,1,2,0:0:0:0:
64,312,88797,1,2,0:0:0:0:
47,207,88970,1,2,0:0:0:0:
117,240,89141,1,2,0:0:0:0:
183,199,89313,1,2,0:0:0:0:
252,231,89486,1,2,0:0:0:0:
342,182,89658,6,0,L|336:145,2,35,2|0|0,0:0|0:0|0:0,0:0:0:0:
445,203,90015,2,0,L|474:179,2,35,2|0|0,0:0|0:0|0:0,0:0:0:0:
457,307,90372,2,0,L|492:320,2,35,2|0|0,0:0|0:0|0:0,0:0:0:0:
368,350,90729,2,0,L|373:384,2,35,2|0|0,0:0|0:0|0:0,0:0:0:0:
257,359,91108,5,2,0:0:0:0:
234,285,91284,1,0,0:0:0:0:
168,244,91460,1,0,0:0:0:0:
91,250,91637,1,0,0:0:0:0:
23,293,91813,1,0,0:0:0:0:
5,217,91981,1,0,0:0:0:0:
35,146,92150,1,0,0:0:0:0:
104,111,92318,1,0,0:0:0:0:
200,87,92487,6,0,L|201:43,2,35,2|0|0,0:0|0:0|0:0,0:0:0:0:
261,171,92845,2,0,L|260:205,2,35,2|0|0,0:0|0:0|0:0,0:0:0:0:
327,89,93203,2,0,L|328:45,2,35,2|0|0,0:0|0:0|0:0,0:0:0:0:
388,173,93561,2,0,L|387:207,2,35,2|0|0,0:0|0:0|0:0,0:0:0:0:
296,248,93936,5,2,0:0:0:0:
222,270,94110,1,0,0:0:0:0:
148,293,94284,1,0,0:0:0:0:
74,315,94458,1,0,0:0:0:0:
3,238,94632,1,2,0:0:0:0:
77,216,94806,1,0,0:0:0:0:
151,193,94981,2,0,L|236:167,1,70,0|2,0:0|0:0,0:0:0:0:
265,85,95360,5,2,0:0:0:0:
265,85,95966,5,2,0:0:0:0:
227,154,96168,1,2,0:0:0:0:
227,154,96758,5,2,0:0:0:0:
186,88,96954,1,2,0:0:0:0:
149,155,97149,1,2,0:0:0:0:
108,89,97344,1,2,0:0:0:0:
37,230,97735,1,2,0:0:0:0:
37,230,98357,5,2,0:0:0:0:
77,163,98565,2,0,L|77:88,2,70,2|0|0,0:0|0:0|0:0,0:0:0:0:
117,230,99141,5,2,0:0:0:0:
161,296,99334,2,0,L|161:369,2,70,2|0|0,0:0|0:0|0:0,0:0:0:0:
200,229,99893,5,2,0:0:0:0:
241,163,100079,1,2,0:0:0:0:
278,230,100265,1,2,0:0:0:0:
319,164,100452,1,2,0:0:0:0:
400,310,100824,2,0,L|400:383,2,70,2|0|0,0:0|0:0|0:0,0:0:0:0:
454,180,101576,6,0,P|371:173|324:195,1,112,2|0,0:0|0:0,0:0:0:0:
207,257,102342,2,0,P|152:269|98:259,1,112,2|0,0:0|0:0,0:0:0:0:
98,90,103109,6,0,P|152:77|206:87,1,112,2|0,0:0|0:0,0:0:0:0:
345,182,103876,2,0,P|399:192|453:179,1,112,2|0,0:0|0:0,0:0:0:0:
273,124,104616,6,0,P|261:157|258:197,1,62.9999980773926,2|0,0:0|0:0,0:0:0:0:
331,243,104978,2,0,P|342:209|346:170,1,62.9999980773926,2|0,0:0|0:0,0:0:0:0:
358,88,105341,2,0,P|362:56|372:27,1,62.9999980773926,2|0,0:0|0:0,0:0:0:0:
446,85,105703,2,0,P|441:116|431:145,1,62.9999980773926,2|0,0:0|0:0,0:0:0:0:
345,182,106066,5,2,0:0:0:0:
400,232,106247,1,0,0:0:0:0:
391,307,106428,1,2,0:0:0:0:
326,346,106609,1,0,0:0:0:0:
280,262,106791,2,0,P|227:243|150:257,1,125.999996154785,2|0,0:0|0:0,0:0:0:0:
89,59,107535,5,2,0:0:0:0:
89,59,108092,5,2,0:0:0:0:
158,137,108278,1,2,0:0:0:0:
158,137,108836,5,2,0:0:0:0:
249,86,109021,1,2,0:0:0:0:
249,86,109579,5,2,0:0:0:0:
344,139,109765,2,0,P|369:115|391:76,1,70,2|0,0:0|0:0,0:0:0:0:
452,2,110122,2,0,P|450:37|463:79,1,70,2|0,0:0|0:0,0:0:0:0:
507,164,110479,5,2,0:0:0:0:
507,164,111015,5,2,0:0:0:0:
407,196,111193,1,2,0:0:0:0:
407,196,111738,5,2,0:0:0:0:
352,99,111927,1,2,0:0:0:0:
318,252,112462,5,2,0:0:0:0:
407,196,112641,1,2,0:0:0:0:
299,354,112998,1,2,0:0:0:0:
228,380,124583,6,0,L|259:364,3,35,2|0|0|0,0:0|0:0|0:0|0:0,0:0:0:0:
293,345,124939,2,0,L|261:329,3,35,2|0|0|0,0:0|0:0|0:0|0:0,0:0:0:0:
228,309,125295,6,0,L|254:280,3,35,2|0|0|0,0:0|0:0|0:0|0:0,0:0:0:0:
275,253,125651,2,0,L|249:224,3,35,2|0|0|0,0:0|0:0|0:0|0:0,0:0:0:0:
223,200,126007,6,0,L|235:167,3,35,2|0|0|0,0:0|0:0|0:0|0:0,0:0:0:0:
247,130,126357,2,0,L|235:97,3,35,2|0|0|0,0:0|0:0|0:0|0:0,0:0:0:0:
273,99,126708,5,2,0:0:0:0:
335,144,126884,1,2,0:0:0:0:
359,216,127059,1,2,0:0:0:0:
343,292,127235,1,2,0:0:0:0:
265,361,127410,6,0,L|234:345,3,35,2|0|0|0,0:0|0:0|0:0|0:0,0:0:0:0:
200,326,127762,2,0,L|232:310,3,35,2|0|0|0,0:0|0:0|0:0|0:0,0:0:0:0:
265,290,128115,6,0,L|239:261,3,35,2|0|0|0,0:0|0:0|0:0|0:0,0:0:0:0:
218,234,128468,2,0,L|244:205,3,35,2|0|0|0,0:0|0:0|0:0|0:0,0:0:0:0:
270,181,128829,6,0,L|258:148,3,35,2|0|0|0,0:0|0:0|0:0|0:0,0:0:0:0:
246,111,129184,2,0,L|258:78,3,35,2|0|0|0,0:0|0:0|0:0|0:0,0:0:0:0:
253,39,129539,5,2,0:0:0:0:
256,192,130240,12,0,131653,0:0:0:0:
411,8,134594,5,2,0:0:0:0:
202,32,134974,1,2,0:0:0:0:
381,141,135355,1,2,0:0:0:0:
188,225,135736,1,2,0:0:0:0:
357,350,136117,5,2,0:0:0:0:
381,141,136495,1,2,0:0:0:0:
473,340,136874,1,2,0:0:0:0:
265,307,137235,1,2,0:0:0:0:
225,99,137596,6,0,L|228:12,1,70,2|0,0:0|0:0,0:0:0:0:
128,64,137954,2,0,L|91:-24,1,70,2|0,0:0|0:0,0:0:0:0:
38,93,138313,2,0,L|35:180,1,70,2|0,0:0|0:0,0:0:0:0:
139,150,138671,2,0,L|176:238,1,70,2|0,0:0|0:0,0:0:0:0:
274,215,139031,5,2,0:0:0:0:
281,137,139206,1,0,0:0:0:0:
359,144,139381,1,0,0:0:0:0:
352,221,139555,1,0,0:0:0:0:
271,288,139730,1,2,0:0:0:0:
264,365,139904,1,0,0:0:0:0:
342,372,140079,1,0,0:0:0:0:
349,295,140254,1,0,0:0:0:0:
274,215,140429,5,2,0:0:0:0:
253,141,140610,1,0,0:0:0:0:
260,64,140792,1,0,0:0:0:0:
309,4,140974,1,0,0:0:0:0:
353,66,141156,2,0,P|372:94|407:122,1,70,2|0,0:0|0:0,0:0:0:0:
434,140,141429,1,0,0:0:0:0:
434,140,141519,1,0,0:0:0:0:
504,168,141711,1,0,0:0:0:0:
476,238,141883,6,0,P|457:267|424:297,1,70,2|0,0:0|0:0,0:0:0:0:
399,316,142162,1,0,0:0:0:0:
399,316,142255,1,0,0:0:0:0:
330,351,142442,1,0,0:0:0:0:
290,284,142628,2,0,P|271:254|238:224,1,70,2|0,0:0|0:0,0:0:0:0:
213,206,142907,1,0,0:0:0:0:
213,206,143001,1,0,0:0:0:0:
142,172,143193,1,0,0:0:0:0:
63,244,143385,5,2,0:0:0:0:
132,276,143566,1,0,0:0:0:0:
210,277,143748,1,0,0:0:0:0:
278,241,143930,1,0,0:0:0:0:
322,179,144112,1,2,0:0:0:0:
322,179,144294,2,0,L|362:196,2,35
250,149,144657,1,0,0:0:0:0:
245,72,144839,5,2,0:0:0:0:
245,72,145019,2,0,L|239:28,2,35
250,149,145381,1,0,0:0:0:0:
191,198,145561,1,2,0:0:0:0:
191,198,145742,2,0,L|156:224,2,35
250,149,146104,1,0,0:0:0:0:
262,255,146284,5,2,0:0:0:0:
324,210,146460,2,0,P|375:188|460:195,1,140,2|0,0:0|0:0,0:0:0:0:
470,270,146989,2,0,P|436:277|391:274,1,70,2|0,0:0|0:0,0:0:0:0:
348,332,147342,2,0,P|313:331|278:338,1,70
181,380,147695,6,0,L|177:278,1,70,2|0,0:0|0:0,0:0:0:0:
101,306,148045,2,0,L|97:204,1,70,2|0,0:0|0:0,0:0:0:0:
175,228,148396,2,0,L|171:126,1,70,2|0,0:0|0:0,0:0:0:0:
95,157,148747,2,0,L|91:55,1,70,2|0,0:0|0:0,0:0:0:0:
182,30,149098,2,0,P|216:37|251:36,1,70,2|0,0:0|0:0,0:0:0:0:
293,38,149358,1,0,0:0:0:0:
293,38,149444,1,0,0:0:0:0:
325,138,149618,5,2,0:0:0:0:
400,154,149791,1,2,0:0:0:0:
424,226,149960,1,2,0:0:0:0:
373,284,150129,1,2,0:0:0:0:
297,268,150299,1,2,0:0:0:0:
273,194,150468,6,0,P|253:164|228:140,1,70,2|0,0:0|0:0,0:0:0:0:
199,121,150728,1,0,0:0:0:0:
199,121,150814,2,0,L|132:183,1,62.9999980773926,2|0,0:0|0:0,0:0:0:0:
100,218,151161,2,0,L|151:267,1,62.9999980773926,2|0,0:0|0:0,0:0:0:0:
200,313,151508,2,0,L|136:375,1,62.9999980773926,2|0,0:0|0:0,0:0:0:0:
