osu file format v14

[General]
AudioFilename: DS Opening.mp3
AudioLeadIn: 0
PreviewTime: 20284
Countdown: 0
SampleSet: Soft
StackLeniency: 0.6
Mode: 0
LetterboxInBreaks: 1
WidescreenStoryboard: 1

[Editor]
Bookmarks: 11700
DistanceSpacing: 1.2
BeatDivisor: 4
GridSize: 8
TimelineZoom: 1

[Metadata]
Title:Maintenance (OP ver.)
TitleUnicode:Maintenance (OP ver.)
Artist:CombatPlayer
ArtistUnicode:CombatPlayer
Creator:Shinde
Version:Normal
Source:Dysfunctional Systems
Tags:Learning to Manage Chaos Dischan
BeatmapID:592687
BeatmapSetID:150908

[Difficulty]
HPDrainRate:2
CircleSize:3.2
OverallDifficulty:3
ApproachRate:4
SliderMultiplier:1.2
SliderTickRate:1

[Events]
//Background and Video events
0,0,"DisPaper.png",0,0
Video,0,"DS Opening.avi"
//Break Periods
//Storyboard Layer 0 (Background)
//Storyboard Layer 1 (Fail)
//Storyboard Layer 2 (Pass)
//Storyboard Layer 3 (Foreground)
//Storyboard Sound Samples

[TimingPoints]
134,361.44578313253,4,2,1,20,1,0
22905,-100,4,2,1,35,0,0
23266,-100,4,2,1,35,0,1
34742,-147.058823529412,4,2,1,35,0,1
34832,-147.058823529412,4,2,1,35,0,0
36278,-100,4,2,1,35,0,0
46308,-100,4,2,1,20,0,0
53627,406.779661016949,4,2,1,20,1,0
55254,454.545454545455,4,2,1,20,1,0
55708,517.241379310345,4,2,1,20,1,0
56225,600,4,2,1,20,1,0
56825,750,4,2,1,20,1,0
57200,916.030534351145,4,2,1,20,1,0
57429,-100,4,2,1,10,0,0
57887,-100,4,2,1,5,0,0

[Colours]
Combo1 : 66,115,151
Combo2 : 112,112,112
Combo3 : 198,40,13

[HitObjects]
136,72,11700,6,0,P|256:40|368:72,1,240,0|2,1:0|0:0,0:0:0:0:
256,280,13146,2,0,L|136:280,1,120,0|0,0:0|1:0,0:0:0:0:
40,280,13868,1,2,0:0:0:0:
136,112,14591,6,0,P|160:168|208:200,1,120,0|0,1:0|0:0,0:0:0:0:
250,88,15314,1,0,1:0:0:0:
384,224,16037,1,0,0:0:0:0:
426,335,16399,2,0,P|474:301|497:247,1,120,0|0,1:0|1:0,0:0:0:0:
424,56,17483,6,0,L|304:56,1,120,0|0,1:0|0:0,0:0:0:0:
207,56,18206,1,2,0:0:0:0:
40,152,18929,1,0,0:0:0:0:
0,248,19290,1,0,1:0:0:0:
40,344,19652,1,2,0:0:0:0:
256,369,20374,6,0,L|256:249,1,120,0|0,1:0|0:0,0:0:0:0:
256,153,21097,1,0,1:0:0:0:
512,63,21820,2,0,P|441:149|512:239,1,240,2|0,0:0|1:0,0:0:0:0:
256,344,23266,6,0,P|327:258|256:168,1,240,0|8,1:0|0:0,0:0:0:0:
96,256,24712,1,0,1:0:0:0:
32,184,25073,1,0,0:0:0:0:
96,112,25435,1,8,0:0:0:0:
256,224,26158,5,0,1:0:0:0:
256,32,26880,2,0,B|368:72|368:72|368:200,1,240,8|2,0:0|0:0,0:0:0:0:
368,288,27965,1,0,1:0:0:0:
448,240,28326,1,8,0:0:0:0:
448,48,29049,6,0,P|392:29|336:48,1,120,0|0,1:0|0:0,0:0:0:0:
256,104,29772,1,0,1:0:0:0:
64,48,30495,2,0,P|120:29|176:48,1,120,0|0,1:0|0:0,0:0:0:0:
256,104,31218,1,8,1:0:0:0:
96,208,31941,6,0,B|116:265|96:328|96:328|159:315|216:328,1,240,0|0,1:0|1:0,0:0:0:0:
210,135,33387,1,2,0:0:0:0:
282,197,33748,1,0,1:0:0:0:
301,104,34109,1,8,1:0:0:0:
256,192,34832,12,0,37001,1:0:0:0:
355,42,37724,6,0,B|352:44|224:99|259:239,1,240,2|0,0:0|0:0,0:0:0:0:
176,91,39170,2,0,B|316:56|371:184|373:187,1,240,2|0,0:0|0:0,0:0:0:0:
199,352,40615,5,0,1:0:0:0:
104,336,40977,1,0,0:0:0:0:
9,321,41338,1,0,1:0:0:0:
5,129,42061,6,0,L|62:235,1,120,2|0,0:0|1:0,0:0:0:0:
104,336,42784,1,8,1:0:0:0:
256,240,43507,6,0,P|333:152|451:141,1,240,0|0,1:0|1:0,0:0:0:0:
422,324,44953,1,2,0:0:0:0:
322,316,45314,1,0,1:0:0:0:
256,240,45676,1,8,1:0:0:0:
400,64,46399,6,0,L|280:64,1,120,0|2,0:0|0:0,0:0:0:0:
304,152,47121,2,0,L|184:152,1,120,0|2,0:0|0:0,0:0:0:0:
87,152,47844,6,0,L|87:272,1,120,0|2,0:0|0:0,0:0:0:0:
175,248,48567,2,0,L|175:372,1,120,0|2,0:0|0:0,0:0:0:0:
256,320,49290,5,0,0:0:0:0:
408,200,50013,1,0,0:0:0:0:
408,200,50374,1,2,0:0:0:0:
311,200,50736,5,0,0:0:0:0:
163,69,51459,1,0,0:0:0:0:
163,69,51820,1,2,0:0:0:0:
86,15,52182,6,0,P|67:71|86:127,1,120,0|2,0:0|0:0,0:0:0:0:
135,208,52905,2,0,P|154:264|135:320,1,120,0|2,0:0|0:0,0:0:0:0:
59,262,53627,5,0,0:0:0:0:
208,144,54440,1,0,0:0:0:0:
208,144,54847,1,2,0:0:0:0:
241,59,55254,6,0,P|286:97|298:156,1,120
178,232,56225,2,0,P|135:199|121:136,1,120,0|2,0:0|0:0,0:0:0:0:
288,236,57658,1,4,0:0:0:0:
256,192,57887,12,0,59948,0:0:0:0:
