osu file format v14

[General]
AudioFilename: DS Opening.mp3
AudioLeadIn: 0
PreviewTime: 20284
Countdown: 0
SampleSet: Soft
StackLeniency: 0.6
Mode: 0
LetterboxInBreaks: 1
WidescreenStoryboard: 1

[Editor]
Bookmarks: 11700
DistanceSpacing: 1.2
BeatDivisor: 4
GridSize: 8
TimelineZoom: 1

[Metadata]
Title:Maintenance (OP ver.)
TitleUnicode:Maintenance (OP ver.)
Artist:CombatPlayer
ArtistUnicode:CombatPlayer
Creator:Shinde
Version:Hard
Source:Dysfunctional Systems
Tags:Learning to Manage Chaos Dischan
BeatmapID:592691
BeatmapSetID:150908

[Difficulty]
HPDrainRate:4.4
CircleSize:3.5
OverallDifficulty:4.4
ApproachRate:6.6
SliderMultiplier:1.8
SliderTickRate:1

[Events]
//Background and Video events
0,0,"DisPaper.png",0,0
Video,0,"DS Opening.avi"
//Break Periods
//Storyboard Layer 0 (Background)
//Storyboard Layer 1 (Fail)
//Storyboard Layer 2 (Pass)
//Storyboard Layer 3 (Foreground)
//Storyboard Sound Samples

[TimingPoints]
134,361.44578313253,4,2,1,20,1,0
22905,-100,4,2,1,35,0,0
23266,-100,4,2,1,35,0,1
34742,-147.058823529412,4,2,1,35,0,1
34832,-147.058823529412,4,2,1,35,0,0
36278,-100,4,2,1,35,0,0
46308,-100,4,2,1,20,0,0
53627,406.779661016949,4,2,1,20,1,0
55254,454.545454545455,4,2,1,20,1,0
55708,517.241379310345,4,2,1,20,1,0
56225,600,4,2,1,20,1,0
56825,750,4,2,1,20,1,0
57200,916.030534351145,4,2,1,20,1,0
57429,-100,4,2,1,10,0,0
57887,-100,4,2,1,5,0,0

[Colours]
Combo1 : 66,115,151
Combo2 : 112,112,112
Combo3 : 198,40,13

[HitObjects]
255,164,11700,5,0,1:0:0:0:
130,38,12423,2,0,P|73:179|183:340,1,360,0|2,1:0|0:0,0:0:0:0:
256,289,13326,1,0,0:0:0:0:
330,339,13507,1,0,1:0:0:0:
454,209,13868,2,0,P|445:306|504:363,2,180,0|2|0,1:0|0:0|1:0,0:0:0:0:
376,48,14953,5,2,0:0:0:0:
298,93,15133,1,0,1:0:0:0:
376,138,15314,1,0,1:0:0:0:
208,352,15856,5,0,0:0:0:0:
167,271,16037,1,2,0:0:0:0:
114,344,16218,1,0,0:0:0:0:
78,261,16399,2,0,P|45:183|83:96,1,180,0|0,1:0|1:0,0:0:0:0:
205,187,17121,1,2,0:0:0:0:
368,40,17483,6,0,L|368:224,1,180,0|0,1:0|0:0,0:0:0:0:
209,304,18206,2,0,B|303:282|381:345,1,180,0|0,1:0|0:0,0:0:0:0:
451,290,18748,1,0,0:0:0:0:
486,207,18929,1,2,0:0:0:0:
471,118,19109,1,0,0:0:0:0:
415,46,19290,2,0,B|348:116|364:215,1,180,0|0,1:0|1:0,0:0:0:0:
113,109,20194,5,2,0:0:0:0:
102,99,20374,1,0,1:0:0:0:
397,108,20917,5,2,0:0:0:0:
407,99,21097,1,0,1:0:0:0:
256,355,21640,5,2,0:0:0:0:
256,368,21820,1,4,0:1:0:0:
256,192,22543,5,2,0:0:0:0:
48,176,23266,6,0,P|48:96|112:16,2,180,0|0|8,1:0|0:0|1:0,0:0:0:0:
172,128,24350,1,0,0:0:0:0:
464,208,24712,2,0,P|464:288|400:368,2,180,0|0|8,1:0|0:0|1:0,0:0:0:0:
340,256,25796,1,0,0:0:0:0:
358,109,26158,5,0,1:0:0:0:
402,187,26338,1,0,0:0:0:0:
480,142,26519,1,0,0:0:0:0:
435,63,26700,1,0,1:0:0:0:
358,109,26880,2,0,L|280:153,1,90,8|0,1:0|0:0,0:0:0:0:
189,143,27242,2,0,L|178:235,1,90
163,328,27603,6,0,P|119:320|75:328,1,90,0|2,1:0|0:0,0:0:0:0:
96,240,27965,2,0,P|67:205|51:163,1,90,0|0,1:0|0:0,0:0:0:0:
142,161,28326,2,0,P|170:126|186:84,1,90,8|0,1:0|0:0,0:0:0:0:
256,144,28688,2,0,P|300:135|344:143,1,90
428,172,29049,5,0,1:0:0:0:
332,324,29411,1,0,0:0:0:0:
420,324,29591,1,0,0:0:0:0:
375,245,29772,1,8,1:0:0:0:
198,278,30133,2,0,L|237:197,1,90
186,121,30495,2,0,L|141:205,1,90,0|0,1:0|0:0,0:0:0:0:
100,279,30856,1,0,1:0:0:0:
100,279,31218,1,8,1:0:0:0:
432,40,31760,5,0,0:0:0:0:
343,54,31941,2,0,B|270:62|215:120|244:164|281:160|281:160,1,180,0|0,1:0|0:0,0:0:0:0:
371,168,32483,1,0,1:0:0:0:
461,176,32664,2,0,B|498:172|527:216|472:274|399:282,1,180,8|0,1:0|0:0,0:0:0:0:
315,285,33206,1,0,0:0:0:0:
225,271,33387,1,0,1:0:0:0:
225,271,33567,1,2,0:0:0:0:
155,213,33748,1,0,1:0:0:0:
306,116,34109,2,0,P|399:131|459:188,1,180,8|0,1:0|0:0,0:0:0:0:
256,192,34832,12,0,37001,1:0:0:0:
451,102,37724,6,0,B|356:118|297:184|297:184|275:272|338:369,1,360,2|0,0:0|1:0,0:0:0:0:
105,361,38808,5,0,0:0:0:0:
14,361,38989,1,0,1:0:0:0:
61,282,39170,2,0,B|156:266|215:200|215:200|237:112|180:26,1,360,2|0,0:0|1:0,0:0:0:0:
407,23,40254,5,0,0:0:0:0:
498,23,40435,1,0,0:0:0:0:
451,99,40615,1,0,1:0:0:0:
91,82,41338,6,8,P|71:173|120:244,1,180,0|0,1:0|0:0,0:0:0:0:
200,273,41880,1,0,0:0:0:0:
200,273,42061,1,0,1:0:0:0:
260,206,42242,1,2,0:0:0:0:
260,206,42423,1,0,1:0:0:0:
368,62,42784,6,0,B|438:120|438:120|414:209,2,180,8|0|0,1:0|0:0|1:0,0:0:0:0:
191,27,43868,1,0,0:0:0:0:
113,72,44049,1,0,0:0:0:0:
191,117,44230,1,0,1:0:0:0:
20,172,44591,6,0,P|36:213|64:248,1,90
44,336,44953,2,0,P|88:327|132:335,1,90,0|2,1:0|0:0,0:0:0:0:
222,335,45314,1,0,1:0:0:0:
325,187,45676,2,0,P|334:275|410:335,1,180,8|0,1:0|0:0,0:0:0:0:
448,165,46399,5,0,0:0:0:0:
476,80,46579,1,0,0:0:0:0:
387,98,46760,1,2,0:0:0:0:
211,59,47121,2,0,B|167:83|156:126|156:126|169:166|211:195,1,180,0|2,0:0|0:0,0:0:0:0:
364,291,47844,5,0,0:0:0:0:
449,264,48025,1,0,0:0:0:0:
431,352,48206,1,2,0:0:0:0:
251,355,48567,2,0,B|222:313|182:300|182:300|139:311|115:355,1,180,0|2,0:0|0:0,0:0:0:0:
2,214,49290,5,0,0:0:0:0:
2,214,49471,1,0,0:0:0:0:
66,151,49652,2,0,P|80:107|77:62,1,90,2|0,0:0|0:0,0:0:0:0:
161,95,50013,2,0,P|198:70|242:61,1,90
331,72,50374,1,2,0:0:0:0:
331,72,50555,1,0,0:0:0:0:
420,80,50736,5,0,0:0:0:0:
420,80,50917,1,0,0:0:0:0:
396,167,51097,2,0,P|405:212|430:249,1,90,2|0,0:0|0:0,0:0:0:0:
342,263,51459,2,0,P|321:302|288:332,1,90
206,368,51820,1,2,0:0:0:0:
206,368,52001,1,0,0:0:0:0:
122,334,52182,5,0,0:0:0:0:
33,177,52543,1,2,0:0:0:0:
33,267,52724,1,0,0:0:0:0:
111,222,52905,1,0,0:0:0:0:
254,104,53266,5,2,0:0:0:0:
254,104,53447,1,0,0:0:0:0:
208,183,53627,1,0,0:0:0:0:
208,183,53830,1,0,0:0:0:0:
299,182,54033,2,0,P|331:261|311:351,1,180,2|0,0:0|0:0,0:0:0:0:
172,282,54847,1,2,0:0:0:0:
153,105,55254,6,0,P|141:147|153:193,1,90
224,297,55708,2,0,P|236:255|224:209,1,90,2|0,0:0|0:0,0:0:0:0:
312,137,56225,2,0,P|322:179|357:210,1,90
470,233,56825,2,0,P|459:189|426:160,1,90,2|0,0:0|0:0,0:0:0:0:
392,63,57658,5,4,0:0:0:0:
256,192,57887,12,0,59948,0:0:0:0:
