osu file format v14

[General]
AudioFilename: DS Opening.mp3
AudioLeadIn: 0
PreviewTime: 20284
Countdown: 0
SampleSet: Soft
StackLeniency: 0.6
Mode: 0
LetterboxInBreaks: 1
WidescreenStoryboard: 1

[Editor]
Bookmarks: 11700
DistanceSpacing: 1.2
BeatDivisor: 4
GridSize: 8
TimelineZoom: 1

[Metadata]
Title:Maintenance (OP ver.)
TitleUnicode:Maintenance (OP ver.)
Artist:CombatPlayer
ArtistUnicode:CombatPlayer
Creator:Shinde
Version:Dysfunctional
Source:Dysfunctional Systems
Tags:Learning to Manage Chaos Dischan
BeatmapID:607169
BeatmapSetID:150908

[Difficulty]
HPDrainRate:6
CircleSize:4.1
OverallDifficulty:6
ApproachRate:8.2
SliderMultiplier:2
SliderTickRate:1

[Events]
//Background and Video events
0,0,"DisPaper.png",0,0
Video,0,"DS Opening.avi"
//Break Periods
//Storyboard Layer 0 (Background)
//Storyboard Layer 1 (Fail)
//Storyboard Layer 2 (Pass)
//Storyboard Layer 3 (Foreground)
//Storyboard Sound Samples

[TimingPoints]
134,361.44578313253,4,2,1,20,1,0
22905,-100,4,2,1,35,0,0
23266,-100,4,2,1,35,0,1
34742,-147.058823529412,4,2,1,35,0,1
34832,-147.058823529412,4,2,1,35,0,0
36278,-100,4,2,1,35,0,0
46308,-100,4,2,1,20,0,0
53627,406.779661016949,4,2,1,20,1,0
55254,454.545454545455,4,2,1,20,1,0
55708,517.241379310345,4,2,1,20,1,0
56225,600,4,2,1,20,1,0
56825,750,4,2,1,20,1,0
57200,916.030534351145,4,2,1,20,1,0
57429,-100,4,2,1,10,0,0
57887,-100,4,2,1,5,0,0

[Colours]
Combo1 : 66,115,151
Combo2 : 112,112,112
Combo3 : 198,40,13

[HitObjects]
256,64,11700,6,0,L|360:64,1,100,0|0,1:0|0:0,0:0:0:0:
184,112,12061,2,0,B|144:144|152:208|152:208,1,100,2|0,0:0|0:0,0:0:0:0:
264,328,12423,2,0,B|304:296|296:232|296:232,1,100,0|0,1:0|0:0,0:0:0:0:
152,288,12784,2,0,L|48:288,1,100
8,192,13146,5,2,0:0:0:0:
104,160,13326,1,0,0:0:0:0:
110,152,13507,2,0,B|135:102|110:56|110:56,1,100,0|0,1:0|0:0,0:0:0:0:
256,16,13868,2,0,B|231:66|256:112|256:112,1,100,0|0,1:0|0:0,0:0:0:0:
336,252,14230,2,0,B|361:202|336:156|336:156,1,100,2|0,0:0|0:0,0:0:0:0:
448,40,14591,5,0,1:0:0:0:
416,152,14772,1,0,0:0:0:0:
412,163,14953,1,2,0:0:0:0:
314,93,15133,1,0,1:0:0:0:
310,82,15314,1,0,1:0:0:0:
277,197,15495,1,0,0:0:0:0:
273,208,15676,1,0,0:0:0:0:
187,124,15856,1,0,0:0:0:0:
90,51,16037,6,0,B|50:81|61:141|61:141,1,100,2|0,0:0|1:0,0:0:0:0:
130,287,16399,2,0,B|170:257|159:197|159:197,1,100,0|0,1:0|0:0,0:0:0:0:
62,224,16760,1,0,1:0:0:0:
145,122,16941,1,0,0:0:0:0:
152,115,17121,1,2,0:0:0:0:
202,223,17302,1,0,0:0:0:0:
205,232,17483,6,0,L|236:330,1,100,0|0,1:0|0:0,0:0:0:0:
304,184,17844,2,0,L|335:86,1,100
384,241,18206,2,0,L|415:339,1,100,0|0,1:0|0:0,0:0:0:0:
482,191,18567,2,0,L|513:93,1,100
400,48,18929,5,2,0:0:0:0:
290,96,19109,1,0,1:0:0:0:
279,96,19290,2,0,B|229:96|229:96|181:80,1,100,0|0,1:0|0:0,0:0:0:0:
80,40,19652,2,0,B|80:90|80:90|64:138,1,100,0|0,1:0|0:0,0:0:0:0:
24,248,20013,2,0,B|74:248|74:248|122:264,1,100,2|0,0:0|0:0,0:0:0:0:
232,304,20374,6,0,B|232:254|232:254|248:206,1,100,0|0,1:0|0:0,0:0:0:0:
359,160,20736,1,0,0:0:0:0:
380,278,20917,1,0,1:0:0:0:
382,287,21097,1,0,1:0:0:0:
476,206,21278,1,0,0:0:0:0:
484,201,21459,1,2,0:0:0:0:
445,89,21640,1,0,0:0:0:0:
440,79,21820,1,4,0:1:0:0:
435,70,22543,5,2,0:0:0:0:
254,41,23266,6,0,B|155:65|201:131|92:151,3,200,0|0|8|0,1:0|0:0|0:0|0:0,0:0:0:0:
258,343,24712,2,0,B|357:319|311:253|420:233,3,200,0|0|8|0,1:0|0:0|0:0|0:0,0:0:0:0:
256,40,26158,5,0,1:0:0:0:
195,143,26338,1,0,0:0:0:0:
189,151,26519,1,0,0:0:0:0:
257,249,26700,1,0,1:0:0:0:
262,257,26880,1,8,1:0:0:0:
320,151,27061,1,0,0:0:0:0:
326,143,27242,1,0,0:0:0:0:
256,40,27423,1,0,0:0:0:0:
246,40,27603,6,0,L|142:40,1,100,0|2,1:0|0:0,0:0:0:0:
16,120,27965,2,0,P|64:132|112:120,1,100,0|0,1:0|0:0,0:0:0:0:
256,192,28326,2,0,P|208:180|160:192,1,100,8|0,1:0|0:0,0:0:0:0:
16,272,28688,2,0,L|120:272,1,100
256,352,29049,5,0,1:0:0:0:
355,343,29230,1,0,0:0:0:0:
395,251,29411,1,0,0:0:0:0:
296,265,29591,1,0,0:0:0:0:
256,352,29772,5,8,1:0:0:0:
157,338,29953,1,0,0:0:0:0:
117,251,30133,1,0,0:0:0:0:
216,260,30314,1,0,0:0:0:0:
307,182,30495,6,0,L|403:150,1,100,0|2,1:0|0:0,0:0:0:0:
205,182,30856,2,0,L|109:150,1,100,0|0,1:0|0:0,0:0:0:0:
307,182,31218,2,0,L|355:94,1,100,8|0,1:0|0:0,0:0:0:0:
205,182,31579,2,0,L|157:94,1,100
256,66,31941,5,0,1:0:0:0:
350,97,32121,1,0,0:0:0:0:
358,91,32302,1,0,0:0:0:0:
381,192,32483,1,0,1:0:0:0:
391,192,32664,1,8,1:0:0:0:
350,286,32844,1,0,0:0:0:0:
355,294,33025,1,0,0:0:0:0:
256,317,33206,1,0,0:0:0:0:
248,310,33387,6,0,B|208:281|208:281|152:281,1,100,0|2,1:0|0:0,0:0:0:0:
37,281,33748,1,0,1:0:0:0:
26,281,33929,1,0,0:0:0:0:
77,173,34109,2,0,B|117:202|117:202|173:202,1,100,8|0,1:0|0:0,0:0:0:0:
288,202,34470,1,0,0:0:0:0:
298,202,34651,1,0,0:0:0:0:
338,108,34832,6,0,P|424:83|337:302,1,544.000003320313,4|0,0:1|0:0,0:0:0:0:
241,235,36459,1,0,1:0:0:0:
183,129,36640,2,0,P|125:206|144:302,1,200,0|8,1:0|0:1,0:0:0:0:
416,80,37543,5,0,0:0:0:0:
298,29,37724,2,0,B|264:98|298:124|329:147|293:222,1,200,0|0,1:0|0:0,0:0:0:0:
248,331,38266,1,0,0:0:0:0:
165,243,38447,1,0,1:0:0:0:
76,48,38989,5,0,0:0:0:0:
12,150,39170,1,0,1:0:0:0:
131,158,39350,2,0,L|176:133,2,50,0|0|2,0:0|0:0|0:0,0:0:0:0:
78,266,39712,1,0,0:0:0:0:
70,272,39893,1,8,0:1:0:0:
382,73,40435,5,0,0:0:0:0:
489,20,40615,2,0,P|533:103|496:195,2,200,0|0|0,1:0|0:0|1:0,0:0:0:0:
288,104,41700,1,0,0:0:0:0:
232,208,41880,1,0,1:0:0:0:
344,208,42061,1,0,1:0:0:0:
288,104,42242,2,0,L|309:59,2,50,2|0|0,0:0|0:0|1:0,0:0:0:0:
175,145,42603,2,0,P|150:188|154:242,1,100,0|8,0:0|0:1,0:0:0:0:
392,256,43326,5,0,0:0:0:0:
497,198,43507,2,0,P|505:295|434:369,1,200,0|0,1:0|0:0,0:0:0:0:
392,256,44049,1,0,1:0:0:0:
286,313,44230,2,0,P|277:215|348:141,1,200,0|0,1:0|0:0,0:0:0:0:
447,91,44772,5,0,0:0:0:0:
344,32,44953,1,0,1:0:0:0:
240,88,45133,2,0,L|211:134,2,50,2|0|0,0:0|0:0|1:0,0:0:0:0:
119,91,45495,2,0,P|84:126|73:175,1,100,0|8,0:0|0:1,0:0:0:0:
328,304,46218,5,0,0:0:0:0:
437,252,46399,2,0,L|437:356,1,100,0|0,0:0|0:0,0:0:0:0:
389,180,46760,2,0,B|357:140|293:148|293:148,1,100,2|0,0:0|0:0,0:0:0:0:
173,260,47122,2,0,B|205:300|269:292|269:292,1,100
213,148,47483,2,0,L|213:44,1,100,2|0,0:0|0:0,0:0:0:0:
112,112,47844,5,0,0:0:0:0:
8,192,48026,1,0,0:0:0:0:
16,200,48207,1,2,0:0:0:0:
104,288,48387,1,0,0:0:0:0:
112,280,48568,1,0,0:0:0:0:
192,200,48749,1,0,0:0:0:0:
200,192,48929,1,2,0:0:0:0:
287,109,49109,1,0,0:0:0:0:
294,102,49290,6,0,B|329:61|329:61|375:51,1,100
488,40,49652,1,2,0:0:0:0:
448,152,49832,1,0,0:0:0:0:
441,159,50013,2,0,B|406:200|406:200|360:210,1,100
349,213,50375,1,2,0:0:0:0:
244,170,50555,1,0,0:0:0:0:
242,160,50736,6,0,P|226:112|194:72,1,100
342,138,51097,2,0,P|390:122|430:90,1,100,2|0,0:0|0:0,0:0:0:0:
367,241,51459,2,0,P|383:289|415:329,1,100
267,263,51820,2,0,P|219:279|179:311,1,100,2|0,0:0|0:0,0:0:0:0:
77,379,52182,5,0,0:0:0:0:
32,272,52362,1,0,0:0:0:0:
24,264,52543,1,2,0:0:0:0:
32,152,52724,1,0,0:0:0:0:
32,142,52904,1,0,0:0:0:0:
88,48,53085,1,0,0:0:0:0:
95,40,53266,1,2,0:0:0:0:
192,104,53447,1,0,0:0:0:0:
200,105,53627,6,0,L|304:113,1,100
440,160,54033,1,2,0:0:0:0:
430,161,54237,1,0,0:0:0:0:
420,161,54440,2,0,L|316:169,1,100
169,224,54847,1,2,0:0:0:0:
179,224,55051,1,0,0:0:0:0:
187,225,55254,6,0,L|291:233,1,100
359,355,55708,2,0,P|343:307|359:259,1,100,2|0,0:0|0:0,0:0:0:0:
435,144,56225,2,0,P|451:192|435:240,1,100
349,125,56825,2,0,P|333:77|349:29,1,100,2|0,0:0|0:0,0:0:0:0:
452,75,57658,5,4,0:2:0:0:
256,192,57887,12,0,59948,0:0:0:0:
