osu file format v14

[General]
AudioFilename: audio.mp3
AudioLeadIn: 0
PreviewTime: 150596
Countdown: 0
SampleSet: Normal
StackLeniency: 0.7
Mode: 1
LetterboxInBreaks: 0
WidescreenStoryboard: 0

[Editor]
Bookmarks: 97346,193346,214680,292013
DistanceSpacing: 1
BeatDivisor: 4
GridSize: 16
TimelineZoom: 2.1

[Metadata]
Title:Colors Power ni Omakasero! (nenpulse bootleg remix)
TitleUnicode:カラーズぱわーにおまかせろ! (nenpulse bootleg remix)
Artist:Colors*Slash
ArtistUnicode:カラーズ☆スラッシュ
Creator:komasy
Version:COLORS
Source:三ツ星カラーズ
Tags:Mitsuboshi Colors OP Opening Happy Hardcore J-Core 結衣 Yui 高田憂希 Takada Yuuki さっちゃん Sat-chan 高野麻里佳 Kouno Marika 琴葉 Kotoha 日岡なつみ Hioka Natsumi namaniku Masque
BeatmapID:1843535
BeatmapSetID:881735

[Difficulty]
HPDrainRate:4
CircleSize:6
OverallDifficulty:6
ApproachRate:4
SliderMultiplier:1.4
SliderTickRate:1

[Events]
//Background and Video events
0,0,"ef2c7d147bc3a31684e09c3cf57d4458d04d9e6d.jpg",0,60
//Break Periods
//Storyboard Layer 0 (Background)
//Storyboard Layer 1 (Fail)
//Storyboard Layer 2 (Pass)
//Storyboard Layer 3 (Foreground)
//Storyboard Sound Samples

[TimingPoints]
1347,333.333333333333,4,1,0,40,1,0
1347,-133.333333333333,4,1,0,40,0,0
11930,-113.636363636364,4,1,0,70,0,0
21346,-113.636363636364,4,1,0,20,0,0
22096,-125,4,1,0,80,0,0
22596,-100,4,1,0,90,0,0
43930,-100,4,1,0,80,0,0
53346,-111.111111111111,4,1,0,60,0,0
54138,-111.111111111111,4,1,0,80,0,0
54596,-100,4,1,0,80,0,0
65263,-125,4,1,0,80,0,0
70763,-100,4,1,0,80,0,0
74680,-111.111111111111,4,1,0,60,0,0
75471,-111.111111111111,4,1,0,80,0,0
75930,-111.111111111111,4,1,0,100,0,0
76013,-100,4,1,0,100,0,1
96013,-100,4,1,0,80,0,1
97263,-100,4,1,0,90,0,1
97346,-100,4,1,0,90,0,0
118596,-100,4,1,0,80,0,0
118971,-102.040816326531,4,1,0,80,0,0
119305,-104.166666666667,4,1,0,80,0,0
119638,-106.382978723404,4,1,0,80,0,0
120305,-108.695652173913,4,1,0,80,0,0
120638,-111.111111111111,4,1,0,80,0,0
120971,-113.636363636364,4,1,0,80,0,0
121305,-112.359550561798,4,1,0,80,0,0
121388,-111.111111111111,4,1,0,80,0,0
121471,-109.89010989011,4,1,0,80,0,0
121555,-108.695652173913,4,1,0,80,0,0
121638,-107.52688172043,4,1,0,80,0,0
121721,-106.382978723404,4,1,0,80,0,0
121805,-105.263157894737,4,1,0,80,0,0
121888,-104.166666666667,4,1,0,80,0,0
121971,-103.092783505155,4,1,0,80,0,0
122055,-102.040816326531,4,1,0,80,0,0
122138,-101.010101010101,4,1,0,80,0,0
122221,-100,4,1,0,80,0,0
128013,-111.111111111111,4,1,0,60,0,0
128805,-111.111111111111,4,1,0,80,0,0
129263,-100,4,1,0,80,0,0
139930,-125,4,1,0,80,0,0
145430,-100,4,1,0,80,0,0
149346,-111.111111111111,4,1,0,60,0,0
150138,-111.111111111111,4,1,0,80,0,0
150596,-100,4,1,0,100,0,0
150680,-100,4,1,0,100,0,1
170680,-100,4,1,0,80,0,1
172013,-100,4,1,0,80,0,0
173263,-166.666666666667,4,1,0,50,0,0
174596,-172.413793103448,4,1,0,50,0,0
175930,-178.571428571429,4,1,0,50,0,0
177263,-185.185185185185,4,1,0,50,0,0
178596,-192.307692307692,4,1,0,50,0,0
179930,-200,4,1,0,50,0,0
181263,-208.333333333333,4,1,0,50,0,0
182263,-133.333333333333,4,1,0,60,0,0
187930,-113.636363636364,4,1,0,70,0,0
193263,-100,4,1,0,80,0,0
193346,-100,4,1,0,90,0,0
213388,-100,4,1,0,60,0,0
214138,-100,4,1,0,80,0,0
214596,-125,4,1,0,80,0,0
220096,-100,4,1,0,80,0,0
226680,-111.111111111111,4,1,0,60,0,0
227471,-111.111111111111,4,1,0,80,0,0
227930,-125,4,1,0,80,0,0
228096,-125,4,1,0,60,0,0
238596,-100,4,1,0,80,0,0
248013,-111.111111111111,4,1,0,60,0,0
248805,-111.111111111111,4,1,0,80,0,0
249263,-86.9565217391304,4,1,0,100,0,0
249346,-86.9565217391304,4,1,0,100,0,1
269346,-86.9565217391304,4,1,0,80,0,1
270596,-86.9565217391304,4,1,0,90,0,1
270680,-100,4,1,0,90,0,0
292013,-100,4,1,0,70,0,0
302596,-100,4,1,0,60,0,0

[HitObjects]
258,170,1347,5,8,0:0:0:0:
258,170,2680,1,8,0:0:0:0:
257,176,4013,1,8,0:0:0:0:
257,176,5347,1,8,0:0:0:0:
245,198,6680,1,8,0:0:0:0:
319,210,8013,1,8,0:0:0:0:
320,210,9347,1,8,0:0:0:0:
358,241,10680,1,8,0:0:0:0:
360,227,12013,1,0,0:0:0:0:
360,227,12347,1,8,0:0:0:0:
360,227,12680,1,8,0:0:0:0:
360,227,13013,1,8,0:0:0:0:
358,152,13180,1,8,0:0:0:0:
360,227,13347,1,8,0:0:0:0:
360,227,13680,1,8,0:0:0:0:
360,227,14013,1,8,0:0:0:0:
360,227,14347,1,8,0:0:0:0:
287,228,14513,1,8,0:0:0:0:
287,228,14680,1,0,0:0:0:0:
309,221,15013,1,8,0:0:0:0:
318,225,15347,1,8,0:0:0:0:
321,105,15513,1,8,0:0:0:0:
304,225,15846,1,8,0:0:0:0:
309,221,16013,1,0,0:0:0:0:
277,121,16180,1,8,0:0:0:0:
304,225,16513,1,8,0:0:0:0:
304,225,16680,1,8,0:0:0:0:
309,221,17013,1,8,0:0:0:0:
309,225,17346,1,0,0:0:0:0:
304,225,17680,1,8,0:0:0:0:
304,224,18013,1,8,0:0:0:0:
309,225,18346,1,8,0:0:0:0:
304,225,18513,1,8,0:0:0:0:
304,225,18680,1,0,0:0:0:0:
304,224,18846,1,8,0:0:0:0:
309,225,19180,1,8,0:0:0:0:
309,225,19346,1,0,0:0:0:0:
338,92,19513,1,8,0:0:0:0:
338,92,19680,1,8,0:0:0:0:
316,153,20013,1,0,0:0:0:0:
316,153,20346,1,0,0:0:0:0:
316,153,20513,1,8,0:0:0:0:
316,153,20680,1,0,0:0:0:0:
297,153,20846,1,8,0:0:0:0:
297,153,20930,1,8,0:0:0:0:
297,153,21013,1,8,0:0:0:0:
297,153,21180,1,8,0:0:0:0:
333,269,22180,1,0,0:0:0:0:
333,269,22263,1,0,0:0:0:0:
333,269,22346,1,8,0:0:0:0:
350,273,22680,1,4,0:0:0:0:
206,175,23013,1,8,0:0:0:0:
348,250,23180,1,0,0:0:0:0:
348,250,23263,1,0,0:0:0:0:
348,250,23346,1,8,0:0:0:0:
348,250,23513,1,0,0:0:0:0:
348,250,23680,1,8,0:0:0:0:
340,186,23846,1,8,0:0:0:0:
340,186,23930,1,8,0:0:0:0:
340,186,24013,1,0,0:0:0:0:
340,186,24180,1,0,0:0:0:0:
340,186,24346,1,8,0:0:0:0:
340,186,24513,1,0,0:0:0:0:
340,186,24596,1,0,0:0:0:0:
281,165,24680,1,8,0:0:0:0:
272,210,24763,1,8,0:0:0:0:
272,210,24846,1,0,0:0:0:0:
272,210,25013,1,8,0:0:0:0:
272,210,25180,1,0,0:0:0:0:
272,210,25263,1,8,0:0:0:0:
272,210,25346,1,0,0:0:0:0:
217,172,25513,1,0,0:0:0:0:
285,182,25680,1,8,0:0:0:0:
285,182,25846,1,0,0:0:0:0:
285,182,25930,1,0,0:0:0:0:
285,182,26013,1,8,0:0:0:0:
285,182,26180,1,0,0:0:0:0:
285,182,26346,1,8,0:0:0:0:
285,182,26513,1,0,0:0:0:0:
259,139,26596,1,8,0:0:0:0:
259,139,26680,1,8,0:0:0:0:
259,139,26846,1,0,0:0:0:0:
259,139,27013,1,8,0:0:0:0:
259,139,27096,1,8,0:0:0:0:
259,139,27180,1,0,0:0:0:0:
266,138,27346,1,8,0:0:0:0:
400,159,27513,1,0,0:0:0:0:
400,159,27569,1,8,0:0:0:0:
400,159,27624,1,8,0:0:0:0:
338,177,27680,1,0,0:0:0:0:
338,177,27846,1,8,0:0:0:0:
350,273,28013,1,0,0:0:0:0:
206,175,28346,1,8,0:0:0:0:
348,250,28513,1,0,0:0:0:0:
348,250,28596,1,0,0:0:0:0:
348,250,28679,1,8,0:0:0:0:
348,250,28846,1,0,0:0:0:0:
348,250,29013,1,8,0:0:0:0:
340,186,29179,1,8,0:0:0:0:
340,186,29263,1,8,0:0:0:0:
340,186,29346,1,0,0:0:0:0:
340,186,29513,1,0,0:0:0:0:
340,186,29679,1,8,0:0:0:0:
340,186,29846,1,0,0:0:0:0:
340,186,29929,1,0,0:0:0:0:
281,165,30013,1,8,0:0:0:0:
272,210,30096,1,8,0:0:0:0:
272,210,30179,1,0,0:0:0:0:
272,210,30346,1,8,0:0:0:0:
272,210,30513,1,0,0:0:0:0:
272,210,30596,1,8,0:0:0:0:
272,210,30679,1,0,0:0:0:0:
217,172,30846,1,0,0:0:0:0:
285,182,31013,1,8,0:0:0:0:
285,182,31179,1,0,0:0:0:0:
285,182,31263,1,0,0:0:0:0:
285,182,31346,1,8,0:0:0:0:
285,182,31513,1,0,0:0:0:0:
285,182,31679,1,8,0:0:0:0:
285,182,31846,1,0,0:0:0:0:
259,139,31929,1,8,0:0:0:0:
259,139,32096,1,8,0:0:0:0:
259,139,32179,1,0,0:0:0:0:
259,139,32346,1,8,0:0:0:0:
259,139,32513,1,0,0:0:0:0:
321,149,32596,1,0,0:0:0:0:
266,138,32679,1,8,0:0:0:0:
400,159,32846,1,0,0:0:0:0:
400,159,32902,1,8,0:0:0:0:
400,159,32957,1,8,0:0:0:0:
338,177,33013,1,0,0:0:0:0:
338,177,33179,1,8,0:0:0:0:
338,177,33346,1,0,0:0:0:0:
455,251,33680,1,0,0:0:0:0:
360,187,33846,1,8,0:0:0:0:
360,187,34013,1,0,0:0:0:0:
360,187,34096,1,8,0:0:0:0:
321,187,34180,1,8,0:0:0:0:
321,187,34346,1,0,0:0:0:0:
321,187,34513,1,8,0:0:0:0:
321,187,34596,1,8,0:0:0:0:
321,187,34680,1,0,0:0:0:0:
351,107,34846,1,8,0:0:0:0:
351,107,35013,1,0,0:0:0:0:
351,107,35096,1,8,0:0:0:0:
351,107,35263,1,8,0:0:0:0:
351,107,35346,1,0,0:0:0:0:
351,107,35513,1,8,0:0:0:0:
351,107,35680,1,0,0:0:0:0:
216,127,35763,1,0,0:0:0:0:
351,107,35846,1,8,0:0:0:0:
226,125,36013,1,0,0:0:0:0:
356,201,36263,1,8,0:0:0:0:
455,251,36346,1,0,0:0:0:0:
360,187,36512,1,8,0:0:0:0:
360,187,36679,1,0,0:0:0:0:
321,187,36846,1,8,0:0:0:0:
360,187,36930,1,8,0:0:0:0:
321,187,37012,1,0,0:0:0:0:
321,187,37179,1,8,0:0:0:0:
321,187,37346,1,0,0:0:0:0:
321,187,37430,1,0,0:0:0:0:
351,107,37512,1,8,0:0:0:0:
351,107,37679,1,0,0:0:0:0:
351,107,37846,1,8,0:0:0:0:
351,107,37930,1,8,0:0:0:0:
351,107,38013,1,0,0:0:0:0:
351,107,38179,1,8,0:0:0:0:
224,114,38235,1,8,0:0:0:0:
224,114,38291,1,8,0:0:0:0:
351,107,38346,1,0,0:0:0:0:
351,107,38512,1,8,0:0:0:0:
338,177,38680,1,0,0:0:0:0:
455,251,39014,1,0,0:0:0:0:
360,187,39180,1,8,0:0:0:0:
360,187,39347,1,0,0:0:0:0:
360,187,39430,1,8,0:0:0:0:
321,187,39514,1,8,0:0:0:0:
321,187,39680,1,0,0:0:0:0:
321,187,39847,1,8,0:0:0:0:
321,187,39930,1,8,0:0:0:0:
321,187,40014,1,0,0:0:0:0:
351,107,40180,1,8,0:0:0:0:
351,107,40347,1,0,0:0:0:0:
351,107,40430,1,8,0:0:0:0:
351,107,40597,1,8,0:0:0:0:
351,107,40680,1,0,0:0:0:0:
351,107,40847,1,8,0:0:0:0:
351,107,41014,1,0,0:0:0:0:
216,127,41097,1,0,0:0:0:0:
351,107,41180,1,8,0:0:0:0:
226,125,41347,1,0,0:0:0:0:
253,136,41430,1,0,0:0:0:0:
262,135,41513,1,0,0:0:0:0:
356,201,41597,1,8,0:0:0:0:
455,251,41680,1,0,0:0:0:0:
362,105,41763,1,0,0:0:0:0:
360,187,41846,1,8,0:0:0:0:
231,57,41930,1,8,0:0:0:0:
360,187,42013,1,0,0:0:0:0:
209,58,42096,1,8,0:0:0:0:
321,187,42180,1,8,0:0:0:0:
360,187,42264,1,8,0:0:0:0:
321,187,42346,1,0,0:0:0:0:
208,142,42402,1,8,0:0:0:0:
208,142,42458,1,8,0:0:0:0:
321,187,42513,1,0,0:0:0:0:
283,145,42846,1,0,0:0:0:0:
293,145,42930,1,0,0:0:0:0:
283,145,43013,1,8,0:0:0:0:
293,145,43180,1,0,0:0:0:0:
293,145,43346,1,8,0:0:0:0:
293,145,43430,1,8,0:0:0:0:
293,145,43513,1,0,0:0:0:0:
293,145,43596,1,0,0:0:0:0:
293,145,43680,1,8,0:0:0:0:
371,225,44013,1,4,0:0:0:0:
371,225,44346,1,0,0:0:0:0:
371,225,44680,1,0,0:0:0:0:
371,225,45013,1,0,0:0:0:0:
391,173,45180,1,8,0:0:0:0:
371,225,45346,1,0,0:0:0:0:
371,225,45680,1,0,0:0:0:0:
391,173,46013,1,0,0:0:0:0:
391,173,46180,1,0,0:0:0:0:
391,173,46346,1,8,0:0:0:0:
391,173,46513,1,8,0:0:0:0:
391,173,46680,1,0,0:0:0:0:
391,173,47013,1,0,0:0:0:0:
391,173,47346,1,0,0:0:0:0:
391,173,47680,1,0,0:0:0:0:
391,173,47846,1,8,0:0:0:0:
391,173,48013,1,0,0:0:0:0:
224,144,48346,1,0,0:0:0:0:
391,173,48680,1,0,0:0:0:0:
336,176,49013,1,0,0:0:0:0:
336,176,49180,1,0,0:0:0:0:
432,144,49346,1,8,0:0:0:0:
384,160,49680,1,8,0:0:0:0:
400,160,49846,1,8,0:0:0:0:
400,160,50013,1,0,0:0:0:0:
400,160,50346,1,8,0:0:0:0:
400,160,50513,1,0,0:0:0:0:
400,160,50680,1,8,0:0:0:0:
400,160,51013,1,0,0:0:0:0:
400,160,51180,1,8,0:0:0:0:
400,160,51346,1,0,0:0:0:0:
384,160,51680,1,8,0:0:0:0:
384,160,52013,1,0,0:0:0:0:
384,160,52346,1,8,0:0:0:0:
384,160,52680,1,0,0:0:0:0:
384,160,52846,1,0,0:0:0:0:
384,160,53013,1,8,0:0:0:0:
384,160,53180,1,4,0:0:0:0:
400,256,53513,1,8,0:0:0:0:
400,256,53596,1,8,0:0:0:0:
400,256,53680,1,8,0:0:0:0:
288,128,53846,1,8,0:0:0:0:
288,128,53930,1,8,0:0:0:0:
288,128,54013,1,0,0:0:0:0:
288,128,54096,1,8,0:0:0:0:
288,128,54180,1,0,0:0:0:0:
288,128,54263,1,0,0:0:0:0:
288,128,54346,1,8,0:0:0:0:
304,128,54680,1,4,0:0:0:0:
400,240,55013,1,8,0:0:0:0:
400,240,55263,1,8,0:0:0:0:
400,240,55346,1,0,0:0:0:0:
384,240,55513,1,0,0:0:0:0:
384,240,55680,1,8,0:0:0:0:
208,192,55846,1,8,0:0:0:0:
384,240,56013,1,0,0:0:0:0:
384,240,56346,1,8,0:0:0:0:
384,240,56513,1,0,0:0:0:0:
288,224,56596,1,0,0:0:0:0:
288,224,56680,1,0,0:0:0:0:
288,224,56846,1,0,0:0:0:0:
288,224,57013,1,8,0:0:0:0:
240,112,57180,1,8,0:0:0:0:
304,128,57346,1,0,0:0:0:0:
400,240,57679,1,8,0:0:0:0:
400,240,57929,1,8,0:0:0:0:
400,240,58012,1,0,0:0:0:0:
384,240,58179,1,0,0:0:0:0:
384,240,58346,1,8,0:0:0:0:
208,192,58513,1,8,0:0:0:0:
384,240,58679,1,0,0:0:0:0:
384,240,59012,1,8,0:0:0:0:
384,240,59179,1,0,0:0:0:0:
288,224,59262,1,0,0:0:0:0:
288,224,59346,1,8,0:0:0:0:
304,160,59513,1,8,0:0:0:0:
272,176,59596,1,8,0:0:0:0:
304,160,59680,1,0,0:0:0:0:
240,112,59846,1,8,0:0:0:0:
304,128,60013,1,0,0:0:0:0:
400,240,60346,1,8,0:0:0:0:
400,240,60513,1,8,0:0:0:0:
400,240,60679,1,0,0:0:0:0:
384,240,60846,1,0,0:0:0:0:
272,160,60930,1,0,0:0:0:0:
384,240,61013,1,8,0:0:0:0:
208,192,61179,1,8,0:0:0:0:
384,240,61346,1,0,0:0:0:0:
384,240,61679,1,8,0:0:0:0:
384,240,61846,1,8,0:0:0:0:
288,224,61929,1,8,0:0:0:0:
368,192,62013,1,0,0:0:0:0:
288,224,62179,1,0,0:0:0:0:
304,208,62263,1,0,0:0:0:0:
336,176,62346,1,8,0:0:0:0:
240,112,62513,1,0,0:0:0:0:
304,128,62679,1,8,0:0:0:0:
336,240,62763,1,0,0:0:0:0:
336,240,62846,1,0,0:0:0:0:
336,240,62930,1,0,0:0:0:0:
336,240,63013,1,8,0:0:0:0:
336,240,63096,1,8,0:0:0:0:
400,240,63180,1,0,0:0:0:0:
400,240,63262,1,0,0:0:0:0:
400,240,63345,1,8,0:0:0:0:
256,128,63430,1,8,0:0:0:0:
256,128,63513,1,8,0:0:0:0:
384,240,63596,1,8,0:0:0:0:
400,192,63680,1,0,0:0:0:0:
208,192,63846,1,12,0:0:0:0:
272,176,64180,1,4,0:0:0:0:
352,240,64513,1,12,0:0:0:0:
352,224,64846,1,0,0:0:0:0:
352,224,64930,1,0,0:0:0:0:
336,240,65013,1,8,0:0:0:0:
336,240,65346,1,4,0:0:0:0:
416,256,65846,1,0,0:0:0:0:
416,256,65930,1,0,0:0:0:0:
448,256,66013,1,8,0:0:0:0:
416,256,66180,1,8,0:0:0:0:
416,256,66513,1,0,0:0:0:0:
416,256,66596,1,0,0:0:0:0:
432,256,66680,1,0,0:0:0:0:
288,192,66846,1,8,0:0:0:0:
288,192,66902,1,8,0:0:0:0:
288,192,66958,1,8,0:0:0:0:
288,192,67013,1,0,0:0:0:0:
336,176,67180,1,0,0:0:0:0:
336,176,67346,1,8,0:0:0:0:
288,192,67680,1,8,0:0:0:0:
304,192,67846,1,0,0:0:0:0:
304,192,67930,1,0,0:0:0:0:
304,192,68013,1,0,0:0:0:0:
356,216,68180,1,0,0:0:0:0:
352,176,68513,1,0,0:0:0:0:
352,176,68596,1,0,0:0:0:0:
336,160,68680,1,8,0:0:0:0:
336,160,68846,1,8,0:0:0:0:
336,160,69180,1,0,0:0:0:0:
336,160,69263,1,0,0:0:0:0:
336,160,69346,1,0,0:0:0:0:
352,240,69513,1,8,0:0:0:0:
352,240,69569,1,8,0:0:0:0:
352,240,69624,1,8,0:0:0:0:
336,240,69680,1,0,0:0:0:0:
368,240,69846,1,0,0:0:0:0:
368,240,70013,1,8,0:0:0:0:
448,288,70346,1,8,0:0:0:0:
240,160,70513,1,0,0:0:0:0:
240,160,70596,1,0,0:0:0:0:
240,160,70680,1,0,0:0:0:0:
320,256,71013,1,8,0:0:0:0:
320,256,71263,1,8,0:0:0:0:
320,256,71346,1,0,0:0:0:0:
336,256,71513,1,0,0:0:0:0:
336,240,71680,1,8,0:0:0:0:
304,256,71846,1,8,0:0:0:0:
256,128,72013,1,0,0:0:0:0:
288,160,72180,1,8,0:0:0:0:
288,160,72263,1,8,0:0:0:0:
288,160,72346,1,0,0:0:0:0:
288,160,72513,1,8,0:0:0:0:
288,160,72680,1,0,0:0:0:0:
288,160,72763,1,8,0:0:0:0:
304,160,72930,1,8,0:0:0:0:
304,160,73013,1,0,0:0:0:0:
304,160,73180,1,8,0:0:0:0:
304,160,73346,1,0,0:0:0:0:
336,160,73430,1,0,0:0:0:0:
352,224,73513,1,8,0:0:0:0:
352,224,73680,1,0,0:0:0:0:
352,224,73846,1,8,0:0:0:0:
352,224,73930,1,8,0:0:0:0:
352,224,74013,1,0,0:0:0:0:
352,224,74096,1,0,0:0:0:0:
352,224,74180,1,8,0:0:0:0:
352,224,74346,1,0,0:0:0:0:
352,224,74513,1,12,0:0:0:0:
320,192,75013,1,0,0:0:0:0:
320,192,75096,1,0,0:0:0:0:
320,192,75180,1,0,0:0:0:0:
320,192,75263,1,0,0:0:0:0:
320,192,75346,1,8,0:0:0:0:
320,192,75430,1,8,0:0:0:0:
320,192,75513,1,0,0:0:0:0:
320,192,75596,1,0,0:0:0:0:
320,192,75680,1,8,0:0:0:0:
384,208,76013,1,4,0:0:0:0:
256,176,76263,1,8,0:0:0:0:
256,176,76346,1,0,0:0:0:0:
256,176,76513,1,8,0:0:0:0:
256,176,76680,1,0,0:0:0:0:
256,176,76763,1,8,0:0:0:0:
256,176,76846,1,8,0:0:0:0:
256,176,77013,1,0,0:0:0:0:
256,176,77180,1,8,0:0:0:0:
304,256,77263,1,8,0:0:0:0:
416,288,77346,1,0,0:0:0:0:
320,240,77513,1,8,0:0:0:0:
320,240,77680,1,0,0:0:0:0:
320,240,77763,1,0,0:0:0:0:
320,240,77930,1,8,0:0:0:0:
256,128,78013,1,0,0:0:0:0:
256,128,78180,1,8,0:0:0:0:
256,128,78346,1,0,0:0:0:0:
256,128,78430,1,0,0:0:0:0:
256,128,78513,1,8,0:0:0:0:
256,128,78596,1,8,0:0:0:0:
256,128,78680,1,0,0:0:0:0:
256,128,78846,1,0,0:0:0:0:
256,128,78930,1,8,0:0:0:0:
272,112,79013,1,0,0:0:0:0:
272,112,79180,1,8,0:0:0:0:
272,112,79346,1,0,0:0:0:0:
272,112,79430,1,0,0:0:0:0:
272,112,79513,1,8,0:0:0:0:
272,112,79680,1,0,0:0:0:0:
272,112,79846,1,0,0:0:0:0:
272,112,79930,1,8,0:0:0:0:
288,208,80096,1,8,0:0:0:0:
288,208,80180,1,0,0:0:0:0:
240,160,80346,1,8,0:0:0:0:
240,160,80513,1,0,0:0:0:0:
240,160,80596,1,8,0:0:0:0:
240,160,80680,1,8,0:0:0:0:
288,144,80846,1,0,0:0:0:0:
288,144,81013,1,8,0:0:0:0:
320,96,81096,1,8,0:0:0:0:
272,112,81180,1,8,0:0:0:0:
287,158,81263,1,8,0:0:0:0:
272,112,81346,1,0,0:0:0:0:
272,112,81513,1,8,0:0:0:0:
272,112,81596,1,8,0:0:0:0:
416,160,81680,1,0,0:0:0:0:
400,160,81846,1,8,0:0:0:0:
400,160,82013,1,0,0:0:0:0:
400,160,82096,1,8,0:0:0:0:
400,160,82180,1,8,0:0:0:0:
400,160,82346,1,0,0:0:0:0:
400,160,82513,1,8,0:0:0:0:
400,160,82596,1,8,0:0:0:0:
400,160,82763,1,8,0:0:0:0:
400,160,82846,1,0,0:0:0:0:
256,128,83013,1,8,0:0:0:0:
256,128,83180,1,0,0:0:0:0:
256,128,83263,1,8,0:0:0:0:
256,128,83346,1,8,0:0:0:0:
247,54,83513,1,8,0:0:0:0:
318,178,83596,1,8,0:0:0:0:
256,128,83680,1,0,0:0:0:0:
256,128,83846,1,8,0:0:0:0:
256,128,84013,1,0,0:0:0:0:
256,144,84096,1,0,0:0:0:0:
256,144,84180,1,8,0:0:0:0:
256,144,84263,1,0,0:0:0:0:
256,144,84346,1,8,0:0:0:0:
256,144,84430,1,8,0:0:0:0:
256,144,84513,1,0,0:0:0:0:
256,144,84596,1,8,0:0:0:0:
160,128,84680,1,0,0:0:0:0:
160,128,84763,1,0,0:0:0:0:
160,128,84846,1,8,0:0:0:0:
176,128,84930,1,0,0:0:0:0:
176,128,85013,1,8,0:0:0:0:
176,128,85096,1,8,0:0:0:0:
176,128,85180,1,8,0:0:0:0:
224,160,85235,1,8,0:0:0:0:
176,128,85291,1,8,0:0:0:0:
176,128,85346,1,0,0:0:0:0:
416,96,85680,1,8,0:0:0:0:
416,96,85846,1,0,0:0:0:0:
416,96,86013,1,8,0:0:0:0:
240,64,86096,1,8,0:0:0:0:
416,96,86180,1,0,0:0:0:0:
240,64,86346,1,12,0:0:0:0:
384,208,86680,1,4,0:0:0:0:
256,176,86930,1,8,0:0:0:0:
256,176,87013,1,0,0:0:0:0:
256,176,87180,1,8,0:0:0:0:
224,160,87263,1,8,0:0:0:0:
256,176,87347,1,0,0:0:0:0:
256,176,87513,1,8,0:0:0:0:
256,176,87680,1,0,0:0:0:0:
288,160,87763,1,0,0:0:0:0:
256,176,87847,1,8,0:0:0:0:
416,288,88013,1,0,0:0:0:0:
320,240,88180,1,8,0:0:0:0:
224,144,88263,1,8,0:0:0:0:
320,240,88347,1,0,0:0:0:0:
320,240,88430,1,8,0:0:0:0:
320,240,88597,1,8,0:0:0:0:
256,128,88680,1,0,0:0:0:0:
256,128,88847,1,8,0:0:0:0:
256,128,89013,1,0,0:0:0:0:
256,128,89097,1,0,0:0:0:0:
256,128,89180,1,8,0:0:0:0:
256,128,89263,1,8,0:0:0:0:
256,128,89347,1,0,0:0:0:0:
256,128,89513,1,0,0:0:0:0:
256,128,89597,1,8,0:0:0:0:
272,112,89680,1,0,0:0:0:0:
272,112,89847,1,8,0:0:0:0:
272,112,90013,1,0,0:0:0:0:
272,112,90097,1,0,0:0:0:0:
272,112,90180,1,8,0:0:0:0:
272,112,90347,1,0,0:0:0:0:
272,112,90513,1,8,0:0:0:0:
272,112,90597,1,8,0:0:0:0:
288,208,90763,1,8,0:0:0:0:
288,208,90847,1,0,0:0:0:0:
304,160,90930,1,0,0:0:0:0:
240,160,91013,1,8,0:0:0:0:
240,160,91180,1,0,0:0:0:0:
240,160,91347,1,8,0:0:0:0:
240,160,91430,1,8,0:0:0:0:
288,144,91513,1,0,0:0:0:0:
320,96,91680,1,8,0:0:0:0:
288,144,91763,1,0,0:0:0:0:
272,112,91847,1,8,0:0:0:0:
416,240,91930,1,8,0:0:0:0:
272,112,92013,1,0,0:0:0:0:
272,112,92180,1,8,0:0:0:0:
272,112,92263,1,8,0:0:0:0:
416,160,92347,1,0,0:0:0:0:
400,160,92513,1,8,0:0:0:0:
400,160,92680,1,0,0:0:0:0:
400,160,92763,1,0,0:0:0:0:
400,160,92847,1,8,0:0:0:0:
400,160,93013,1,0,0:0:0:0:
400,160,93180,1,0,0:0:0:0:
400,160,93263,1,8,0:0:0:0:
400,160,93346,1,0,0:0:0:0:
400,160,93430,1,0,0:0:0:0:
240,128,93513,1,8,0:0:0:0:
240,128,93680,1,0,0:0:0:0:
256,128,93847,1,8,0:0:0:0:
256,128,93930,1,8,0:0:0:0:
256,128,94013,1,0,0:0:0:0:
288,160,94180,1,8,0:0:0:0:
256,128,94347,1,0,0:0:0:0:
192,160,94430,1,8,0:0:0:0:
256,128,94513,1,8,0:0:0:0:
256,128,94597,1,8,0:0:0:0:
256,128,94680,1,0,0:0:0:0:
256,144,94763,1,0,0:0:0:0:
256,144,94847,1,8,0:0:0:0:
256,144,94930,1,0,0:0:0:0:
256,144,95013,1,8,0:0:0:0:
256,144,95097,1,8,0:0:0:0:
256,144,95180,1,0,0:0:0:0:
256,144,95263,1,8,0:0:0:0:
160,128,95346,1,0,0:0:0:0:
160,128,95430,1,0,0:0:0:0:
160,128,95513,1,8,0:0:0:0:
176,128,95597,1,8,0:0:0:0:
176,128,95680,1,0,0:0:0:0:
160,64,95735,1,8,0:0:0:0:
176,128,95791,1,8,0:0:0:0:
256,160,95846,1,0,0:0:0:0:
400,224,96180,1,8,0:0:0:0:
400,224,96263,1,8,0:0:0:0:
416,96,96347,1,8,0:0:0:0:
416,96,96513,1,0,0:0:0:0:
256,144,96596,1,8,0:0:0:0:
416,96,96680,1,8,0:0:0:0:
240,64,96763,1,8,0:0:0:0:
416,96,96847,1,0,0:0:0:0:
416,96,96930,1,0,0:0:0:0:
240,64,97013,1,8,0:0:0:0:
350,273,97346,5,4,0:0:0:0:
256,192,97680,1,2,0:0:0:0:
256,192,97930,1,2,0:0:0:0:
256,192,98013,1,0,0:0:0:0:
256,192,98180,1,0,0:0:0:0:
256,192,98346,1,2,0:0:0:0:
256,192,98513,1,2,0:0:0:0:
256,192,98596,1,2,0:0:0:0:
256,192,98680,1,0,0:0:0:0:
256,192,98846,1,0,0:0:0:0:
256,192,99013,1,2,0:0:0:0:
256,192,99180,1,0,0:0:0:0:
256,192,99263,1,2,0:0:0:0:
256,192,99346,1,0,0:0:0:0:
256,192,99513,1,2,0:0:0:0:
256,192,99596,1,2,0:0:0:0:
256,192,99680,1,0,0:0:0:0:
256,192,99846,1,2,0:0:0:0:
256,192,100013,1,0,0:0:0:0:
256,192,100180,1,0,0:0:0:0:
256,192,100263,1,0,0:0:0:0:
256,192,100346,1,2,0:0:0:0:
256,192,100513,1,0,0:0:0:0:
256,192,100680,1,2,0:0:0:0:
256,192,100763,1,2,0:0:0:0:
256,192,100846,1,0,0:0:0:0:
256,176,100930,1,0,0:0:0:0:
256,192,101013,1,2,0:0:0:0:
256,192,101180,1,0,0:0:0:0:
256,176,101263,1,2,0:0:0:0:
256,192,101346,1,0,0:0:0:0:
256,192,101513,1,0,0:0:0:0:
256,192,101680,1,2,0:0:0:0:
256,192,101846,1,0,0:0:0:0:
256,192,101930,1,0,0:0:0:0:
256,192,102013,1,2,0:0:0:0:
256,192,102180,1,0,0:0:0:0:
256,192,102235,1,2,0:0:0:0:
256,192,102291,1,2,0:0:0:0:
256,192,102346,1,0,0:0:0:0:
256,192,102513,1,2,0:0:0:0:
256,192,102680,1,0,0:0:0:0:
256,176,103013,1,2,0:0:0:0:
256,176,103180,1,0,0:0:0:0:
256,176,103263,1,2,0:0:0:0:
256,176,103346,1,0,0:0:0:0:
256,176,103513,1,0,0:0:0:0:
256,176,103680,1,2,0:0:0:0:
256,176,103846,1,2,0:0:0:0:
256,176,103930,1,2,0:0:0:0:
256,176,104013,1,0,0:0:0:0:
256,176,104180,1,2,0:0:0:0:
256,176,104346,1,0,0:0:0:0:
256,176,104430,1,2,0:0:0:0:
256,176,104596,1,2,0:0:0:0:
256,176,104680,1,0,0:0:0:0:
256,176,104846,1,2,0:0:0:0:
256,176,105013,1,0,0:0:0:0:
256,176,105096,1,0,0:0:0:0:
256,176,105180,1,2,0:0:0:0:
256,176,105263,1,2,0:0:0:0:
256,176,105346,1,0,0:0:0:0:
256,176,105513,1,0,0:0:0:0:
256,176,105596,1,2,0:0:0:0:
256,176,105680,1,0,0:0:0:0:
256,176,105846,1,2,0:0:0:0:
256,176,106013,1,0,0:0:0:0:
256,176,106096,1,2,0:0:0:0:
256,176,106180,1,2,0:0:0:0:
256,176,106346,1,0,0:0:0:0:
256,176,106513,1,2,0:0:0:0:
256,176,106680,1,0,0:0:0:0:
256,176,106846,1,2,0:0:0:0:
256,176,106930,1,2,0:0:0:0:
256,176,107013,1,0,0:0:0:0:
256,176,107180,1,0,0:0:0:0:
272,192,107263,1,2,0:0:0:0:
256,176,107346,1,0,0:0:0:0:
256,176,107513,1,2,0:0:0:0:
256,176,107569,1,2,0:0:0:0:
256,176,107624,1,2,0:0:0:0:
256,176,107680,1,0,0:0:0:0:
256,176,107846,1,2,0:0:0:0:
256,176,108013,1,4,0:0:0:0:
256,192,108346,1,2,0:0:0:0:
256,192,108596,1,2,0:0:0:0:
256,192,108679,1,0,0:0:0:0:
256,192,108846,1,0,0:0:0:0:
256,192,109013,1,2,0:0:0:0:
256,192,109180,1,2,0:0:0:0:
256,192,109263,1,2,0:0:0:0:
256,192,109347,1,0,0:0:0:0:
256,192,109431,1,2,0:0:0:0:
256,192,109513,1,0,0:0:0:0:
256,192,109679,1,0,0:0:0:0:
256,192,109764,1,2,0:0:0:0:
256,192,109930,1,2,0:0:0:0:
256,192,110013,1,0,0:0:0:0:
256,176,110180,1,0,0:0:0:0:
256,192,110346,1,2,0:0:0:0:
256,192,110513,1,0,0:0:0:0:
256,192,110596,1,2,0:0:0:0:
256,192,110679,1,0,0:0:0:0:
256,192,110846,1,0,0:0:0:0:
256,192,110929,1,0,0:0:0:0:
256,192,111012,1,2,0:0:0:0:
256,192,111179,1,0,0:0:0:0:
256,192,111346,1,2,0:0:0:0:
256,192,111429,1,2,0:0:0:0:
256,192,111512,1,0,0:0:0:0:
256,176,111596,1,0,0:0:0:0:
256,192,111679,1,2,0:0:0:0:
256,192,111846,1,0,0:0:0:0:
256,176,111929,1,2,0:0:0:0:
256,192,112012,1,2,0:0:0:0:
256,192,112179,1,0,0:0:0:0:
256,192,112346,1,2,0:0:0:0:
256,208,112430,1,0,0:0:0:0:
256,192,112513,1,2,0:0:0:0:
256,192,112596,1,2,0:0:0:0:
256,192,112680,1,0,0:0:0:0:
256,192,112846,1,0,0:0:0:0:
256,192,112901,1,2,0:0:0:0:
256,192,112957,1,2,0:0:0:0:
256,192,113012,1,0,0:0:0:0:
256,192,113179,1,2,0:0:0:0:
256,192,113346,1,0,0:0:0:0:
256,192,113513,1,2,0:0:0:0:
256,192,113596,1,0,0:0:0:0:
256,192,113680,1,0,0:0:0:0:
256,192,113763,1,0,0:0:0:0:
256,192,113846,1,2,0:0:0:0:
256,192,113930,1,2,0:0:0:0:
256,192,114013,1,0,0:0:0:0:
256,192,114096,1,2,0:0:0:0:
256,192,114180,1,0,0:0:0:0:
256,192,114263,1,0,0:0:0:0:
256,192,114346,1,2,0:0:0:0:
256,192,114430,1,2,0:0:0:0:
256,192,114513,1,0,0:0:0:0:
256,192,114596,1,2,0:0:0:0:
256,192,114680,1,0,0:0:0:0:
256,192,114846,1,2,0:0:0:0:
256,192,114930,1,2,0:0:0:0:
256,192,115013,1,0,0:0:0:0:
256,192,115096,1,2,0:0:0:0:
256,192,115180,1,2,0:0:0:0:
256,192,115263,1,2,0:0:0:0:
256,192,115346,1,0,0:0:0:0:
256,192,115430,1,0,0:0:0:0:
256,192,115513,1,2,0:0:0:0:
256,192,115596,1,2,0:0:0:0:
256,192,115680,1,0,0:0:0:0:
256,192,115763,1,0,0:0:0:0:
256,192,115846,1,2,0:0:0:0:
256,176,115902,1,2,0:0:0:0:
184,130,115958,1,2,0:0:0:0:
256,176,116013,1,0,0:0:0:0:
256,192,116346,1,2,0:0:0:0:
256,192,116513,1,0,0:0:0:0:
256,192,116680,1,4,0:0:0:0:
256,192,117013,1,2,0:0:0:0:
256,192,117180,1,4,0:0:0:0:
256,192,117513,1,4,0:0:0:0:
256,192,117846,1,4,0:0:0:0:
256,192,118013,1,2,0:0:0:0:
256,192,118096,1,2,0:0:0:0:
256,192,118180,1,0,0:0:0:0:
256,192,118263,1,0,0:0:0:0:
256,192,118346,1,2,0:0:0:0:
256,192,118680,1,4,0:0:0:0:
256,192,119013,1,2,0:0:0:0:
256,192,119346,1,2,0:0:0:0:
256,192,119680,1,2,0:0:0:0:
256,192,119846,1,0,0:0:0:0:
256,192,120013,1,2,0:0:0:0:
256,192,120346,1,2,0:0:0:0:
256,192,120680,1,2,0:0:0:0:
256,192,121013,1,2,0:0:0:0:
256,192,121180,1,2,0:0:0:0:
256,192,121346,1,0,0:0:0:0:
256,192,121430,1,2,0:0:0:0:
256,192,121513,1,0,0:0:0:0:
256,192,121596,1,0,0:0:0:0:
256,192,121680,1,2,0:0:0:0:
256,192,121763,1,0,0:0:0:0:
256,192,121846,1,2,0:0:0:0:
256,192,121930,1,2,0:0:0:0:
256,192,122013,1,0,0:0:0:0:
256,192,122096,1,2,0:0:0:0:
256,192,122180,1,2,0:0:0:0:
256,192,122263,1,2,0:0:0:0:
256,192,122346,1,0,0:0:0:0:
256,192,122402,1,0,0:0:0:0:
256,192,122458,1,0,0:0:0:0:
256,192,122513,1,2,0:0:0:0:
256,192,122569,1,2,0:0:0:0:
256,192,122624,1,2,0:0:0:0:
256,192,122680,1,0,0:0:0:0:
256,192,123013,1,2,0:0:0:0:
256,192,123180,1,4,0:0:0:0:
256,192,123513,1,0,0:0:0:0:
256,192,123596,1,0,0:0:0:0:
256,192,123680,1,2,0:0:0:0:
256,192,124013,1,4,0:0:0:0:
256,192,124346,1,2,0:0:0:0:
256,192,124513,1,0,0:0:0:0:
256,192,124596,1,0,0:0:0:0:
256,192,124680,1,2,0:0:0:0:
256,192,125013,1,2,0:0:0:0:
256,192,125180,1,0,0:0:0:0:
256,192,125263,1,0,0:0:0:0:
256,192,125346,1,0,0:0:0:0:
256,192,125513,1,2,0:0:0:0:
256,192,125680,1,0,0:0:0:0:
256,192,126013,1,2,0:0:0:0:
256,192,126180,1,0,0:0:0:0:
256,192,126346,1,2,0:0:0:0:
256,192,126513,1,0,0:0:0:0:
256,192,126596,1,0,0:0:0:0:
256,192,126680,1,0,0:0:0:0:
256,192,126846,1,0,0:0:0:0:
256,192,127013,1,2,0:0:0:0:
256,192,127180,1,0,0:0:0:0:
256,192,127263,1,0,0:0:0:0:
256,192,127346,1,2,0:0:0:0:
256,192,127513,1,0,0:0:0:0:
256,192,127596,1,0,0:0:0:0:
256,192,127680,1,0,0:0:0:0:
256,192,127846,1,6,0:0:0:0:
256,192,128346,1,0,0:0:0:0:
256,192,128430,1,0,0:0:0:0:
256,192,128513,1,2,0:0:0:0:
256,192,128596,1,2,0:0:0:0:
256,192,128680,1,0,0:0:0:0:
256,192,128763,1,2,0:0:0:0:
256,192,128846,1,0,0:0:0:0:
256,192,128930,1,0,0:0:0:0:
256,192,129013,1,2,0:0:0:0:
256,192,129346,1,4,0:0:0:0:
256,192,129680,1,0,0:0:0:0:
256,192,129846,1,2,0:0:0:0:
256,192,130013,1,0,0:0:0:0:
256,192,130096,1,2,0:0:0:0:
256,192,130180,1,2,0:0:0:0:
256,192,130346,1,0,0:0:0:0:
256,192,130513,1,2,0:0:0:0:
256,192,130596,1,2,0:0:0:0:
256,192,130680,1,0,0:0:0:0:
256,192,130846,1,2,0:0:0:0:
256,192,131013,1,0,0:0:0:0:
256,192,131096,1,2,0:0:0:0:
256,192,131263,1,2,0:0:0:0:
256,192,131346,1,0,0:0:0:0:
256,192,131513,1,2,0:0:0:0:
256,192,131680,1,0,0:0:0:0:
256,192,131846,1,2,0:0:0:0:
256,192,131930,1,2,0:0:0:0:
256,192,132013,1,0,0:0:0:0:
256,192,132263,1,2,0:0:0:0:
256,192,132346,1,0,0:0:0:0:
256,192,132513,1,2,0:0:0:0:
256,192,132680,1,0,0:0:0:0:
256,192,132763,1,0,0:0:0:0:
256,192,132846,1,2,0:0:0:0:
256,192,133013,1,0,0:0:0:0:
256,192,133180,1,2,0:0:0:0:
256,192,133263,1,2,0:0:0:0:
256,192,133346,1,0,0:0:0:0:
256,192,133513,1,2,0:0:0:0:
256,192,133596,1,0,0:0:0:0:
256,192,133680,1,2,0:0:0:0:
256,192,133846,1,0,0:0:0:0:
256,192,134013,1,2,0:0:0:0:
256,192,134096,1,2,0:0:0:0:
256,192,134180,1,0,0:0:0:0:
256,192,134263,1,2,0:0:0:0:
256,192,134346,1,2,0:0:0:0:
256,192,134513,1,0,0:0:0:0:
256,192,134596,1,2,0:0:0:0:
256,192,134680,1,0,0:0:0:0:
256,208,135013,1,0,0:0:0:0:
256,208,135180,1,2,0:0:0:0:
256,208,135263,1,2,0:0:0:0:
256,208,135346,1,0,0:0:0:0:
256,208,135430,1,0,0:0:0:0:
256,208,135513,1,2,0:0:0:0:
256,208,135680,1,0,0:0:0:0:
256,208,135846,1,0,0:0:0:0:
256,208,135930,1,2,0:0:0:0:
256,208,136013,1,0,0:0:0:0:
272,208,136180,1,2,0:0:0:0:
272,208,136346,1,0,0:0:0:0:
272,208,136430,1,2,0:0:0:0:
272,208,136596,1,2,0:0:0:0:
272,208,136680,1,0,0:0:0:0:
272,208,136846,1,2,0:0:0:0:
272,208,136930,1,2,0:0:0:0:
272,192,137013,1,0,0:0:0:0:
272,192,137180,1,2,0:0:0:0:
256,192,137346,1,0,0:0:0:0:
256,192,137430,1,0,0:0:0:0:
256,192,137513,1,2,0:0:0:0:
256,192,137596,1,2,0:0:0:0:
256,192,137680,1,0,0:0:0:0:
256,192,137763,1,2,0:0:0:0:
256,192,137846,1,2,0:0:0:0:
256,192,137930,1,2,0:0:0:0:
256,208,138013,1,0,0:0:0:0:
256,208,138096,1,2,0:0:0:0:
256,208,138180,1,0,0:0:0:0:
256,208,138263,1,0,0:0:0:0:
256,192,138346,1,2,0:0:0:0:
256,192,138402,1,2,0:0:0:0:
256,192,138458,1,2,0:0:0:0:
256,192,138513,1,0,0:0:0:0:
256,192,138846,1,4,0:0:0:0:
256,192,139180,1,4,0:0:0:0:
256,192,139513,1,0,0:0:0:0:
256,192,139596,1,0,0:0:0:0:
256,192,139680,1,2,0:0:0:0:
256,192,140013,1,4,0:0:0:0:
256,192,140513,1,0,0:0:0:0:
256,192,140596,1,0,0:0:0:0:
256,192,140680,1,2,0:0:0:0:
256,192,141013,1,2,0:0:0:0:
256,192,141180,1,0,0:0:0:0:
256,192,141263,1,0,0:0:0:0:
256,192,141346,1,0,0:0:0:0:
256,192,141513,1,2,0:0:0:0:
256,192,141569,1,2,0:0:0:0:
256,192,141624,1,2,0:0:0:0:
256,192,141680,1,0,0:0:0:0:
256,192,141846,1,0,0:0:0:0:
256,192,142013,1,2,0:0:0:0:
256,192,142346,1,2,0:0:0:0:
256,192,142513,1,0,0:0:0:0:
256,192,142596,1,0,0:0:0:0:
256,192,142680,1,0,0:0:0:0:
256,192,142846,1,0,0:0:0:0:
256,192,143013,1,2,0:0:0:0:
256,192,143180,1,0,0:0:0:0:
256,192,143263,1,0,0:0:0:0:
256,192,143346,1,2,0:0:0:0:
256,192,143680,1,2,0:0:0:0:
256,192,143846,1,0,0:0:0:0:
256,192,143930,1,0,0:0:0:0:
256,192,144013,1,0,0:0:0:0:
256,192,144180,1,2,0:0:0:0:
256,192,144235,1,2,0:0:0:0:
256,192,144291,1,2,0:0:0:0:
256,192,144346,1,0,0:0:0:0:
256,192,144513,1,0,0:0:0:0:
256,192,144680,1,2,0:0:0:0:
256,192,145013,1,2,0:0:0:0:
256,192,145180,1,0,0:0:0:0:
256,192,145263,1,0,0:0:0:0:
256,192,145346,1,0,0:0:0:0:
256,192,145680,1,0,0:0:0:0:
256,192,145846,1,2,0:0:0:0:
256,192,146013,1,0,0:0:0:0:
256,192,146263,1,2,0:0:0:0:
256,192,146346,1,0,0:0:0:0:
256,192,146513,1,2,0:0:0:0:
256,192,146680,1,0,0:0:0:0:
256,192,146846,1,2,0:0:0:0:
256,192,146930,1,2,0:0:0:0:
256,192,147013,1,0,0:0:0:0:
256,192,147180,1,2,0:0:0:0:
256,192,147346,1,0,0:0:0:0:
256,192,147430,1,2,0:0:0:0:
256,192,147596,1,2,0:0:0:0:
256,192,147680,1,0,0:0:0:0:
256,192,147846,1,2,0:0:0:0:
256,192,148013,1,0,0:0:0:0:
256,192,148096,1,2,0:0:0:0:
256,192,148180,1,2,0:0:0:0:
256,192,148346,1,0,0:0:0:0:
256,192,148513,1,2,0:0:0:0:
256,192,148596,1,2,0:0:0:0:
256,192,148680,1,0,0:0:0:0:
256,192,148763,1,2,0:0:0:0:
256,192,148846,1,2,0:0:0:0:
256,192,149013,1,0,0:0:0:0:
256,192,149180,1,6,0:0:0:0:
256,176,149513,1,2,0:0:0:0:
256,176,149596,1,0,0:0:0:0:
256,176,149763,1,2,0:0:0:0:
256,176,149846,1,0,0:0:0:0:
419,202,149930,1,0,0:0:0:0:
256,176,150013,1,2,0:0:0:0:
256,176,150096,1,2,0:0:0:0:
256,176,150180,1,0,0:0:0:0:
256,176,150263,1,0,0:0:0:0:
256,176,150346,1,2,0:0:0:0:
256,176,150680,1,4,0:0:0:0:
256,176,150930,1,2,0:0:0:0:
256,176,151013,1,0,0:0:0:0:
256,176,151180,1,2,0:0:0:0:
256,176,151346,1,0,0:0:0:0:
256,176,151430,1,0,0:0:0:0:
256,176,151513,1,2,0:0:0:0:
256,176,151680,1,0,0:0:0:0:
256,176,151846,1,2,0:0:0:0:
256,192,151930,1,2,0:0:0:0:
256,192,152013,1,0,0:0:0:0:
256,192,152180,1,2,0:0:0:0:
256,192,152347,1,0,0:0:0:0:
256,192,152430,1,2,0:0:0:0:
256,192,152597,1,2,0:0:0:0:
256,192,152680,1,0,0:0:0:0:
256,192,152763,1,0,0:0:0:0:
256,192,152846,1,2,0:0:0:0:
256,192,153013,1,0,0:0:0:0:
256,192,153180,1,2,0:0:0:0:
256,192,153263,1,2,0:0:0:0:
256,192,153346,1,0,0:0:0:0:
256,192,153513,1,0,0:0:0:0:
256,192,153596,1,2,0:0:0:0:
256,192,153680,1,0,0:0:0:0:
256,192,153846,1,2,0:0:0:0:
256,192,154013,1,0,0:0:0:0:
256,192,154096,1,0,0:0:0:0:
256,192,154180,1,2,0:0:0:0:
256,192,154346,1,0,0:0:0:0:
256,192,154513,1,0,0:0:0:0:
256,192,154596,1,2,0:0:0:0:
256,192,154763,1,2,0:0:0:0:
256,176,154846,1,0,0:0:0:0:
256,192,155013,1,0,0:0:0:0:
256,192,155069,1,2,0:0:0:0:
256,192,155124,1,2,0:0:0:0:
256,192,155180,1,0,0:0:0:0:
256,176,155346,1,2,0:0:0:0:
256,176,155430,1,2,0:0:0:0:
256,176,155513,1,0,0:0:0:0:
256,192,155596,1,0,0:0:0:0:
256,192,155680,1,2,0:0:0:0:
256,192,155846,1,2,0:0:0:0:
256,192,155930,1,2,0:0:0:0:
256,192,156013,1,0,0:0:0:0:
256,192,156180,1,0,0:0:0:0:
256,192,156263,1,2,0:0:0:0:
256,192,156346,1,0,0:0:0:0:
256,192,156513,1,2,0:0:0:0:
256,192,156680,1,0,0:0:0:0:
256,192,156763,1,2,0:0:0:0:
256,192,156846,1,0,0:0:0:0:
256,192,156930,1,0,0:0:0:0:
256,192,157013,1,2,0:0:0:0:
256,192,157180,1,0,0:0:0:0:
256,192,157263,1,2,0:0:0:0:
256,192,157430,1,2,0:0:0:0:
256,192,157513,1,0,0:0:0:0:
256,192,157680,1,2,0:0:0:0:
256,192,157846,1,0,0:0:0:0:
256,192,157930,1,0,0:0:0:0:
256,192,158013,1,2,0:0:0:0:
256,192,158180,1,2,0:0:0:0:
256,192,158263,1,2,0:0:0:0:
256,192,158346,1,0,0:0:0:0:
256,192,158513,1,2,0:0:0:0:
256,192,158680,1,0,0:0:0:0:
256,192,158763,1,2,0:0:0:0:
256,192,158846,1,0,0:0:0:0:
256,192,158930,1,0,0:0:0:0:
256,192,159013,1,2,0:0:0:0:
256,192,159096,1,0,0:0:0:0:
256,192,159180,1,2,0:0:0:0:
256,192,159263,1,2,0:0:0:0:
256,192,159346,1,0,0:0:0:0:
256,192,159430,1,2,0:0:0:0:
256,192,159513,1,2,0:0:0:0:
256,192,159596,1,2,0:0:0:0:
256,192,159680,1,0,0:0:0:0:
256,192,159763,1,0,0:0:0:0:
256,192,159846,1,2,0:0:0:0:
256,192,159902,1,2,0:0:0:0:
256,192,159958,1,2,0:0:0:0:
256,192,160013,1,0,0:0:0:0:
256,192,160346,1,2,0:0:0:0:
256,192,160513,1,0,0:0:0:0:
256,192,160680,1,2,0:0:0:0:
256,192,160763,1,2,0:0:0:0:
256,192,160846,1,0,0:0:0:0:
256,192,161013,1,6,0:0:0:0:
256,176,161346,1,4,0:0:0:0:
256,176,161596,1,2,0:0:0:0:
256,176,161679,1,0,0:0:0:0:
256,176,161846,1,2,0:0:0:0:
256,176,162012,1,0,0:0:0:0:
256,176,162096,1,2,0:0:0:0:
256,176,162179,1,2,0:0:0:0:
256,176,162346,1,0,0:0:0:0:
256,176,162512,1,2,0:0:0:0:
256,192,162596,1,2,0:0:0:0:
256,192,162679,1,0,0:0:0:0:
256,192,162763,1,0,0:0:0:0:
256,192,162846,1,2,0:0:0:0:
256,192,163013,1,0,0:0:0:0:
256,192,163096,1,2,0:0:0:0:
256,192,163263,1,2,0:0:0:0:
256,192,163346,1,0,0:0:0:0:
256,192,163429,1,0,0:0:0:0:
256,192,163512,1,2,0:0:0:0:
256,192,163679,1,0,0:0:0:0:
256,192,163846,1,2,0:0:0:0:
256,192,163929,1,2,0:0:0:0:
256,192,164012,1,0,0:0:0:0:
256,192,164179,1,0,0:0:0:0:
256,192,164262,1,2,0:0:0:0:
256,192,164346,1,0,0:0:0:0:
256,192,164512,1,2,0:0:0:0:
256,192,164679,1,0,0:0:0:0:
256,192,164763,1,2,0:0:0:0:
256,192,164846,1,2,0:0:0:0:
256,192,165012,1,0,0:0:0:0:
256,192,165179,1,0,0:0:0:0:
256,192,165262,1,2,0:0:0:0:
256,192,165429,1,2,0:0:0:0:
256,176,165512,1,0,0:0:0:0:
256,192,165680,1,0,0:0:0:0:
256,192,165735,1,2,0:0:0:0:
256,192,165790,1,2,0:0:0:0:
256,192,165846,1,0,0:0:0:0:
256,176,165930,1,0,0:0:0:0:
256,176,166012,1,2,0:0:0:0:
256,192,166180,1,2,0:0:0:0:
256,192,166263,1,2,0:0:0:0:
256,192,166346,1,0,0:0:0:0:
256,192,166513,1,2,0:0:0:0:
256,192,166680,1,0,0:0:0:0:
256,192,166763,1,2,0:0:0:0:
256,192,166846,1,2,0:0:0:0:
256,192,166930,1,2,0:0:0:0:
256,192,167013,1,0,0:0:0:0:
256,192,167180,1,0,0:0:0:0:
256,192,167263,1,2,0:0:0:0:
256,192,167346,1,0,0:0:0:0:
256,192,167513,1,2,0:0:0:0:
256,192,167680,1,0,0:0:0:0:
256,192,167763,1,0,0:0:0:0:
256,192,167846,1,2,0:0:0:0:
256,192,167930,1,2,0:0:0:0:
256,192,168013,1,0,0:0:0:0:
256,192,168180,1,2,0:0:0:0:
256,192,168263,1,0,0:0:0:0:
256,192,168346,1,2,0:0:0:0:
256,192,168513,1,0,0:0:0:0:
256,192,168596,1,0,0:0:0:0:
256,192,168680,1,2,0:0:0:0:
256,192,168763,1,0,0:0:0:0:
256,192,168846,1,2,0:0:0:0:
256,192,168930,1,2,0:0:0:0:
256,192,169013,1,0,0:0:0:0:
256,192,169180,1,2,0:0:0:0:
256,192,169346,1,0,0:0:0:0:
256,192,169430,1,2,0:0:0:0:
256,192,169513,1,2,0:0:0:0:
256,192,169596,1,2,0:0:0:0:
256,192,169680,1,0,0:0:0:0:
256,192,169763,1,2,0:0:0:0:
256,192,169846,1,0,0:0:0:0:
256,192,169930,1,0,0:0:0:0:
256,192,170013,1,2,0:0:0:0:
256,192,170096,1,0,0:0:0:0:
256,192,170180,1,2,0:0:0:0:
256,192,170263,1,2,0:0:0:0:
256,192,170346,1,0,0:0:0:0:
256,192,170402,1,2,0:0:0:0:
256,192,170458,1,2,0:0:0:0:
256,192,170513,1,0,0:0:0:0:
256,192,170846,1,2,0:0:0:0:
256,192,170930,1,2,0:0:0:0:
256,192,171013,1,2,0:0:0:0:
256,192,171180,1,0,0:0:0:0:
256,192,171263,1,2,0:0:0:0:
256,192,171346,1,2,0:0:0:0:
256,192,171430,1,2,0:0:0:0:
256,192,171513,1,0,0:0:0:0:
256,192,171596,1,0,0:0:0:0:
256,192,171680,1,2,0:0:0:0:
256,192,172013,1,6,0:0:0:0:
256,192,173346,1,2,0:0:0:0:
256,192,174680,1,2,0:0:0:0:
256,192,176013,1,2,0:0:0:0:
256,192,177346,1,2,0:0:0:0:
256,192,178680,1,2,0:0:0:0:
256,192,180013,1,2,0:0:0:0:
256,192,181346,1,2,0:0:0:0:
256,192,182346,1,2,0:0:0:0:
256,192,182513,1,2,0:0:0:0:
256,192,182596,1,2,0:0:0:0:
256,192,182680,1,0,0:0:0:0:
256,192,183180,1,0,0:0:0:0:
256,192,183680,1,0,0:0:0:0:
256,192,184013,1,2,0:0:0:0:
256,192,184513,1,0,0:0:0:0:
256,192,185013,1,0,0:0:0:0:
256,192,185346,1,2,0:0:0:0:
256,192,185846,1,0,0:0:0:0:
256,192,186013,1,2,0:0:0:0:
256,192,186346,1,0,0:0:0:0:
256,192,186680,1,2,0:0:0:0:
256,192,187180,1,0,0:0:0:0:
256,192,187346,1,2,0:0:0:0:
256,192,187680,1,0,0:0:0:0:
256,192,188013,1,4,0:0:0:0:
256,192,188680,1,2,0:0:0:0:
256,192,189346,1,4,0:0:0:0:
256,192,189680,1,0,0:0:0:0:
256,192,190013,1,2,0:0:0:0:
256,192,190680,1,4,0:0:0:0:
256,192,191013,1,2,0:0:0:0:
256,192,191346,1,4,0:0:0:0:
256,192,191680,1,2,0:0:0:0:
256,192,191846,1,2,0:0:0:0:
256,192,192013,1,0,0:0:0:0:
256,192,192180,1,0,0:0:0:0:
256,192,192346,1,0,0:0:0:0:
256,192,192513,1,0,0:0:0:0:
256,192,192680,1,2,0:0:0:0:
256,192,192763,1,2,0:0:0:0:
256,192,192846,1,0,0:0:0:0:
256,192,192902,1,0,0:0:0:0:
256,192,192958,1,0,0:0:0:0:
256,192,193013,1,2,0:0:0:0:
368,128,193346,5,4,0:0:0:0:
352,176,193680,1,8,0:0:0:0:
352,176,193846,1,0,0:0:0:0:
352,176,194180,1,0,0:0:0:0:
352,176,194346,1,8,0:0:0:0:
352,176,194513,1,8,0:0:0:0:
352,176,194680,1,0,0:0:0:0:
352,176,195013,1,8,0:0:0:0:
284,209,195180,1,8,0:0:0:0:
284,209,195263,1,8,0:0:0:0:
284,209,195346,1,8,0:0:0:0:
352,176,195513,1,0,0:0:0:0:
352,176,195679,1,8,0:0:0:0:
352,176,195846,1,8,0:0:0:0:
288,160,196013,1,0,0:0:0:0:
288,160,196346,1,8,0:0:0:0:
288,160,196513,1,8,0:0:0:0:
272,144,196846,1,0,0:0:0:0:
272,144,197013,1,8,0:0:0:0:
272,144,197180,1,8,0:0:0:0:
272,144,197346,1,0,0:0:0:0:
307,223,197513,1,0,0:0:0:0:
307,223,197596,1,0,0:0:0:0:
272,128,197680,1,8,0:0:0:0:
272,128,197846,1,0,0:0:0:0:
255,216,198013,1,8,0:0:0:0:
255,216,198096,1,8,0:0:0:0:
272,128,198180,1,0,0:0:0:0:
272,128,198346,1,8,0:0:0:0:
255,216,198513,1,8,0:0:0:0:
320,192,198680,1,0,0:0:0:0:
320,192,199013,1,8,0:0:0:0:
320,192,199346,1,8,0:0:0:0:
320,192,199513,1,0,0:0:0:0:
320,176,199680,1,8,0:0:0:0:
325,169,199930,1,8,0:0:0:0:
320,176,200013,1,0,0:0:0:0:
325,168,200180,1,0,0:0:0:0:
320,176,200346,1,8,0:0:0:0:
320,176,200513,1,0,0:0:0:0:
352,144,200596,1,8,0:0:0:0:
352,144,200680,1,8,0:0:0:0:
352,144,200846,1,0,0:0:0:0:
352,144,201013,1,8,0:0:0:0:
262,211,201180,1,8,0:0:0:0:
208,160,201346,1,4,0:0:0:0:
208,160,201680,1,8,0:0:0:0:
224,128,202013,1,12,0:0:0:0:
208,160,202180,1,0,0:0:0:0:
208,160,202346,1,8,0:0:0:0:
256,144,202513,1,4,0:0:0:0:
256,128,202846,1,0,0:0:0:0:
256,128,203013,1,8,0:0:0:0:
352,240,203180,1,0,0:0:0:0:
352,224,203346,1,8,0:0:0:0:
352,224,203430,1,8,0:0:0:0:
352,224,203513,1,0,0:0:0:0:
352,224,203680,1,8,0:0:0:0:
352,224,203846,1,8,0:0:0:0:
368,128,204013,1,4,0:0:0:0:
352,176,204347,1,8,0:0:0:0:
352,176,204513,1,0,0:0:0:0:
222,127,204596,1,0,0:0:0:0:
222,127,204680,1,8,0:0:0:0:
352,176,204847,1,0,0:0:0:0:
352,176,205013,1,8,0:0:0:0:
352,176,205180,1,8,0:0:0:0:
352,176,205347,1,0,0:0:0:0:
222,127,205596,1,0,0:0:0:0:
352,176,205680,1,8,0:0:0:0:
352,176,205847,1,0,0:0:0:0:
222,127,206013,1,8,0:0:0:0:
222,127,206096,1,8,0:0:0:0:
352,176,206180,1,0,0:0:0:0:
222,127,206346,1,8,0:0:0:0:
352,176,206513,1,8,0:0:0:0:
288,160,206680,1,0,0:0:0:0:
288,160,207013,1,8,0:0:0:0:
222,127,207180,1,8,0:0:0:0:
222,127,207263,1,8,0:0:0:0:
222,127,207346,1,8,0:0:0:0:
272,144,207513,1,0,0:0:0:0:
272,144,207680,1,8,0:0:0:0:
272,144,207847,1,8,0:0:0:0:
272,144,208013,1,0,0:0:0:0:
222,127,208180,1,0,0:0:0:0:
222,127,208263,1,0,0:0:0:0:
272,128,208347,1,8,0:0:0:0:
272,128,208513,1,0,0:0:0:0:
272,128,208847,1,0,0:0:0:0:
272,128,209013,1,8,0:0:0:0:
320,144,209180,1,8,0:0:0:0:
238,152,209263,1,8,0:0:0:0:
320,192,209347,1,0,0:0:0:0:
224,192,209680,1,8,0:0:0:0:
224,192,209930,1,8,0:0:0:0:
224,192,210013,1,0,0:0:0:0:
224,192,210180,1,0,0:0:0:0:
224,192,210346,1,8,0:0:0:0:
267,150,210596,1,8,0:0:0:0:
224,192,210680,1,0,0:0:0:0:
288,144,210846,1,0,0:0:0:0:
288,144,211013,1,8,0:0:0:0:
224,144,211180,1,0,0:0:0:0:
224,144,211263,1,0,0:0:0:0:
224,144,211346,1,8,0:0:0:0:
224,144,211513,1,0,0:0:0:0:
224,144,211680,1,8,0:0:0:0:
267,149,211930,1,8,0:0:0:0:
272,160,212013,1,0,0:0:0:0:
272,160,212180,1,0,0:0:0:0:
272,160,212346,1,8,0:0:0:0:
272,160,212513,1,8,0:0:0:0:
320,224,212680,1,0,0:0:0:0:
320,224,212763,1,0,0:0:0:0:
320,224,212846,1,8,0:0:0:0:
320,224,212930,1,8,0:0:0:0:
320,224,213013,1,0,0:0:0:0:
320,224,213096,1,8,0:0:0:0:
320,224,213180,1,8,0:0:0:0:
320,224,213263,1,8,0:0:0:0:
256,96,213346,1,0,0:0:0:0:
256,96,213430,1,0,0:0:0:0:
256,96,213513,1,0,0:0:0:0:
256,96,213596,1,0,0:0:0:0:
256,96,213680,1,8,0:0:0:0:
256,96,213763,1,8,0:0:0:0:
256,96,213846,1,8,0:0:0:0:
256,96,213930,1,8,0:0:0:0:
176,128,214013,1,0,0:0:0:0:
176,128,214096,1,8,0:0:0:0:
336,192,214180,1,0,0:0:0:0:
336,192,214235,1,0,0:0:0:0:
336,192,214291,1,0,0:0:0:0:
336,192,214346,1,8,0:0:0:0:
336,192,214680,1,4,0:0:0:0:
336,192,215013,1,2,0:0:0:0:
336,192,215180,1,0,0:0:0:0:
336,192,215263,1,0,0:0:0:0:
336,192,215346,1,2,0:0:0:0:
336,192,215513,1,2,0:0:0:0:
336,192,215846,1,0,0:0:0:0:
336,192,215930,1,0,0:0:0:0:
336,192,216013,1,0,0:0:0:0:
336,192,216180,1,2,0:0:0:0:
336,192,216235,1,2,0:0:0:0:
336,192,216291,1,2,0:0:0:0:
336,192,216346,1,0,0:0:0:0:
336,192,216513,1,0,0:0:0:0:
336,192,216680,1,2,0:0:0:0:
336,192,217013,1,2,0:0:0:0:
336,192,217180,1,0,0:0:0:0:
336,192,217263,1,0,0:0:0:0:
336,192,217346,1,0,0:0:0:0:
336,192,217513,1,2,0:0:0:0:
336,192,217680,1,2,0:0:0:0:
336,192,217846,1,0,0:0:0:0:
336,192,217930,1,0,0:0:0:0:
336,192,218013,1,2,0:0:0:0:
336,192,218180,1,2,0:0:0:0:
336,192,218513,1,0,0:0:0:0:
336,192,218596,1,0,0:0:0:0:
336,192,218680,1,0,0:0:0:0:
336,192,218846,1,2,0:0:0:0:
336,192,218902,1,2,0:0:0:0:
336,192,218958,1,2,0:0:0:0:
336,192,219013,1,0,0:0:0:0:
336,192,219180,1,0,0:0:0:0:
336,192,219346,1,2,0:0:0:0:
336,192,219680,1,2,0:0:0:0:
336,192,219846,1,0,0:0:0:0:
336,192,219930,1,0,0:0:0:0:
336,192,220013,1,0,0:0:0:0:
336,192,220346,1,0,0:0:0:0:
336,192,220513,1,2,0:0:0:0:
336,192,220680,1,0,0:0:0:0:
336,192,220930,1,2,0:0:0:0:
336,192,221013,1,0,0:0:0:0:
336,192,221180,1,2,0:0:0:0:
336,192,221346,1,0,0:0:0:0:
336,192,221513,1,2,0:0:0:0:
336,192,221596,1,2,0:0:0:0:
336,192,221680,1,0,0:0:0:0:
336,192,221846,1,2,0:0:0:0:
336,192,222013,1,0,0:0:0:0:
336,192,222096,1,2,0:0:0:0:
336,192,222180,1,0,0:0:0:0:
336,192,222263,1,0,0:0:0:0:
336,192,222346,1,2,0:0:0:0:
336,192,222680,1,0,0:0:0:0:
336,192,223013,1,0,0:0:0:0:
336,192,223180,1,2,0:0:0:0:
336,192,223346,1,0,0:0:0:0:
336,192,223596,1,2,0:0:0:0:
336,192,223680,1,0,0:0:0:0:
336,192,223846,1,2,0:0:0:0:
336,192,224013,1,0,0:0:0:0:
336,192,224180,1,0,0:0:0:0:
336,192,224263,1,2,0:0:0:0:
336,192,224346,1,0,0:0:0:0:
336,192,224513,1,2,0:0:0:0:
336,192,224680,1,0,0:0:0:0:
336,192,224763,1,0,0:0:0:0:
336,192,224846,1,2,0:0:0:0:
336,192,224930,1,0,0:0:0:0:
336,192,225013,1,2,0:0:0:0:
336,192,225180,1,2,0:0:0:0:
336,192,225346,1,0,0:0:0:0:
336,192,225513,1,2,0:0:0:0:
336,192,225596,1,2,0:0:0:0:
336,192,225680,1,0,0:0:0:0:
336,192,225763,1,0,0:0:0:0:
336,192,225846,1,2,0:0:0:0:
336,192,226013,1,0,0:0:0:0:
336,192,226096,1,2,0:0:0:0:
336,192,226180,1,2,0:0:0:0:
336,192,226263,1,2,0:0:0:0:
336,192,226346,1,0,0:0:0:0:
336,192,226513,1,6,0:0:0:0:
336,192,227013,1,0,0:0:0:0:
336,192,227096,1,2,0:0:0:0:
336,192,227180,1,2,0:0:0:0:
336,192,227263,1,0,0:0:0:0:
336,192,227346,1,2,0:0:0:0:
336,192,227430,1,2,0:0:0:0:
336,192,227513,1,0,0:0:0:0:
336,192,227596,1,0,0:0:0:0:
336,192,227680,1,2,0:0:0:0:
336,192,228013,1,4,0:0:0:0:
336,192,228346,1,0,0:0:0:0:
336,192,228680,1,0,0:0:0:0:
336,192,229013,1,0,0:0:0:0:
336,192,229180,1,2,0:0:0:0:
336,192,229346,1,0,0:0:0:0:
336,192,229680,1,0,0:0:0:0:
336,192,230013,1,0,0:0:0:0:
336,192,230263,1,2,0:0:0:0:
336,192,230346,1,0,0:0:0:0:
336,192,230513,1,2,0:0:0:0:
336,192,230680,1,0,0:0:0:0:
336,192,231013,1,0,0:0:0:0:
336,192,231346,1,0,0:0:0:0:
336,192,231513,1,2,0:0:0:0:
336,192,231680,1,0,0:0:0:0:
336,192,231846,1,2,0:0:0:0:
336,192,232013,1,0,0:0:0:0:
336,192,232346,1,0,0:0:0:0:
336,192,232680,1,0,0:0:0:0:
336,192,232930,1,2,0:0:0:0:
336,192,233013,1,0,0:0:0:0:
336,192,233180,1,2,0:0:0:0:
336,192,233263,1,2,0:0:0:0:
336,192,233346,1,0,0:0:0:0:
336,192,233680,1,0,0:0:0:0:
336,192,234013,1,0,0:0:0:0:
336,192,234180,1,2,0:0:0:0:
336,192,234346,1,0,0:0:0:0:
336,192,234513,1,2,0:0:0:0:
336,192,234680,1,0,0:0:0:0:
336,192,235013,1,0,0:0:0:0:
336,192,235346,1,0,0:0:0:0:
336,192,235513,1,2,0:0:0:0:
336,192,235596,1,2,0:0:0:0:
336,192,235680,1,0,0:0:0:0:
336,192,235846,1,2,0:0:0:0:
336,192,236013,1,0,0:0:0:0:
336,192,236346,1,0,0:0:0:0:
336,192,236680,1,0,0:0:0:0:
336,192,236846,1,2,0:0:0:0:
336,192,237013,1,0,0:0:0:0:
336,192,237180,1,2,0:0:0:0:
336,192,237346,1,0,0:0:0:0:
336,192,237680,1,0,0:0:0:0:
336,192,237846,1,2,0:0:0:0:
336,192,238013,1,0,0:0:0:0:
336,192,238180,1,0,0:0:0:0:
336,192,238263,1,0,0:0:0:0:
336,192,238346,1,2,0:0:0:0:
336,192,238513,1,0,0:0:0:0:
336,192,238680,1,4,0:0:0:0:
336,192,239013,1,0,0:0:0:0:
336,192,239180,1,2,0:0:0:0:
336,192,239346,1,0,0:0:0:0:
336,192,239596,1,2,0:0:0:0:
336,192,239680,1,0,0:0:0:0:
336,192,239846,1,2,0:0:0:0:
336,192,240013,1,0,0:0:0:0:
336,192,240346,1,0,0:0:0:0:
336,192,240513,1,2,0:0:0:0:
336,192,240680,1,0,0:0:0:0:
336,192,240763,1,0,0:0:0:0:
336,192,240846,1,2,0:0:0:0:
336,192,240930,1,2,0:0:0:0:
336,192,241013,1,0,0:0:0:0:
336,192,241180,1,2,0:0:0:0:
336,192,241346,1,0,0:0:0:0:
336,192,241596,1,2,0:0:0:0:
336,192,241680,1,0,0:0:0:0:
336,192,241846,1,2,0:0:0:0:
336,192,242013,1,0,0:0:0:0:
336,192,242096,1,0,0:0:0:0:
336,192,242180,1,2,0:0:0:0:
336,192,242346,1,0,0:0:0:0:
336,192,242513,1,2,0:0:0:0:
336,192,242680,1,0,0:0:0:0:
336,192,242763,1,2,0:0:0:0:
336,192,242930,1,2,0:0:0:0:
336,192,243013,1,0,0:0:0:0:
336,192,243180,1,2,0:0:0:0:
336,192,243346,1,0,0:0:0:0:
336,192,243430,1,0,0:0:0:0:
336,192,243513,1,2,0:0:0:0:
336,192,243680,1,0,0:0:0:0:
336,192,243846,1,2,0:0:0:0:
336,192,243930,1,2,0:0:0:0:
336,192,244013,1,0,0:0:0:0:
336,192,244263,1,2,0:0:0:0:
336,192,244346,1,0,0:0:0:0:
336,192,244513,1,2,0:0:0:0:
336,192,244680,1,0,0:0:0:0:
336,192,244763,1,0,0:0:0:0:
336,192,244846,1,2,0:0:0:0:
336,192,245013,1,0,0:0:0:0:
336,192,245180,1,2,0:0:0:0:
336,192,245346,1,0,0:0:0:0:
336,192,245513,1,2,0:0:0:0:
336,192,245596,1,2,0:0:0:0:
336,192,245680,1,0,0:0:0:0:
336,192,245846,1,2,0:0:0:0:
336,192,245930,1,0,0:0:0:0:
336,192,246096,1,0,0:0:0:0:
336,192,246180,1,2,0:0:0:0:
336,192,246346,1,0,0:0:0:0:
336,192,246513,1,2,0:0:0:0:
336,192,246680,1,0,0:0:0:0:
336,192,246763,1,0,0:0:0:0:
336,192,246846,1,2,0:0:0:0:
336,192,246930,1,0,0:0:0:0:
336,192,247013,1,2,0:0:0:0:
336,192,247096,1,2,0:0:0:0:
336,192,247180,1,0,0:0:0:0:
336,192,247263,1,2,0:0:0:0:
336,192,247346,1,0,0:0:0:0:
336,192,247430,1,2,0:0:0:0:
336,192,247513,1,2,0:0:0:0:
336,192,247596,1,2,0:0:0:0:
336,192,247680,1,0,0:0:0:0:
125,152,247735,1,2,0:0:0:0:
336,192,247791,1,2,0:0:0:0:
336,192,247846,1,0,0:0:0:0:
336,192,248346,1,0,0:0:0:0:
336,192,248430,1,0,0:0:0:0:
336,192,248513,1,0,0:0:0:0:
336,192,248596,1,0,0:0:0:0:
336,192,248680,1,2,0:0:0:0:
336,192,248763,1,2,0:0:0:0:
336,192,248846,1,0,0:0:0:0:
336,192,248930,1,0,0:0:0:0:
336,192,249013,1,2,0:0:0:0:
336,192,249346,1,4,0:0:0:0:
336,192,249596,1,2,0:0:0:0:
336,192,249680,1,0,0:0:0:0:
336,192,249846,1,2,0:0:0:0:
336,192,250013,1,0,0:0:0:0:
336,192,250096,1,2,0:0:0:0:
336,192,250263,1,2,0:0:0:0:
336,192,250346,1,0,0:0:0:0:
336,192,250513,1,2,0:0:0:0:
336,192,250680,1,0,0:0:0:0:
336,192,250846,1,2,0:0:0:0:
336,192,250930,1,2,0:0:0:0:
336,192,251013,1,0,0:0:0:0:
336,192,251180,1,2,0:0:0:0:
336,192,251346,1,0,0:0:0:0:
336,192,251430,1,2,0:0:0:0:
336,192,251596,1,2,0:0:0:0:
336,192,251680,1,0,0:0:0:0:
336,192,251763,1,0,0:0:0:0:
336,192,251846,1,2,0:0:0:0:
336,192,252013,1,0,0:0:0:0:
336,192,252180,1,2,0:0:0:0:
336,192,252346,1,0,0:0:0:0:
336,192,252430,1,0,0:0:0:0:
336,192,252513,1,2,0:0:0:0:
336,192,252596,1,2,0:0:0:0:
336,192,252680,1,0,0:0:0:0:
336,192,252846,1,2,0:0:0:0:
336,192,253013,1,0,0:0:0:0:
336,192,253180,1,2,0:0:0:0:
336,192,253263,1,0,0:0:0:0:
336,192,253430,1,0,0:0:0:0:
336,192,253513,1,2,0:0:0:0:
336,192,253680,1,0,0:0:0:0:
336,192,253735,1,2,0:0:0:0:
336,192,253791,1,2,0:0:0:0:
336,192,253846,1,0,0:0:0:0:
336,192,254013,1,2,0:0:0:0:
209,106,254180,1,0,0:0:0:0:
336,192,254263,1,2,0:0:0:0:
336,192,254346,1,0,0:0:0:0:
336,192,254430,1,0,0:0:0:0:
336,192,254513,1,2,0:0:0:0:
336,192,254596,1,2,0:0:0:0:
336,192,254680,1,0,0:0:0:0:
336,192,254930,1,2,0:0:0:0:
336,192,255013,1,0,0:0:0:0:
336,192,255180,1,2,0:0:0:0:
336,192,255346,1,0,0:0:0:0:
336,192,255430,1,0,0:0:0:0:
336,192,255513,1,2,0:0:0:0:
336,192,255596,1,2,0:0:0:0:
336,192,255680,1,0,0:0:0:0:
336,192,255846,1,2,0:0:0:0:
336,192,256013,1,0,0:0:0:0:
336,192,256180,1,2,0:0:0:0:
336,192,256263,1,2,0:0:0:0:
336,192,256346,1,0,0:0:0:0:
336,192,256402,1,0,0:0:0:0:
336,192,256458,1,0,0:0:0:0:
336,192,256513,1,2,0:0:0:0:
336,192,256680,1,0,0:0:0:0:
336,192,256846,1,0,0:0:0:0:
336,192,256930,1,0,0:0:0:0:
336,192,257013,1,2,0:0:0:0:
336,192,257096,1,0,0:0:0:0:
336,192,257180,1,2,0:0:0:0:
336,192,257263,1,2,0:0:0:0:
336,192,257346,1,0,0:0:0:0:
336,192,257513,1,2,0:0:0:0:
336,192,257596,1,2,0:0:0:0:
336,192,257680,1,0,0:0:0:0:
336,192,257763,1,0,0:0:0:0:
336,192,257846,1,2,0:0:0:0:
336,192,257930,1,0,0:0:0:0:
336,192,258013,1,0,0:0:0:0:
336,192,258096,1,2,0:0:0:0:
336,192,258180,1,2,0:0:0:0:
336,192,258263,1,2,0:0:0:0:
336,192,258346,1,0,0:0:0:0:
336,192,258402,1,0,0:0:0:0:
336,192,258458,1,0,0:0:0:0:
336,192,258513,1,0,0:0:0:0:
336,192,258569,1,0,0:0:0:0:
336,192,258624,1,0,0:0:0:0:
336,192,258680,1,2,0:0:0:0:
336,192,259013,1,2,0:0:0:0:
336,192,259180,1,0,0:0:0:0:
336,192,259346,1,8,0:0:0:0:
336,192,259430,1,2,0:0:0:0:
336,192,259513,1,0,0:0:0:0:
336,192,259680,1,6,0:0:0:0:
336,192,260013,1,4,0:0:0:0:
336,192,260180,1,2,0:0:0:0:
336,192,260263,1,2,0:0:0:0:
336,192,260346,1,0,0:0:0:0:
336,192,260513,1,2,0:0:0:0:
336,192,260680,1,0,0:0:0:0:
336,192,260763,1,2,0:0:0:0:
336,192,260930,1,2,0:0:0:0:
336,192,261013,1,0,0:0:0:0:
336,192,261096,1,0,0:0:0:0:
336,192,261180,1,2,0:0:0:0:
336,192,261346,1,0,0:0:0:0:
336,192,261513,1,2,0:0:0:0:
336,192,261596,1,2,0:0:0:0:
336,192,261680,1,0,0:0:0:0:
336,192,261763,1,0,0:0:0:0:
336,192,261846,1,2,0:0:0:0:
336,192,262013,1,0,0:0:0:0:
336,192,262096,1,2,0:0:0:0:
336,192,262263,1,2,0:0:0:0:
336,192,262346,1,0,0:0:0:0:
336,192,262430,1,0,0:0:0:0:
336,192,262513,1,2,0:0:0:0:
336,192,262680,1,0,0:0:0:0:
336,192,262846,1,2,0:0:0:0:
336,192,262930,1,2,0:0:0:0:
336,192,263013,1,0,0:0:0:0:
336,192,263096,1,0,0:0:0:0:
336,192,263180,1,2,0:0:0:0:
336,192,263263,1,2,0:0:0:0:
336,192,263346,1,0,0:0:0:0:
336,192,263513,1,2,0:0:0:0:
336,192,263680,1,0,0:0:0:0:
336,192,263846,1,2,0:0:0:0:
336,192,263930,1,0,0:0:0:0:
336,192,264096,1,0,0:0:0:0:
336,192,264180,1,2,0:0:0:0:
336,192,264346,1,0,0:0:0:0:
336,192,264402,1,2,0:0:0:0:
264,145,264458,1,2,0:0:0:0:
336,192,264513,1,0,0:0:0:0:
336,192,264680,1,2,0:0:0:0:
336,192,264846,1,0,0:0:0:0:
336,192,264930,1,2,0:0:0:0:
336,192,265013,1,0,0:0:0:0:
336,192,265069,1,0,0:0:0:0:
336,192,265124,1,0,0:0:0:0:
336,192,265180,1,2,0:0:0:0:
336,192,265263,1,2,0:0:0:0:
336,192,265346,1,0,0:0:0:0:
336,192,265513,1,0,0:0:0:0:
336,192,265596,1,2,0:0:0:0:
336,192,265680,1,0,0:0:0:0:
336,192,265846,1,2,0:0:0:0:
336,192,266013,1,0,0:0:0:0:
336,192,266096,1,2,0:0:0:0:
336,192,266180,1,2,0:0:0:0:
336,192,266263,1,2,0:0:0:0:
336,192,266346,1,0,0:0:0:0:
336,192,266513,1,2,0:0:0:0:
336,192,266596,1,0,0:0:0:0:
336,192,266680,1,0,0:0:0:0:
336,192,266846,1,2,0:0:0:0:
336,192,266930,1,2,0:0:0:0:
336,192,267013,1,0,0:0:0:0:
336,192,267069,1,0,0:0:0:0:
336,192,267124,1,0,0:0:0:0:
336,192,267180,1,2,0:0:0:0:
336,192,267346,1,0,0:0:0:0:
336,192,267430,1,0,0:0:0:0:
336,192,267513,1,2,0:0:0:0:
336,192,267596,1,0,0:0:0:0:
336,192,267680,1,2,0:0:0:0:
336,192,267763,1,2,0:0:0:0:
336,192,267846,1,0,0:0:0:0:
336,192,267930,1,2,0:0:0:0:
336,192,268013,1,0,0:0:0:0:
336,192,268180,1,2,0:0:0:0:
336,192,268263,1,2,0:0:0:0:
336,192,268346,1,0,0:0:0:0:
336,192,268430,1,0,0:0:0:0:
336,192,268513,1,2,0:0:0:0:
336,192,268596,1,0,0:0:0:0:
336,192,268680,1,0,0:0:0:0:
336,192,268763,1,2,0:0:0:0:
336,192,268846,1,2,0:0:0:0:
336,192,268930,1,2,0:0:0:0:
336,192,269013,1,0,0:0:0:0:
336,192,269069,1,2,0:0:0:0:
156,159,269124,1,2,0:0:0:0:
336,192,269180,1,0,0:0:0:0:
298,158,269513,1,8,0:0:0:0:
298,158,269596,1,8,0:0:0:0:
298,158,269680,1,8,0:0:0:0:
336,192,269846,1,0,0:0:0:0:
336,192,269930,1,2,0:0:0:0:
336,192,270013,1,2,0:0:0:0:
336,192,270096,1,2,0:0:0:0:
336,192,270180,1,0,0:0:0:0:
336,192,270263,1,0,0:0:0:0:
336,192,270346,1,2,0:0:0:0:
336,192,270680,1,4,0:0:0:0:
336,192,271013,1,0,0:0:0:0:
336,192,271180,1,2,0:0:0:0:
336,192,271263,1,2,0:0:0:0:
336,192,271346,1,0,0:0:0:0:
336,192,271513,1,2,0:0:0:0:
336,192,271596,1,0,0:0:0:0:
336,192,271680,1,2,0:0:0:0:
336,192,271846,1,0,0:0:0:0:
336,192,272013,1,0,0:0:0:0:
336,192,272180,1,2,0:0:0:0:
336,192,272346,1,0,0:0:0:0:
336,192,272430,1,0,0:0:0:0:
336,192,272513,1,2,0:0:0:0:
336,192,272680,1,0,0:0:0:0:
336,192,272846,1,2,0:0:0:0:
336,192,272930,1,0,0:0:0:0:
336,192,273013,1,2,0:0:0:0:
336,192,273180,1,2,0:0:0:0:
336,192,273263,1,2,0:0:0:0:
336,192,273346,1,0,0:0:0:0:
336,192,273513,1,2,0:0:0:0:
336,192,273680,1,0,0:0:0:0:
336,192,273846,1,2,0:0:0:0:
336,192,273930,1,2,0:0:0:0:
336,192,274013,1,0,0:0:0:0:
336,192,274180,1,2,0:0:0:0:
336,192,274263,1,0,0:0:0:0:
336,192,274346,1,2,0:0:0:0:
336,192,274513,1,0,0:0:0:0:
336,192,274596,1,2,0:0:0:0:
336,192,274680,1,0,0:0:0:0:
336,192,274846,1,2,0:0:0:0:
336,192,275013,1,0,0:0:0:0:
336,192,275096,1,0,0:0:0:0:
336,192,275180,1,2,0:0:0:0:
336,192,275346,1,0,0:0:0:0:
336,192,275513,1,2,0:0:0:0:
336,192,275569,1,2,0:0:0:0:
336,192,275624,1,2,0:0:0:0:
336,192,275680,1,0,0:0:0:0:
336,192,275846,1,2,0:0:0:0:
336,192,276013,1,0,0:0:0:0:
336,192,276180,1,2,0:0:0:0:
336,192,276346,1,0,0:0:0:0:
336,192,276513,1,2,0:0:0:0:
336,192,276596,1,2,0:0:0:0:
336,192,276680,1,0,0:0:0:0:
336,192,276846,1,2,0:0:0:0:
336,192,276930,1,0,0:0:0:0:
336,192,277013,1,2,0:0:0:0:
336,192,277180,1,0,0:0:0:0:
336,192,277263,1,2,0:0:0:0:
336,192,277346,1,0,0:0:0:0:
336,192,277513,1,2,0:0:0:0:
336,192,277680,1,0,0:0:0:0:
336,192,277763,1,0,0:0:0:0:
336,192,277846,1,2,0:0:0:0:
336,192,278013,1,0,0:0:0:0:
336,192,278180,1,2,0:0:0:0:
336,192,278263,1,0,0:0:0:0:
336,192,278346,1,2,0:0:0:0:
336,192,278513,1,2,0:0:0:0:
336,192,278596,1,2,0:0:0:0:
336,192,278680,1,0,0:0:0:0:
336,192,278846,1,2,0:0:0:0:
336,192,279013,1,0,0:0:0:0:
336,192,279096,1,0,0:0:0:0:
336,192,279180,1,2,0:0:0:0:
336,192,279263,1,2,0:0:0:0:
336,192,279346,1,0,0:0:0:0:
336,192,279513,1,2,0:0:0:0:
336,192,279596,1,2,0:0:0:0:
336,192,279680,1,0,0:0:0:0:
336,192,279846,1,2,0:0:0:0:
336,192,280013,1,0,0:0:0:0:
336,192,280180,1,2,0:0:0:0:
336,192,280263,1,2,0:0:0:0:
336,192,280346,1,0,0:0:0:0:
336,192,280430,1,2,0:0:0:0:
336,192,280513,1,0,0:0:0:0:
336,192,280680,1,2,0:0:0:0:
336,192,280846,1,0,0:0:0:0:
336,192,280902,1,2,0:0:0:0:
336,192,280958,1,2,0:0:0:0:
336,192,281013,1,0,0:0:0:0:
336,192,281180,1,2,0:0:0:0:
336,192,281346,1,4,0:0:0:0:
336,192,281680,1,0,0:0:0:0:
336,192,281846,1,2,0:0:0:0:
336,192,281930,1,2,0:0:0:0:
336,192,282013,1,0,0:0:0:0:
336,192,282180,1,2,0:0:0:0:
336,192,282263,1,0,0:0:0:0:
336,192,282346,1,2,0:0:0:0:
336,192,282513,1,0,0:0:0:0:
336,192,282680,1,0,0:0:0:0:
336,192,282846,1,2,0:0:0:0:
336,192,283013,1,0,0:0:0:0:
336,192,283096,1,0,0:0:0:0:
336,192,283180,1,2,0:0:0:0:
336,192,283346,1,0,0:0:0:0:
336,192,283513,1,2,0:0:0:0:
336,192,283596,1,0,0:0:0:0:
336,192,283680,1,2,0:0:0:0:
336,192,283846,1,0,0:0:0:0:
336,192,283930,1,2,0:0:0:0:
336,192,284013,1,0,0:0:0:0:
336,192,284180,1,2,0:0:0:0:
336,192,284346,1,0,0:0:0:0:
336,192,284513,1,2,0:0:0:0:
336,192,284596,1,2,0:0:0:0:
336,192,284680,1,0,0:0:0:0:
336,192,284846,1,0,0:0:0:0:
336,192,284930,1,0,0:0:0:0:
336,192,285013,1,2,0:0:0:0:
336,192,285096,1,0,0:0:0:0:
336,192,285180,1,2,0:0:0:0:
336,192,285263,1,2,0:0:0:0:
336,192,285346,1,0,0:0:0:0:
336,192,285513,1,2,0:0:0:0:
336,192,285680,1,0,0:0:0:0:
336,192,285763,1,0,0:0:0:0:
336,192,285846,1,2,0:0:0:0:
336,192,285930,1,2,0:0:0:0:
336,192,286013,1,0,0:0:0:0:
336,192,286180,1,2,0:0:0:0:
336,192,286235,1,2,0:0:0:0:
336,192,286291,1,2,0:0:0:0:
336,192,286346,1,0,0:0:0:0:
336,192,286513,1,2,0:0:0:0:
336,192,286680,1,4,0:0:0:0:
336,192,286846,1,2,0:0:0:0:
336,192,287013,1,0,0:0:0:0:
336,192,287180,1,2,0:0:0:0:
336,192,287263,1,2,0:0:0:0:
336,192,287346,1,0,0:0:0:0:
336,192,287513,1,2,0:0:0:0:
336,192,287596,1,0,0:0:0:0:
336,192,287680,1,2,0:0:0:0:
336,192,287846,1,0,0:0:0:0:
336,192,287930,1,2,0:0:0:0:
336,192,288013,1,0,0:0:0:0:
336,192,288180,1,2,0:0:0:0:
336,192,288263,1,2,0:0:0:0:
336,192,288346,1,0,0:0:0:0:
336,192,288430,1,0,0:0:0:0:
336,192,288513,1,2,0:0:0:0:
336,192,288680,1,0,0:0:0:0:
336,192,288846,1,2,0:0:0:0:
336,192,288930,1,0,0:0:0:0:
336,192,289013,1,2,0:0:0:0:
336,192,289096,1,2,0:0:0:0:
336,192,289180,1,0,0:0:0:0:
336,192,289346,1,0,0:0:0:0:
336,192,289430,1,0,0:0:0:0:
336,192,289513,1,2,0:0:0:0:
336,192,289596,1,0,0:0:0:0:
336,192,289680,1,2,0:0:0:0:
336,192,289763,1,2,0:0:0:0:
336,192,289846,1,0,0:0:0:0:
336,192,289930,1,2,0:0:0:0:
336,192,290013,1,0,0:0:0:0:
336,192,290096,1,0,0:0:0:0:
336,192,290180,1,2,0:0:0:0:
336,192,290263,1,2,0:0:0:0:
336,192,290346,1,0,0:0:0:0:
336,192,290402,1,2,0:0:0:0:
336,192,290458,1,2,0:0:0:0:
336,192,290513,1,0,0:0:0:0:
336,192,290846,1,0,0:0:0:0:
336,192,291013,1,2,0:0:0:0:
336,192,291180,1,0,0:0:0:0:
336,192,291263,1,0,0:0:0:0:
336,192,291346,1,2,0:0:0:0:
336,192,291430,1,2,0:0:0:0:
336,192,291513,1,0,0:0:0:0:
336,192,291680,1,6,0:0:0:0:
288,224,292346,5,4,0:0:0:0:
240,80,292680,1,0,0:0:0:0:
240,80,292846,1,0,0:0:0:0:
240,80,293013,1,8,0:0:0:0:
240,80,293180,1,8,0:0:0:0:
224,160,293263,1,8,0:0:0:0:
224,160,293346,1,0,0:0:0:0:
224,160,293513,1,0,0:0:0:0:
224,160,293680,1,8,0:0:0:0:
224,160,294013,1,0,0:0:0:0:
416,304,294263,1,0,0:0:0:0:
416,304,294346,1,8,0:0:0:0:
288,256,294513,1,8,0:0:0:0:
288,224,294680,1,0,0:0:0:0:
288,224,294846,1,0,0:0:0:0:
288,224,295013,1,8,0:0:0:0:
416,160,295346,1,0,0:0:0:0:
240,160,295680,1,8,0:0:0:0:
240,160,295846,1,8,0:0:0:0:
240,160,296013,1,0,0:0:0:0:
336,224,296180,1,0,0:0:0:0:
336,224,296263,1,0,0:0:0:0:
336,224,296346,1,8,0:0:0:0:
336,224,296513,1,8,0:0:0:0:
336,224,296680,1,0,0:0:0:0:
336,224,296763,1,0,0:0:0:0:
336,224,296930,1,0,0:0:0:0:
336,224,297013,1,8,0:0:0:0:
336,224,297180,1,8,0:0:0:0:
336,224,297346,1,0,0:0:0:0:
336,224,297513,1,0,0:0:0:0:
336,224,297680,1,8,0:0:0:0:
336,224,298013,1,0,0:0:0:0:
336,224,298263,1,0,0:0:0:0:
336,224,298346,1,8,0:0:0:0:
336,224,298513,1,8,0:0:0:0:
400,304,298680,1,0,0:0:0:0:
256,160,298846,1,0,0:0:0:0:
272,144,299013,1,8,0:0:0:0:
256,160,299346,1,0,0:0:0:0:
256,160,299513,1,0,0:0:0:0:
256,160,299596,1,0,0:0:0:0:
272,160,299680,1,8,0:0:0:0:
272,160,299846,1,8,0:0:0:0:
272,160,300013,1,0,0:0:0:0:
272,160,300180,1,0,0:0:0:0:
272,160,300346,1,8,0:0:0:0:
224,144,300680,1,0,0:0:0:0:
224,144,300930,1,0,0:0:0:0:
224,144,301013,1,8,0:0:0:0:
224,144,301180,1,8,0:0:0:0:
320,208,301346,1,0,0:0:0:0:
320,208,301513,1,0,0:0:0:0:
320,208,301596,1,0,0:0:0:0:
320,208,301680,1,8,0:0:0:0:
320,208,301846,1,8,0:0:0:0:
320,208,302013,1,0,0:0:0:0:
320,208,302096,1,8,0:0:0:0:
320,208,302180,1,0,0:0:0:0:
320,208,302263,1,0,0:0:0:0:
320,208,302346,1,8,0:0:0:0:
320,208,302513,1,8,0:0:0:0:
320,208,302680,1,4,0:0:0:0:
256,192,303013,1,0,0:0:0:0:
256,192,303346,1,0,0:0:0:0:
256,192,303680,1,0,0:0:0:0:
256,192,303846,1,8,0:0:0:0:
256,192,304013,1,0,0:0:0:0:
256,192,304346,1,0,0:0:0:0:
256,192,304680,1,0,0:0:0:0:
256,192,304930,1,8,0:0:0:0:
256,192,305013,1,0,0:0:0:0:
256,192,305180,1,8,0:0:0:0:
256,192,305346,1,0,0:0:0:0:
256,192,305680,1,0,0:0:0:0:
256,192,306013,1,0,0:0:0:0:
256,192,306346,1,0,0:0:0:0:
256,192,306513,1,8,0:0:0:0:
256,192,306680,1,0,0:0:0:0:
384,272,307013,1,0,0:0:0:0:
384,272,307180,1,8,0:0:0:0:
384,272,307346,1,0,0:0:0:0:
384,272,307513,1,8,0:0:0:0:
384,272,307596,1,8,0:0:0:0:
288,96,307680,1,0,0:0:0:0:
288,96,307846,1,8,0:0:0:0:
288,96,308013,1,0,0:0:0:0:
288,240,308346,1,0,0:0:0:0:
288,240,308680,1,0,0:0:0:0:
288,240,309013,1,0,0:0:0:0:
288,240,309180,1,8,0:0:0:0:
288,240,309346,1,0,0:0:0:0:
320,208,309680,1,0,0:0:0:0:
320,208,309930,1,8,0:0:0:0:
320,208,310013,1,0,0:0:0:0:
320,208,310180,1,8,0:0:0:0:
320,208,310346,1,0,0:0:0:0:
320,208,310513,1,8,0:0:0:0:
320,208,310680,1,0,0:0:0:0:
320,208,311013,1,0,0:0:0:0:
307,129,311180,1,8,0:0:0:0:
320,208,311346,1,0,0:0:0:0:
320,208,311513,1,8,0:0:0:0:
320,208,311596,1,8,0:0:0:0:
320,208,311680,1,0,0:0:0:0:
320,208,311846,1,8,0:0:0:0:
320,208,312013,1,0,0:0:0:0:
320,208,312180,1,8,0:0:0:0:
320,208,312513,1,8,0:0:0:0:
128,160,312846,1,8,0:0:0:0:
128,160,313180,1,8,0:0:0:0:
