osu file format v14

[General]
AudioFilename: audio.mp3
AudioLeadIn: 0
PreviewTime: 57681
Countdown: 0
SampleSet: None
StackLeniency: 0.7
Mode: 3
LetterboxInBreaks: 0
SpecialStyle: 0
WidescreenStoryboard: 1

[Editor]
DistanceSpacing: 1
BeatDivisor: 1
GridSize: 4
TimelineZoom: 1

[Metadata]
Title:Colors Power ni Omakasero!
TitleUnicode:カラーズぱわーにおまかせろ!
Artist:Colors*Slash
ArtistUnicode:カラーズ☆スラッシュ
Creator:misternopal
Version:Normal
Source:三ツ星カラーズ
Tags:mitsuboshi colors kotoha sacchan akamatsu yui anime japanese hioka natsumi kouno marika takada yuuki dudehacker
BeatmapID:1719273
BeatmapSetID:820085

[Difficulty]
HPDrainRate:7
CircleSize:7
OverallDifficulty:7
ApproachRate:5
SliderMultiplier:1.2
SliderTickRate:1

[Events]
//Background and Video events
0,0,"mitsuboshi.jpg",0,0
//Break Periods
2,8981,15981
//Storyboard Layer 0 (Background)
//Storyboard Layer 1 (Fail)
//Storyboard Layer 2 (Pass)
//Storyboard Layer 3 (Foreground)
//Storyboard Sound Samples

[TimingPoints]
381,300,4,3,2,60,1,0
381,-105.263157894737,4,3,2,60,0,0
9981,-100,4,3,2,80,0,0
57981,-100,4,3,2,80,0,1
75831,-100,4,3,2,80,0,0

[HitObjects]
109,192,381,5,0,0:0:0:0:
329,192,381,1,0,0:0:0:0:
182,192,1581,1,0,0:0:0:0:
402,192,1581,1,0,0:0:0:0:
256,192,2781,1,0,0:0:0:0:
475,192,2781,1,0,0:0:0:0:
182,192,3981,1,0,0:0:0:0:
402,192,3981,1,0,0:0:0:0:
256,192,5181,1,0,0:0:0:0:
36,192,5181,1,0,0:0:0:0:
109,192,6381,1,0,0:0:0:0:
329,192,6381,1,0,0:0:0:0:
36,192,7581,1,0,0:0:0:0:
256,192,7581,1,0,0:0:0:0:
182,192,8781,1,0,0:0:0:0:
402,192,8781,1,0,0:0:0:0:
256,192,9981,1,4,0:0:0:0:
36,192,9981,1,2,0:0:0:0:
36,192,10281,1,2,0:0:0:0:
36,192,10581,1,2,0:0:0:0:
36,192,10881,1,2,0:0:0:0:
109,192,11181,1,2,0:0:0:0:
475,192,11181,1,0,0:0:0:0:
109,192,11481,1,2,0:0:0:0:
109,192,11781,1,2,0:0:0:0:
109,192,12081,1,2,0:0:0:0:
256,192,12381,1,0,0:0:0:0:
36,192,12381,1,2,0:0:0:0:
36,192,12681,1,2,0:0:0:0:
36,192,12981,1,2,0:0:0:0:
36,192,13281,1,2,0:0:0:0:
329,192,13581,1,0,0:0:0:0:
109,192,13581,1,2,0:0:0:0:
109,192,13881,1,2,0:0:0:0:
109,192,14181,1,2,0:0:0:0:
109,192,14481,1,2,0:0:0:0:
402,192,14781,1,0,0:0:0:0:
36,192,14781,1,2,0:0:0:0:
36,192,15081,1,2,0:0:0:0:
36,192,15381,1,2,0:0:0:0:
36,192,15681,1,2,0:0:0:0:
109,192,15981,1,2,0:0:0:0:
475,192,15981,1,0,0:0:0:0:
109,192,16281,5,2,0:0:0:0:
109,192,16581,1,2,0:0:0:0:
109,192,16881,1,2,0:0:0:0:
256,192,17181,5,4,0:0:0:0:
475,192,17181,1,8,0:0:0:0:
256,192,17481,1,4,0:0:0:0:
36,192,17481,1,8,0:0:0:0:
182,192,17781,1,8,0:0:0:0:
329,192,17781,1,4,0:0:0:0:
402,192,18081,1,2,0:0:0:0:
109,192,18081,1,4,0:0:0:0:
475,192,18231,1,2,0:0:0:0:
182,192,18231,1,0,0:0:0:0:
329,192,18831,1,2,0:0:0:0:
475,192,18981,1,12,0:0:0:0:
256,192,19131,1,2,0:0:0:0:
109,192,19281,1,8,0:0:0:0:
402,192,19431,1,8,0:0:0:0:
36,192,19581,1,6,0:0:0:0:
475,192,19581,1,0,0:0:0:70:whistle.wav
109,192,19881,1,0,0:0:0:0:
256,192,19881,1,0,0:0:0:70:clap.wav
329,192,20181,1,2,0:0:0:0:
182,192,20331,1,2,0:0:0:0:
36,192,20481,1,0,0:0:0:0:
402,192,20481,1,0,0:0:0:70:clap.wav
109,192,20781,1,2,0:0:0:0:
329,192,20931,1,2,0:0:0:0:
256,192,21081,1,0,0:0:0:70:clap.wav
475,192,21081,1,0,0:0:0:0:
36,192,21231,1,2,0:0:0:0:
182,192,21531,1,2,0:0:0:0:
402,192,21681,1,0,0:0:0:0:
109,192,21681,1,0,0:0:0:70:clap.wav
36,192,21981,1,2,0:0:0:0:
329,192,21981,1,0,0:0:0:0:
256,192,22281,1,0,0:0:0:0:
475,192,22281,1,0,0:0:0:70:clap.wav
402,192,22581,1,2,0:0:0:0:
329,192,22731,1,2,0:0:0:0:
182,192,22881,1,0,0:0:0:70:clap.wav
475,192,22881,1,0,0:0:0:0:
36,192,23181,1,2,0:0:0:0:
109,192,23181,1,0,0:0:0:0:
256,192,23481,1,0,0:0:0:0:
402,192,23481,1,0,0:0:0:70:clap.wav
109,192,23781,1,0,0:0:0:0:
36,192,23931,1,0,0:0:0:0:
182,192,23931,1,2,0:0:0:0:
475,192,24081,1,0,0:0:0:0:
329,192,24081,1,0,0:0:0:70:clap.wav
256,192,24231,1,0,0:0:0:0:
402,192,24381,1,2,0:0:0:0:
109,192,24381,1,0,0:0:0:0:
329,192,24681,1,0,0:0:0:70:clap.wav
475,192,24681,1,0,0:0:0:0:
256,192,24981,1,2,0:0:0:0:
182,192,25131,1,2,0:0:0:0:
36,192,25281,1,0,0:0:0:0:
402,192,25281,1,0,0:0:0:70:clap.wav
182,192,25581,1,2,0:0:0:0:
109,192,25731,1,2,0:0:0:0:
475,192,25881,1,0,0:0:0:0:
36,192,25881,1,0,0:0:0:70:clap.wav
256,192,26031,1,2,0:0:0:0:
36,192,26331,1,2,0:0:0:0:
182,192,26481,1,0,0:0:0:70:clap.wav
329,192,26481,1,0,0:0:0:0:
475,192,26781,1,2,0:0:0:0:
402,192,27081,1,0,0:0:0:70:clap.wav
182,192,27081,1,0,0:0:0:0:
109,192,27381,1,2,0:0:0:0:
256,192,27531,1,2,0:0:0:0:
36,192,27681,1,0,0:0:0:70:clap.wav
182,192,27681,1,0,0:0:0:0:
329,192,27831,1,0,0:0:0:0:
475,192,27831,1,2,0:0:0:0:
402,192,28131,1,0,0:0:0:70:clap.wav
109,192,28131,1,0,0:0:0:0:
36,192,28431,1,2,0:0:0:0:
475,192,28431,1,0,0:0:0:0:
182,192,28581,1,0,0:0:0:70:Tom1.wav
256,192,28731,1,0,0:0:0:70:Tom2.wav
109,192,28881,1,0,0:0:0:70:Tom3.wav
402,192,29031,1,0,0:0:0:70:Tom3.wav
256,192,29181,1,4,0:0:0:0:
36,192,29181,1,2,0:0:0:0:
182,192,29481,1,8,0:0:0:0:
109,192,29481,1,0,0:0:0:0:
475,192,29781,1,2,0:0:0:0:
36,192,29931,1,2,0:0:0:0:
256,192,30081,1,8,0:3:0:0:
402,192,30081,1,0,0:0:0:0:
109,192,30381,1,2,0:0:0:0:
329,192,30531,1,2,0:0:0:0:
475,192,30681,1,0,0:0:0:0:
182,192,30681,1,8,0:3:0:0:
36,192,30831,1,2,0:0:0:0:
256,192,31131,1,2,0:0:0:0:
109,192,31281,1,0,0:0:0:0:
402,192,31281,1,8,0:3:0:0:
36,192,31581,1,0,0:0:0:0:
182,192,31581,1,2,0:0:0:0:
402,192,31881,1,8,0:3:0:0:
475,192,31881,1,0,0:0:0:0:
329,192,32181,1,2,0:0:0:0:
109,192,32331,1,2,0:0:0:0:
402,192,32481,1,0,0:0:0:0:
256,192,32481,1,8,0:3:0:0:
36,192,32781,1,2,0:0:0:0:
475,192,32931,1,2,0:0:0:0:
329,192,33081,1,8,0:3:0:0:
182,192,33081,1,0,0:0:0:0:
109,192,33231,1,2,0:0:0:0:
402,192,33531,1,2,0:0:0:0:
256,192,33681,128,0,33981:0:0:0:0:
36,192,33681,1,8,0:3:0:0:
475,192,33981,128,0,34581:0:0:0:0:
182,192,33981,1,2,0:0:0:0:
329,192,34281,128,8,34581:0:0:0:0:
36,192,34581,128,0,35181:0:0:0:0:
256,192,34581,1,2,0:0:0:0:
182,192,34881,128,8,35181:0:0:0:0:
402,192,35181,128,0,35781:0:0:0:0:
109,192,35181,1,2,0:0:0:0:
182,192,35481,128,8,35781:0:0:0:0:
256,192,35781,128,0,36381:0:0:0:0:
36,192,35781,1,2,0:0:0:0:
182,192,36381,128,0,37431:0:0:0:0:
329,192,36381,1,2,0:0:0:0:
475,192,37281,1,2,0:0:0:0:
329,192,37431,1,8,0:3:0:0:
402,192,37431,1,0,0:0:0:0:
109,192,37731,1,0,0:0:0:0:
256,192,37731,1,8,0:3:0:0:
329,192,38031,1,8,0:0:0:0:
182,192,38031,1,0,0:0:0:0:
256,192,38331,1,2,0:0:0:0:
182,192,38481,1,2,0:0:0:0:
475,192,38781,1,2,0:0:0:0:
36,192,38781,1,4,0:0:0:0:
402,192,39081,1,0,0:0:0:0:
109,192,39081,1,8,0:3:0:0:
256,192,39381,1,2,0:0:0:0:
36,192,39531,1,2,0:0:0:0:
182,192,39681,1,0,0:0:0:0:
109,192,39681,1,8,0:3:0:0:
329,192,39981,1,2,0:0:0:0:
475,192,40131,1,2,0:0:0:0:
256,192,40281,1,8,0:3:0:0:
182,192,40281,1,0,0:0:0:0:
402,192,40431,1,2,0:0:0:0:
36,192,40731,1,2,0:0:0:0:
256,192,40881,1,0,0:0:0:0:
329,192,40881,1,8,0:3:0:0:
109,192,41181,1,0,0:0:0:0:
402,192,41181,1,2,0:0:0:0:
36,192,41481,1,8,0:3:0:0:
475,192,41481,1,0,0:0:0:0:
256,192,41781,1,2,0:0:0:0:
182,192,41931,1,2,0:0:0:0:
36,192,42081,1,0,0:0:0:0:
329,192,42081,1,8,0:3:0:0:
402,192,42381,1,2,0:0:0:0:
475,192,42381,1,0,0:0:0:0:
109,192,42531,1,2,0:0:0:0:
256,192,42681,1,0,0:0:0:0:
182,192,42681,1,8,0:3:0:0:
329,192,42831,1,2,0:0:0:0:
36,192,43131,1,0,0:0:0:0:
109,192,43131,1,8,0:0:0:0:
402,192,43281,128,8,43581:0:3:0:0:
475,192,43281,1,0,0:0:0:0:
329,192,43581,128,0,44181:0:0:0:0:
182,192,43581,1,2,0:0:0:0:
109,192,43881,128,8,44181:0:3:0:0:
36,192,44181,128,0,44781:0:0:0:0:
475,192,44181,1,2,0:0:0:0:
182,192,44481,128,8,44781:0:3:0:0:
402,192,44781,128,0,45381:0:0:0:0:
256,192,44781,1,2,0:0:0:0:
109,192,45081,128,8,45381:0:3:0:0:
182,192,45381,128,0,45981:0:0:0:0:
329,192,45381,1,2,0:0:0:0:
475,192,45981,128,0,47031:0:0:0:0:
109,192,45981,1,2,0:0:0:0:
182,192,46881,1,2,0:0:0:0:
256,192,47031,1,8,0:3:0:0:
36,192,47031,1,0,0:0:0:0:
182,192,47331,1,8,0:3:0:0:
109,192,47331,1,0,0:0:0:0:
475,192,47631,1,0,0:0:0:70:Tom1.wav
256,192,47631,1,8,0:3:0:0:
36,192,47931,1,0,0:0:0:70:Tom2.wav
402,192,48081,1,0,0:0:0:0:
329,192,48081,1,2,0:0:0:0:
109,192,48381,1,2,0:0:0:0:
475,192,48381,1,4,0:0:0:0:
182,192,48681,1,2,0:0:0:0:
402,192,48981,1,8,0:3:0:0:
36,192,48981,1,0,0:0:0:0:
256,192,49281,1,2,0:0:0:0:
475,192,49581,1,2,0:0:0:0:
109,192,49881,1,0,0:0:0:0:
182,192,50181,1,8,0:3:0:0:
256,192,50181,1,0,0:0:0:0:
402,192,50481,1,2,0:0:0:0:
36,192,50781,1,2,0:0:0:0:
329,192,51081,1,0,0:0:0:0:
256,192,51381,1,8,0:3:0:0:
402,192,51381,1,0,0:0:0:0:
182,192,51681,1,2,0:0:0:0:
475,192,51981,1,2,0:0:0:0:
36,192,52281,1,0,0:0:0:0:
256,192,52581,1,8,0:0:0:0:
109,192,52581,1,0,0:0:0:0:
475,192,52881,1,2,0:0:0:0:
182,192,53181,1,2,0:0:0:0:
36,192,53481,1,2,0:0:0:0:
329,192,53481,1,0,0:0:0:0:
402,192,53781,1,2,0:0:0:0:
109,192,54081,1,0,0:0:0:0:
256,192,54081,1,2,0:0:0:0:
329,192,54381,1,2,0:0:0:0:
182,192,54681,1,2,0:0:0:0:
402,192,54681,1,0,0:0:0:0:
36,192,54981,1,2,0:0:0:0:
256,192,55281,1,0,0:0:0:0:
475,192,55281,1,2,0:0:0:0:
402,192,55581,128,2,56481:0:0:0:0:
109,192,55581,1,4,0:0:0:0:
109,192,55881,1,6,0:0:0:0:
109,192,56181,1,6,0:0:0:0:
182,192,56481,1,6,0:0:0:0:
256,192,56631,1,2,0:0:0:0:
475,192,57381,1,0,0:0:0:70:whistle.wav
475,192,57531,1,0,0:0:0:70:whistle.wav
475,192,57681,1,0,0:0:0:70:whistle.wav
182,192,57981,1,0,0:0:0:0:
329,192,57981,1,2,0:0:0:0:
109,192,57981,1,4,0:0:0:0:
402,192,58281,1,8,0:3:0:0:
475,192,58281,1,0,0:0:0:0:
36,192,58581,1,2,0:0:0:0:
109,192,58731,1,2,0:0:0:0:
329,192,58881,1,0,0:0:0:0:
256,192,58881,1,8,0:3:0:0:
402,192,59181,1,2,0:0:0:0:
475,192,59181,1,0,0:0:0:0:
182,192,59331,1,2,0:0:0:0:
109,192,59481,1,8,0:3:0:0:
36,192,59481,1,0,0:0:0:0:
329,192,59631,1,2,0:0:0:0:
402,192,59931,1,2,0:0:0:0:
256,192,60081,1,0,0:0:0:0:
475,192,60081,1,8,0:3:0:0:
182,192,60381,1,0,0:0:0:0:
329,192,60381,1,2,0:0:0:0:
36,192,60681,1,0,0:0:0:0:
256,192,60681,1,8,0:3:0:0:
109,192,60981,1,2,0:0:0:0:
329,192,61131,1,2,0:0:0:0:
256,192,61281,1,0,0:0:0:0:
402,192,61281,1,8,0:3:0:0:
475,192,61581,1,2,0:0:0:0:
182,192,61581,1,0,0:0:0:0:
256,192,61731,1,2,0:0:0:0:
402,192,61881,1,8,0:3:0:0:
109,192,61881,1,0,0:0:0:0:
36,192,62031,1,2,0:0:0:0:
182,192,62331,1,2,0:0:0:0:
256,192,62481,1,8,0:3:0:0:
109,192,62481,1,0,0:0:0:0:
36,192,62781,1,2,0:0:0:0:
475,192,62781,1,0,0:0:0:0:
256,192,63081,1,0,0:0:0:0:
402,192,63081,1,8,0:3:0:0:
329,192,63381,1,2,0:0:0:0:
109,192,63531,1,2,0:0:0:0:
256,192,63681,1,0,0:0:0:0:
182,192,63681,1,8,0:3:0:0:
36,192,63981,1,0,0:0:0:0:
329,192,63981,1,2,0:0:0:0:
182,192,64131,1,2,0:0:0:0:
109,192,64281,1,0,0:0:0:0:
475,192,64281,1,8,0:3:0:0:
329,192,64431,1,2,0:0:0:0:
402,192,64731,1,2,0:0:0:0:
256,192,64881,1,8,0:3:0:0:
36,192,64881,1,0,0:0:0:0:
329,192,65181,1,2,0:0:0:0:
109,192,65181,1,0,0:0:0:0:
475,192,65481,1,8,0:3:0:0:
182,192,65481,1,0,0:0:0:0:
402,192,65781,1,2,0:0:0:0:
329,192,66081,1,8,0:3:0:0:
36,192,66081,1,0,0:0:0:0:
256,192,66381,1,2,0:0:0:0:
182,192,66681,1,8,0:3:0:0:
475,192,66681,1,0,0:0:0:0:
109,192,66981,1,8,0:3:0:0:
402,192,66981,1,0,0:0:0:0:
36,192,67281,1,8,0:3:0:0:
329,192,67281,1,0,0:0:0:0:
402,192,67581,1,4,0:0:0:0:
109,192,67581,1,2,0:0:0:0:
256,192,67581,1,0,0:0:0:0:
36,192,67881,1,0,0:0:0:0:
475,192,67881,1,8,0:3:0:0:
256,192,68181,1,2,0:0:0:0:
182,192,68331,1,2,0:0:0:0:
36,192,68481,1,8,0:3:0:0:
475,192,68481,1,0,0:0:0:0:
182,192,68781,1,0,0:0:0:0:
329,192,68781,1,2,0:0:0:0:
36,192,68931,1,2,0:0:0:0:
109,192,69081,1,0,0:0:0:0:
402,192,69081,1,8,0:3:0:0:
329,192,69231,1,2,0:0:0:0:
182,192,69531,1,2,0:0:0:0:
256,192,69681,1,8,0:3:0:0:
36,192,69681,1,0,0:0:0:0:
109,192,69981,1,0,0:0:0:0:
329,192,69981,1,2,0:0:0:0:
402,192,70281,1,0,0:0:0:0:
475,192,70281,1,8,0:3:0:0:
182,192,70581,1,2,0:0:0:0:
36,192,70731,1,2,0:0:0:0:
109,192,70881,1,0,0:0:0:0:
329,192,70881,1,8,0:3:0:0:
256,192,71181,1,2,0:0:0:0:
475,192,71181,1,0,0:0:0:0:
109,192,71331,1,2,0:0:0:0:
182,192,71481,1,8,0:3:0:0:
402,192,71481,1,0,0:0:0:0:
36,192,71631,1,2,0:0:0:0:
109,192,71931,1,2,0:0:0:0:
475,192,72081,1,0,0:0:0:0:
329,192,72081,1,8,0:3:0:0:
256,192,72381,1,2,0:0:0:0:
402,192,72381,1,0,0:0:0:0:
182,192,72681,1,8,0:3:0:0:
36,192,72681,1,0,0:0:0:0:
109,192,72981,1,2,0:0:0:0:
182,192,73131,1,2,0:0:0:0:
256,192,73281,1,8,0:3:0:0:
329,192,73281,1,0,0:0:0:0:
109,192,73581,1,2,0:0:0:0:
36,192,73581,1,0,0:0:0:0:
329,192,73731,1,2,0:0:0:0:
256,192,73881,1,8,0:3:0:0:
475,192,73881,1,0,0:0:0:0:
402,192,74031,1,2,0:0:0:0:
329,192,74331,1,2,0:0:0:0:
256,192,74481,1,8,0:3:0:0:
36,192,74481,1,0,0:0:0:0:
182,192,74781,1,8,0:3:0:0:
329,192,74781,1,0,0:0:0:0:
182,192,75081,1,0,0:0:0:0:
329,192,75081,1,8,0:3:0:0:
182,192,75381,1,8,0:3:0:0:
329,192,75381,1,0,0:0:0:0:
109,192,75681,1,0,0:0:0:0:
402,192,75681,1,8,0:3:0:0:
256,192,75831,1,8,0:3:0:0:
475,192,75831,1,2,0:0:0:0:
36,192,76881,1,0,0:0:0:70:Tom1.wav
109,192,77181,1,4,0:0:0:0:
475,192,77181,1,2,0:0:0:0:
256,192,77181,1,0,0:0:0:0:
329,192,77481,1,0,0:0:0:0:
402,192,77481,1,0,0:0:0:70:clap.wav
182,192,77781,1,2,0:0:0:0:
256,192,77931,1,2,0:0:0:0:
109,192,78081,1,0,0:0:0:70:clap.wav
329,192,78081,1,0,0:0:0:0:
36,192,78231,1,2,0:0:0:0:
329,192,78531,1,2,0:0:0:0:
256,192,78681,1,0,0:0:0:0:
402,192,78681,1,0,0:0:0:70:clap.wav
109,192,78981,1,2,0:0:0:0:
402,192,79131,1,2,0:0:0:0:
256,192,79281,1,0,0:0:0:0:
182,192,79281,1,0,0:0:0:70:clap.wav
475,192,79581,1,2,0:0:0:0:
329,192,79881,1,0,0:0:0:70:clap.wav
402,192,79881,1,0,0:0:0:0:
182,192,80181,1,2,0:0:0:0:
329,192,80331,1,2,0:0:0:0:
475,192,80481,1,0,0:0:0:70:clap.wav
109,192,80481,1,0,0:0:0:0:
402,192,80631,1,2,0:0:0:0:
109,192,80931,1,2,0:0:0:0:
256,192,81081,1,0,0:0:0:0:
36,192,81081,1,0,0:0:0:70:clap.wav
182,192,81381,1,2,0:0:0:0:
36,192,81531,1,2,0:0:0:0:
256,192,81681,1,0,0:0:0:0:
475,192,81681,1,0,0:0:0:70:clap.wav
402,192,81981,1,0,0:0:0:0:
109,192,81981,1,2,0:0:0:0:
182,192,82281,1,0,0:0:0:70:clap.wav
329,192,82281,1,0,0:0:0:0:
36,192,82581,1,2,0:0:0:0:
109,192,82731,1,2,0:0:0:0:
475,192,82881,1,0,0:0:0:70:clap.wav
256,192,82881,1,0,0:0:0:0:
329,192,83031,1,2,0:0:0:0:
109,192,83331,1,2,0:0:0:0:
402,192,83481,1,0,0:0:0:70:clap.wav
256,192,83481,1,0,0:0:0:0:
36,192,83781,1,2,0:0:0:0:
182,192,83931,1,2,0:0:0:0:
475,192,84081,1,0,0:0:0:0:
329,192,84081,1,0,0:0:0:70:clap.wav
109,192,84381,1,0,0:0:0:0:
402,192,84381,1,2,0:0:0:0:
36,192,84681,1,0,0:0:0:70:clap.wav
475,192,84681,1,0,0:0:0:0:
329,192,84981,1,2,0:0:0:0:
256,192,85131,1,2,0:0:0:0:
182,192,85281,1,0,0:0:0:0:
402,192,85281,1,2,0:0:0:0:
475,192,85431,1,2,0:0:0:0:
36,192,85731,1,2,0:0:0:0:
256,192,86031,1,2,0:0:0:0:
329,192,86181,1,2,0:0:0:0:
402,192,86181,128,0,86481:0:0:0:0:
109,192,86481,128,0,86781:0:0:0:0:
182,192,86481,1,2,0:0:0:0:
36,192,86781,1,0,0:0:0:0:
475,192,86781,1,2,0:0:0:0:
256,192,86781,1,4,0:0:0:0:
109,192,87081,1,0,0:0:0:0:
402,192,87081,1,0,0:0:0:70:clap.wav
182,192,87381,1,2,0:0:0:0:
329,192,87531,1,2,0:0:0:0:
256,192,87681,1,0,0:0:0:70:clap.wav
36,192,87681,1,0,0:0:0:0:
402,192,87831,1,2,0:0:0:0:
329,192,88131,1,2,0:0:0:0:
256,192,88281,1,0,0:0:0:0:
182,192,88281,1,0,0:0:0:70:clap.wav
36,192,88581,1,2,0:0:0:0:
182,192,88731,1,2,0:0:0:0:
475,192,88881,1,0,0:0:0:70:clap.wav
402,192,88881,1,0,0:0:0:0:
109,192,89181,1,2,0:0:0:0:
36,192,89481,1,0,0:0:0:70:clap.wav
475,192,89481,1,0,0:0:0:0:
329,192,89781,1,2,0:0:0:0:
182,192,89931,1,2,0:0:0:0:
256,192,90081,1,0,0:0:0:0:
402,192,90081,1,0,0:0:0:70:clap.wav
109,192,90231,1,2,0:0:0:0:
182,192,90531,1,2,0:0:0:0:
256,192,90681,1,0,0:0:0:70:clap.wav
36,192,90681,1,0,0:0:0:0:
475,192,90981,1,2,0:0:0:0:
329,192,91131,1,2,0:0:0:0:
109,192,91281,1,0,0:0:0:70:clap.wav
182,192,91281,1,0,0:0:0:0:
256,192,91581,1,2,0:0:0:0:
402,192,91881,1,0,0:0:0:0:
109,192,91881,1,0,0:0:0:70:clap.wav
256,192,92181,1,2,0:0:0:0:
182,192,92331,1,2,0:0:0:0:
475,192,92481,1,0,0:0:0:70:clap.wav
329,192,92481,1,0,0:0:0:0:
36,192,92631,1,2,0:0:0:0:
182,192,92931,1,2,0:0:0:0:
256,192,93081,1,0,0:0:0:70:clap.wav
109,192,93081,1,0,0:0:0:0:
329,192,93381,1,2,0:0:0:0:
402,192,93531,1,2,0:0:0:0:
36,192,93681,1,0,0:0:0:0:
256,192,93681,1,0,0:0:0:70:clap.wav
402,192,93981,1,2,0:0:0:0:
109,192,93981,1,0,0:0:0:70:HHClose.wav
402,192,94281,1,2,0:0:0:0:
109,192,94281,1,0,0:0:0:70:HHClose.wav
402,192,94581,1,2,0:0:0:0:
109,192,94581,1,0,0:0:0:70:HHClose.wav
182,192,94881,1,0,0:0:0:70:HHClose.wav
329,192,94881,1,2,0:0:0:0:
36,192,95031,1,0,0:0:0:70:HHClose.wav
475,192,95031,1,0,0:0:0:70:clap.wav
256,192,95331,1,2,0:0:0:0:
402,192,95631,1,0,0:0:0:70:HHClose.wav
182,192,95781,1,0,0:0:0:70:HHClose.wav
329,192,95931,1,0,0:0:0:70:HHClose.wav
109,192,96081,1,0,0:0:0:70:HHClose.wav
475,192,96681,128,4,98631:0:0:0:0:
36,192,96681,128,2,98631:0:0:0:0:
