osu file format v14

[General]
AudioFilename: beatmap-637301306135521784-asdad.mp3
AudioLeadIn: 0
PreviewTime: 48013
Countdown: 0
SampleSet: Soft
StackLeniency: 0.7
Mode: 2
LetterboxInBreaks: 0
WidescreenStoryboard: 0

[Editor]
DistanceSpacing: 1
BeatDivisor: 8
GridSize: 32
TimelineZoom: 1.7

[Metadata]
Title:Colors Power ni Omakasero! (Sober Bear Remix)
TitleUnicode:カラーズぱわーにおまかせろ!(Sober Bear Remix)
Artist:Colors*Slash
ArtistUnicode:カラーズ☆スラッシュ
Creator:Jemzuu
Version:Overdose
Source:三ツ星カラーズ
Tags:ajamez greaper future bass japanese anime electronic カラーズ☆スラッシュ Sober_Bear 結衣 Yui 高田憂希 Takada Yuuki さっちゃん Sat-chan 高野麻里佳 Kouno Marika 琴葉 Kotoha 日岡なつみ Hioka Natsumi OP Opening
BeatmapID:2524808
BeatmapSetID:1213101

[Difficulty]
HPDrainRate:6
CircleSize:4
OverallDifficulty:9.5
ApproachRate:9.5
SliderMultiplier:2.4
SliderTickRate:2

[Events]
//Background and Video events
0,0,"1043979.jpg",0,0
//Break Periods
2,62035,67738
//Storyboard Layer 0 (Background)
//Storyboard Layer 1 (Fail)
//Storyboard Layer 2 (Pass)
//Storyboard Layer 3 (Foreground)
//Storyboard Layer 4 (Overlay)
//Storyboard Sound Samples

[TimingPoints]
121,428.571428571429,4,2,0,60,1,0
121,-117.647058823529,4,2,0,60,0,0
6549,-100,4,2,1,60,0,0
6871,-100,4,2,1,60,0,0
6978,-100,4,2,2,60,0,0
13835,-39.2156862745098,4,2,1,70,0,1
14263,-83.3333333333333,4,2,1,70,0,1
17263,-66.6666666666667,4,2,1,70,0,1
17692,-83.3333333333333,4,2,1,70,0,1
20263,-100,4,2,1,60,0,0
20692,-37.7358490566038,4,2,1,70,0,1
21121,-83.3333333333333,4,2,1,70,0,1
24121,-62.5,4,2,1,70,0,1
24549,-83.3333333333333,4,2,1,70,0,1
27549,-100,4,2,2,60,0,0
27656,-100,4,2,0,60,0,0
34299,-100,4,2,1,5,0,0
34406,-100,4,2,20,60,0,0
35049,-100,4,2,2,60,0,0
35692,-100,4,2,1,60,0,0
35906,-100,4,2,2,60,0,0
36549,-100,4,2,1,60,0,0
36978,-100,4,2,2,60,0,0
37192,-100,4,2,1,60,0,0
38692,-100,4,2,2,60,0,0
39121,-100,4,2,1,60,0,0
39335,-100,4,2,2,60,0,0
39763,-100,4,2,1,60,0,0
40406,-100,4,2,2,60,0,0
40621,-100,4,2,1,60,0,0
41263,-100,4,2,2,60,0,0
48121,-38.4615384615385,4,2,1,70,0,1
48549,-83.3333333333333,4,2,1,70,0,1
51549,-66.6666666666667,4,2,1,70,0,1
51978,-83.3333333333333,4,2,1,70,0,1
54549,-100,4,2,2,60,0,0
54978,-38.4615384615385,4,2,40,70,0,1
55406,-83.3333333333333,4,2,1,70,0,1
58406,-66.6666666666667,4,2,1,70,0,1
58835,-83.3333333333333,4,2,1,70,0,1
61835,-100,4,2,2,60,0,0
61942,-100,4,2,1,60,0,0
68692,-100,4,2,2,60,0,0
75549,-36.3636363636364,4,2,1,70,0,1
76406,-36.3636363636364,4,2,99,70,0,1
76621,-36.3636363636364,4,2,1,70,0,1
76835,-36.3636363636364,4,2,98,70,0,1
77049,-36.3636363636364,4,2,1,70,0,1
77263,-83.3333333333333,4,2,1,70,0,1
77478,-83.3333333333333,4,2,3,70,0,1
87549,-57.1428571428571,4,2,3,70,0,1
87978,-57.1428571428571,4,2,98,70,0,1
88192,-57.1428571428571,4,2,1,70,0,1
88406,-57.1428571428571,4,2,99,70,0,1
88621,-57.1428571428571,4,2,1,70,0,1
89263,-90.9090909090909,4,2,2,60,0,0
97085,-100,4,2,1,60,0,0
97942,-100,4,2,1,10,0,0
98585,-100,4,2,1,15,0,0
99442,-100,4,2,1,30,0,0
100299,-100,4,2,1,40,0,0
101049,-100,4,2,1,50,0,0
101263,-36.3636363636364,4,2,1,70,0,1
101692,-80,4,2,1,70,0,1
104263,-100,4,2,2,60,0,0
104692,-38.4615384615385,4,2,40,70,0,1
105121,-80,4,2,1,70,0,1
108121,-62.5,4,2,1,70,0,1
108549,-80,4,2,1,70,0,1
110692,-100,4,2,2,60,0,0
111549,-37.037037037037,4,2,1,70,0,1
111978,-76.9230769230769,4,2,1,70,0,1
114978,-66.6666666666667,4,2,1,70,0,1
115406,-76.9230769230769,4,2,1,70,0,1
117978,-100,4,2,2,60,0,0
118406,-37.037037037037,4,2,40,70,0,1
118835,-71.4285714285714,4,2,1,70,0,1
121835,-62.5,4,2,1,70,0,1
122263,-71.4285714285714,4,2,1,70,0,1
125263,-100,4,2,2,60,0,0
125371,-100,4,2,0,50,0,0
132121,-100,4,2,0,15,0,0

[Colours]
Combo1 : 140,255,198
Combo2 : 128,255,255
Combo3 : 64,184,255

[HitObjects]
443,295,121,6,0,P|486:227|317:97,1,306.000005836487,2|0,0:0|0:0,0:0:0:0:
170,46,978,2,0,L|447:187,1,306.000005836487,0|0,0:0|0:0,0:0:0:0:
251,208,1835,2,0,P|109:208|30:345,1,306.000005836487,2|0,0:0|0:0,0:0:0:0:
225,366,2692,2,0,L|485:203,1,306.000005836487,2|0,0:0|0:0,0:0:0:0:
295,27,3549,6,0,P|216:38|408:335,1,714.000013618469,2|0,0:0|0:0,0:0:0:0:
211,358,5263,2,0,P|125:360|50:169,1,306.000005836487,2|0,0:0|0:0,0:0:0:0:
233,35,6121,2,0,P|303:50|322:199,1,204.000003890991,2|8,0:0|0:1,0:0:0:0:
293,196,6621,1,8,0:1:0:0:
239,210,6692,1,8,0:1:0:0:
174,210,6763,1,8,0:2:0:0:
485,266,6978,5,12,0:3:0:0:
500,208,7085,1,0,0:0:0:0:
485,266,7192,1,0,0:0:0:0:
500,208,7299,1,0,0:0:0:0:
372,358,7406,1,8,0:3:0:0:
366,298,7513,1,0,0:0:0:0:
372,358,7621,1,0,0:0:0:0:
366,298,7728,1,0,0:0:0:0:
234,275,7835,5,8,0:3:0:0:
205,222,7942,1,0,0:0:0:0:
234,275,8049,1,0,0:0:0:0:
365,218,8156,1,8,0:3:0:0:
398,168,8263,1,0,0:0:0:0:
365,218,8371,1,0,0:0:0:0:
262,126,8478,2,0,L|336:115,1,60,8|0,0:3|0:0,0:0:0:0:
64,69,8692,5,8,0:3:0:0:
33,120,8799,1,0,0:0:0:0:
64,69,8906,1,0,0:0:0:0:
33,120,9013,1,0,0:0:0:0:
166,151,9121,1,8,0:3:0:0:
173,210,9228,1,0,0:0:0:0:
166,151,9335,1,0,0:0:0:0:
173,210,9442,1,0,0:0:0:0:
306,243,9549,5,8,0:3:0:0:
344,289,9656,1,0,0:0:0:0:
306,243,9763,1,0,0:0:0:0:
173,305,9871,1,8,0:3:0:0:
113,302,9978,1,0,0:0:0:0:
173,305,10085,1,0,0:0:0:0:
389,46,10192,2,0,L|297:49,1,60,8|8,0:3|0:3,0:0:0:0:
71,66,10406,5,8,0:3:0:0:
19,192,10621,1,8,0:3:0:0:
211,110,10835,1,8,0:3:0:0:
63,219,11049,1,8,0:3:0:0:
283,212,11263,1,8,0:3:0:0:
91,263,11478,1,8,0:3:0:0:
321,328,11692,1,8,0:3:0:0:
112,309,11906,1,8,0:3:0:0:
417,338,12121,5,8,0:3:0:0:
473,326,12228,1,8,0:3:0:0:
497,273,12335,1,8,0:3:0:0:
468,223,12442,1,8,0:3:0:0:
235,41,12549,2,0,L|138:28,1,60,8|8,0:3|0:3,0:0:0:0:
408,230,12763,2,0,L|486:220,1,60,8|8,0:3|0:3,0:0:0:0:
137,346,12978,5,10,0:2:0:0:
478,70,13835,6,0,B|175:32|175:32|262:167|262:167|164:324,1,611.999991828919,6|0,0:0|0:0,0:0:0:0:
195,320,14478,2,0,L|284:328,1,71.9999978027344,2|2,0:0|0:0,0:0:0:0:
42,356,14692,2,0,L|30:203,1,143.999995605469,10|8,0:0|0:1,0:0:0:0:
249,105,15013,2,0,L|84:91,1,143.999995605469,2|2,0:0|0:3,0:0:0:0:
328,39,15335,6,0,L|352:131,3,71.9999978027344,6|0|0|0,0:0|0:0|0:0|0:0,0:0:0:0:
130,175,15763,2,0,L|163:242,1,71.9999978027344,2|0,0:0|0:0,0:0:0:0:
264,263,15978,1,2,0:3:0:0:
36,286,16085,2,0,L|126:321,1,71.9999978027344,2|0,0:0|0:0,0:0:0:0:
322,333,16299,1,2,0:3:0:0:
97,384,16406,6,0,L|81:228,1,143.999995605469,10|8,0:0|0:1,0:0:0:0:
310,64,16728,2,0,L|277:131,1,71.9999978027344,2|8,0:0|0:1,0:0:0:0:
176,141,16943,1,8,0:1:0:0:
407,196,17049,2,0,L|507:203,1,71.9999978027344,2|0,0:0|0:0,0:0:0:0:
233,341,17263,6,0,B|82:240|82:240|76:39,1,360.000013732911,6|0,0:0|0:0,0:0:0:0:
251,5,17906,2,0,L|158:0,1,71.9999978027344,2|2,0:0|0:0,0:0:0:0:
386,115,18121,2,0,B|454:131|454:131|480:205,1,143.999995605469,10|8,0:0|0:1,0:0:0:0:
253,258,18442,2,0,B|329:302|329:302|388:288,1,143.999995605469,2|2,0:0|0:3,0:0:0:0:
168,355,18763,6,0,L|150:273,2,71.9999978027344,6|0|0,0:0|0:0|0:0,0:0:0:0:
273,370,19085,1,0,0:0:0:0:
65,225,19192,2,0,L|131:181,1,71.9999978027344,2|0,0:0|0:0,0:0:0:0:
217,178,19406,1,0,0:0:0:0:
15,97,19513,1,2,0:0:0:0:
225,215,19621,2,0,L|159:259,1,71.9999978027344,2|0,0:0|0:0,0:0:0:0:
76,260,19835,1,8,0:0:0:0:
315,124,19942,2,0,L|337:203,1,71.9999978027344,2|0,0:0|0:0,0:0:0:0:
86,296,20156,2,0,L|62:399,1,71.9999978027344,2|0,0:0|0:0,0:0:0:0:
460,253,20692,6,0,B|144:213|144:213|245:89|245:89|141:218,1,636.000026687623,6|0,0:0|0:0,0:0:0:0:
154,244,21335,2,0,L|264:258,1,71.9999978027344,2|2,0:0|0:0,0:0:0:0:
23,33,21549,2,0,B|48:68|48:68|161:69,1,143.999995605469,10|8,0:0|0:1,0:0:0:0:
366,172,21871,2,0,B|341:137|341:137|228:136,1,143.999995605469,2|2,0:0|0:3,0:0:0:0:
465,338,22192,6,0,L|490:233,3,71.9999978027344,6|0|0|0,0:0|0:0|0:0|0:0,0:0:0:0:
248,351,22621,2,0,L|285:284,1,71.9999978027344,2|0,0:0|0:0,0:0:0:0:
383,290,22835,1,2,0:3:0:0:
152,262,22942,2,0,L|222:222,1,71.9999978027344,2|0,0:0|0:0,0:0:0:0:
422,213,23156,1,2,0:3:0:0:
192,132,23263,2,0,L|358:93,1,143.999995605469,10|8,0:0|0:1,0:0:0:0:
130,55,23585,2,0,L|44:47,2,71.9999978027344,2|8|8,0:0|0:1|0:1,0:0:0:0:
338,127,23906,2,0,L|224:124,1,71.9999978027344,2|0,0:0|0:0,0:0:0:0:
35,327,24121,6,0,B|201:412|201:412|202:179,1,384,6|0,0:0|0:0,0:0:0:0:
19,174,24763,2,0,L|125:164,1,71.9999978027344,2|2,0:0|0:0,0:0:0:0:
298,50,24978,2,0,B|251:17|251:17|128:18,1,143.999995605469,10|8,0:0|0:1,0:0:0:0:
376,151,25299,2,0,B|423:184|423:184|546:183,1,143.999995605469,2|2,0:0|0:3,0:0:0:0:
279,326,25621,6,0,L|264:255,2,71.9999978027344,6|0|0,0:0|0:0|0:0,0:0:0:0:
384,355,25942,1,2,0:3:0:0:
165,209,26049,2,0,L|246:185,1,71.9999978027344,2|0,0:0|0:0,0:0:0:0:
145,134,26263,1,0,0:0:0:0:
361,37,26371,2,0,L|273:31,1,71.9999978027344,2|0,0:0|0:0,0:0:0:0:
94,66,26585,1,2,0:0:0:0:
292,59,26692,5,8,0:0:0:0:
90,94,26799,2,0,L|14:108,1,71.9999978027344,2|8,0:0|0:1,0:0:0:0:
284,226,27013,2,0,L|233:294,1,71.9999978027344,2|0,0:0|0:0,0:0:0:0:
143,296,27228,1,8,0:1:0:0:
403,338,27335,2,0,L|487:344,1,71.9999978027344,2|0,0:0|0:0,0:0:0:0:
186,369,27549,5,4,0:0:0:0:
495,154,29263,1,2,0:0:0:0:
30,80,30121,1,2,0:0:0:0:
310,29,30763,1,0,0:0:0:0:
389,20,30871,1,0,0:0:0:0:
470,27,30978,6,0,L|461:178,1,120,2|0,0:0|0:0,0:0:0:0:
386,160,31299,1,0,0:0:0:0:
308,158,31406,2,0,L|291:294,1,120,0|0,0:0|0:0,0:0:0:0:
211,300,31728,1,0,0:0:0:0:
127,313,31835,2,0,L|108:175,1,120,0|0,0:0|0:0,0:0:0:0:
194,164,32156,1,0,0:0:0:0:
279,162,32263,1,0,0:0:0:0:
28,47,32692,6,0,P|11:120|220:250,1,360,2|0,0:0|0:0,0:0:0:0:
429,230,33549,2,0,P|273:112|83:191,1,420,2|0,0:0|0:0,0:0:0:0:
330,324,34406,6,0,P|402:313|336:109,1,360,6|0,0:0|0:0,0:0:0:0:
154,57,35263,2,0,L|342:30,1,180,8|0,0:0|0:0,0:0:0:0:
410,33,35692,1,2,0:0:0:0:
208,148,35906,2,0,L|195:276,1,120,8|0,0:0|0:0,0:0:0:0:
400,303,36335,1,8,0:0:0:0:
187,349,36549,2,0,L|41:337,1,120,2|0,0:0|0:0,0:0:0:0:
265,229,36978,5,8,0:0:0:0:
47,165,37192,2,0,L|205:146,1,120,2|0,0:0|0:0,0:0:0:0:
199,139,37460,1,0,0:0:0:0:
234,128,37513,1,0,0:0:0:0:
115,80,37621,2,0,L|109:27,2,30,0|0|0,0:0|0:0|0:0,0:0:0:0:
318,89,37835,6,0,L|406:84,1,60,2|0,0:0|0:0,0:0:0:0:
289,158,38049,1,0,0:0:0:0:
376,162,38156,1,0,0:0:0:0:
463,164,38263,2,0,L|473:304,1,120,0|0,0:0|0:0,0:0:0:0:
386,306,38585,1,0,0:0:0:0:
298,319,38692,2,0,L|158:306,1,120,8|0,0:0|0:0,0:0:0:0:
265,253,39013,1,0,0:0:0:0:
357,231,39121,1,2,0:0:0:0:
148,196,39335,1,8,0:0:0:0:
450,229,39549,6,0,L|459:98,1,120,0|2,0:0|0:0,0:0:0:0:
250,48,39978,2,0,L|267:188,1,120,2|0,0:0|0:0,0:0:0:0:
298,176,40246,1,0,0:0:0:0:
334,179,40299,1,0,0:0:0:0:
374,176,40353,1,0,0:0:0:0:
417,171,40406,1,8,0:0:0:0:
194,209,40621,2,0,L|263:331,1,120,2|8,0:0|0:1,0:0:0:0:
301,342,40906,1,8,0:1:0:0:
356,350,40978,1,8,0:1:0:0:
417,347,41049,1,8,0:0:0:0:
110,358,41263,5,12,0:3:0:0:
91,300,41371,1,0,0:0:0:0:
110,358,41478,1,0,0:0:0:0:
91,300,41585,1,0,0:0:0:0:
223,266,41692,1,8,0:3:0:0:
229,206,41799,1,0,0:0:0:0:
223,266,41906,1,0,0:0:0:0:
229,206,42013,1,0,0:0:0:0:
365,191,42121,5,8,0:3:0:0:
405,146,42228,1,0,0:0:0:0:
365,191,42335,1,0,0:0:0:0:
228,113,42442,1,8,0:3:0:0:
181,75,42549,1,0,0:0:0:0:
228,113,42656,1,0,0:0:0:0:
353,35,42763,2,0,L|247:31,1,60,8|0,0:3|0:0,0:0:0:0:
28,160,42978,5,8,0:3:0:0:
18,219,43085,1,0,0:0:0:0:
28,160,43192,1,0,0:0:0:0:
18,219,43299,1,0,0:0:0:0:
139,229,43406,2,0,L|148:306,1,60,8|0,0:3|0:0,0:0:0:0:
41,312,43621,2,0,L|31:387,1,60,0|0,0:0|0:0,0:0:0:0:
165,371,43835,5,8,0:3:0:0:
174,311,43942,1,0,0:0:0:0:
165,371,44049,1,0,0:0:0:0:
299,294,44156,1,8,0:3:0:0:
333,244,44263,1,0,0:0:0:0:
299,294,44371,1,0,0:0:0:0:
74,126,44478,2,0,L|141:119,1,60,8|8,0:3|0:3,0:0:0:0:
406,64,44692,5,8,0:3:0:0:
460,197,44907,1,8,0:3:0:0:
256,109,45121,1,8,0:3:0:0:
413,226,45335,1,8,0:3:0:0:
178,218,45549,1,8,0:3:0:0:
382,273,45764,1,8,0:3:0:0:
137,341,45978,1,8,0:3:0:0:
362,321,46192,1,8,0:3:0:0:
59,275,46406,5,8,0:3:0:0:
31,224,46513,1,8,0:3:0:0:
55,171,46620,1,8,0:3:0:0:
112,160,46727,1,8,0:3:0:0:
333,53,46835,2,0,L|405:42,1,60,8|8,0:3|0:3,0:0:0:0:
123,292,47049,2,0,L|43:300,1,60,8|8,0:3|0:3,0:0:0:0:
303,188,47263,5,10,0:2:0:0:
296,227,47692,2,0,L|246:228,2,30,0|0|0,0:0|0:0|0:0,0:0:0:0:
402,345,47906,2,0,L|450:343,2,30,0|0|0,0:0|0:0|0:0,0:0:0:0:
157,333,48121,6,0,B|470:292|470:292|348:197|348:197|474:296,1,623.999971435548,6|0,0:0|0:0,0:0:0:0:
454,260,48763,2,0,L|362:256,1,71.9999978027344,2|2,0:0|0:0,0:0:0:0:
165,126,48978,2,0,B|211:97|211:97|352:100,1,143.999995605469,10|8,0:0|0:1,0:0:0:0:
61,243,49299,2,0,B|15:183|15:183|70:117,1,143.999995605469,2|2,0:0|0:3,0:0:0:0:
300,118,49621,6,0,L|323:193,3,71.9999978027344,6|0|0|0,0:0|0:0|0:0|0:0,0:0:0:0:
102,247,50049,2,0,L|149:311,1,71.9999978027344,2|0,0:0|0:0,0:0:0:0:
250,325,50263,1,2,0:3:0:0:
21,186,50371,2,0,L|92:146,1,71.9999978027344,2|0,0:0|0:0,0:0:0:0:
295,137,50585,1,2,0:3:0:0:
81,57,50692,6,0,L|232:46,1,143.999995605469,10|8,0:0|0:1,0:0:0:0:
437,173,51013,1,2,0:0:0:0:
341,248,51121,2,0,L|431:259,1,71.9999978027344,8|8,0:1|0:1,0:0:0:0:
183,348,51335,2,0,L|83:362,1,71.9999978027344,2|0,0:0|0:0,0:0:0:0:
359,372,51549,6,0,B|497:259|497:259|497:40,1,360.000013732911,6|0,0:0|0:0,0:0:0:0:
322,33,52192,2,0,L|417:28,1,71.9999978027344,2|2,0:0|0:0,0:0:0:0:
166,153,52406,2,0,L|21:164,1,143.999995605469,10|8,0:0|0:1,0:0:0:0:
252,224,52728,1,2,0:0:0:0:
72,292,52942,1,2,0:3:0:0:
306,354,53049,6,0,L|328:268,2,71.9999978027344,6|0|0,0:0|0:0|0:0,0:0:0:0:
207,369,53371,1,0,0:0:0:0:
430,237,53478,2,0,L|386:179,1,71.9999978027344,2|0,0:0|0:0,0:0:0:0:
285,172,53692,1,0,0:0:0:0:
505,103,53799,1,2,0:0:0:0:
271,80,53906,2,0,L|344:39,1,71.9999978027344,2|0,0:0|0:0,0:0:0:0:
439,43,54121,5,8,0:0:0:0:
220,12,54228,2,0,L|135:6,1,71.9999978027344,2|0,0:0|0:0,0:0:0:0:
380,175,54442,2,0,L|262:195,1,71.9999978027344,2|8,0:0|0:1,0:0:0:0:
481,300,54763,1,4,0:1:0:0:
115,358,54978,6,0,B|416:266|416:266|324:142|324:142|421:276,1,623.999971435548,6|0,1:1|0:0,0:0:0:0:
402,298,55621,2,0,L|310:313,1,71.9999978027344,2|2,0:0|0:0,0:0:0:0:
119,248,55835,2,0,B|185:205|185:205|273:200,1,143.999995605469,10|8,0:0|0:1,0:0:0:0:
24,134,56156,2,0,B|90:91|90:91|178:86,1,143.999995605469,2|2,0:0|0:3,0:0:0:0:
387,93,56478,6,0,L|406:180,3,71.9999978027344,6|0|0|0,0:0|0:0|0:0|0:0,0:0:0:0:
170,197,56906,2,0,L|217:258,1,71.9999978027344,2|0,0:0|0:0,0:0:0:0:
315,269,57121,1,2,0:3:0:0:
87,313,57228,2,0,L|4:315,1,71.9999978027344,2|0,0:0|0:0,0:0:0:0:
229,358,57442,1,2,0:3:0:0:
11,300,57549,6,0,L|34:155,1,143.999995605469,10|8,0:0|0:1,0:0:0:0:
279,111,57871,2,0,L|214:66,1,71.9999978027344,2|8,0:0|0:1,0:0:0:0:
116,61,58085,1,8,0:1:0:0:
338,200,58192,2,0,L|259:195,1,71.9999978027344,2|0,0:0|0:0,0:0:0:0:
492,316,58406,6,0,B|327:253|327:253|326:69,1,360.000013732911,6|0,0:0|0:0,0:0:0:0:
139,38,59049,2,0,L|229:26,1,71.9999978027344,2|2,0:0|0:0,0:0:0:0:
452,47,59263,2,0,L|461:204,1,143.999995605469,10|8,0:0|0:1,0:0:0:0:
231,303,59585,2,0,L|395:330,1,143.999995605469,2|2,0:0|0:3,0:0:0:0:
145,262,59906,6,0,L|117:188,2,71.9999978027344,6|0|0,0:0|0:0|0:0,0:0:0:0:
237,303,60228,1,2,0:3:0:0:
24,242,60335,1,2,0:0:0:0:
103,341,60442,1,0,0:0:0:0:
24,242,60549,1,0,0:0:0:0:
237,131,60656,2,0,L|154:129,1,71.9999978027344,2|0,0:0|0:0,0:0:0:0:
383,45,60871,1,2,0:0:0:0:
163,32,60978,5,8,0:0:0:0:
393,83,61085,2,0,L|465:87,1,71.9999978027344,2|8,0:0|0:1,0:0:0:0:
238,214,61299,2,0,L|290:267,1,71.9999978027344,2|0,0:0|0:0,0:0:0:0:
378,268,61513,1,8,0:1:0:0:
133,342,61621,2,0,L|48:341,1,71.9999978027344,2|0,0:0|0:0,0:0:0:0:
424,334,61835,5,4,0:0:0:0:
48,256,68263,5,8,0:1:0:0:
33,219,68334,1,8,0:1:0:0:
49,183,68405,1,8,0:1:0:0:
85,169,68477,1,8,0:0:0:0:
450,147,68692,5,12,0:3:0:0:
461,205,68799,1,0,0:0:0:0:
450,147,68906,1,0,0:0:0:0:
461,205,69013,1,0,0:0:0:0:
330,245,69121,1,8,0:3:0:0:
325,304,69228,1,0,0:0:0:0:
330,245,69335,1,0,0:0:0:0:
325,304,69442,1,0,0:0:0:0:
194,312,69549,5,8,0:3:0:0:
166,365,69656,1,0,0:0:0:0:
194,312,69763,1,0,0:0:0:0:
330,217,69871,1,8,0:3:0:0:
358,164,69978,1,0,0:0:0:0:
330,217,70085,1,0,0:0:0:0:
212,109,70192,2,0,L|284:104,1,60,8|0,0:3|0:0,0:0:0:0:
26,18,70406,5,8,0:3:0:0:
14,76,70513,1,0,0:0:0:0:
26,18,70621,1,0,0:0:0:0:
14,76,70728,1,0,0:0:0:0:
141,108,70835,1,8,0:3:0:0:
152,166,70942,1,0,0:0:0:0:
141,108,71049,1,0,0:0:0:0:
152,166,71156,1,0,0:0:0:0:
281,207,71263,5,8,0:3:0:0:
316,255,71371,1,0,0:0:0:0:
281,207,71478,1,0,0:0:0:0:
150,215,71585,1,8,0:3:0:0:
112,261,71692,1,0,0:0:0:0:
150,215,71799,1,0,0:0:0:0:
376,106,71906,2,0,L|263:106,1,60,8|8,0:3|0:3,0:0:0:0:
73,319,72121,5,8,0:3:0:0:
19,186,72336,1,8,0:3:0:0:
223,274,72550,1,8,0:3:0:0:
66,157,72764,1,8,0:3:0:0:
301,165,72978,1,8,0:3:0:0:
97,110,73193,1,8,0:3:0:0:
343,40,73407,1,8,0:3:0:0:
118,60,73621,1,8,0:3:0:0:
421,104,73835,5,8,0:3:0:0:
358,120,73942,1,8,0:3:0:0:
287,133,74049,1,8,0:3:0:0:
206,137,74156,1,8,0:3:0:0:
437,243,74263,2,0,L|515:246,1,60,8|8,0:3|0:3,0:0:0:0:
235,333,74478,2,0,L|148:350,1,60,8|8,0:3|0:3,0:0:0:0:
461,384,74692,5,10,0:2:0:0:
481,230,75549,6,0,B|156:189|156:189|260:86|260:86|332:257|332:257|263:394|263:394|151:263|151:263|306:-12|306:-12|310:171|310:171|304:6|304:6|103:156|103:156|97:357|97:357|103:156|103:156|174:20|174:20|317:156,1,2640.000025177,4|0,0:0|0:0,0:0:0:0:
13,36,77478,5,2,0:0:0:0:
200,118,77692,2,0,B|181:157|181:157|53:158,1,143.999995605469,6|2,0:0|0:0,0:0:0:0:
395,379,78121,2,0,B|415:307|415:307|380:224,1,143.999995605469,10|2,0:0|0:0,0:0:0:0:
274,175,78442,2,0,P|342:129|425:139,1,143.999995605469,2|0,0:0|0:0,0:0:0:0:
492,163,78763,1,2,0:0:0:0:
165,118,78978,6,0,P|147:205|192:282,1,143.999995605469,6|2,0:0|0:0,0:0:0:0:
277,297,79299,2,0,P|212:354|128:350,1,143.999995605469,2|2,0:0|0:0,0:0:0:0:
396,219,79621,2,0,B|349:190|349:190|235:191,1,143.999995605469,2|10,0:0|0:0,0:0:0:0:
149,115,79942,2,0,B|196:86|196:86|310:87,1,143.999995605469,2|2,0:0|0:0,0:0:0:0:
51,31,80263,1,6,0:0:0:0:
35,169,80478,1,2,0:0:0:0:
342,7,80692,6,0,P|263:-1|186:34,1,143.999995605469,2|2,0:0|0:0,0:0:0:0:
439,137,81013,2,0,B|472:206|472:206|438:280,1,143.999995605469,2|2,0:0|0:0,0:0:0:0:
215,367,81335,2,0,B|265:336|265:336|368:335,1,143.999995605469,2|10,0:0|0:0,0:0:0:0:
461,213,81656,2,0,B|411:244|411:244|308:245,1,143.999995605469,2|2,0:0|0:0,0:0:0:0:
210,243,81978,2,0,B|260:160|260:160|400:144,1,215.999993408203,2|0,0:0|0:0,0:0:0:0:
158,78,82406,5,2,0:0:0:0:
236,64,82513,1,2,0:0:0:0:
155,34,82621,1,2,0:0:0:0:
70,29,82728,1,2,0:0:0:0:
174,4,82835,2,0,L|185:149,1,143.999995605469,2|2,0:0|0:0,0:0:0:0:
305,122,83156,2,0,L|322:268,1,143.999995605469,2|2,0:0|0:0,0:0:0:0:
107,291,83478,1,2,0:0:0:0:
29,337,83585,2,0,L|199:360,1,143.999995605469,2|2,0:0|0:0,0:0:0:0:
92,312,83906,1,2,0:0:0:0:
172,288,84013,1,2,0:0:0:0:
398,232,84121,5,2,0:0:0:0:
319,217,84228,1,2,0:0:0:0:
410,181,84335,1,6,0:0:0:0:
321,170,84442,1,2,0:0:0:0:
227,168,84549,2,0,L|216:15,1,143.999995605469,6|2,0:0|0:0,0:0:0:0:
432,9,84871,1,2,0:0:0:0:
211,52,84978,2,0,L|130:59,1,71.9999978027344,10|2,0:0|0:0,0:0:0:0:
227,92,85192,2,0,L|335:100,1,71.9999978027344,2|2,0:0|0:0,0:0:0:0:
89,200,85406,1,2,0:0:0:0:
306,271,85513,2,0,L|417:274,2,71.9999978027344,2|2|2,0:0|0:0|0:0,0:0:0:0:
55,362,85835,6,0,L|37:198,1,143.999995605469,6|2,0:0|0:0,0:0:0:0:
247,92,86263,2,0,L|52:77,1,143.999995605469,2|2,0:0|0:0,0:0:0:0:
448,25,86692,2,0,L|463:190,1,143.999995605469,10|2,0:0|0:0,0:0:0:0:
246,238,87121,1,6,0:0:0:0:
466,315,87335,1,2,0:0:0:0:
92,366,87549,6,0,B|11:171|11:171|212:238|212:238|250:141|250:141|209:46|209:46|25:144|25:144|140:315|140:315|7:142|7:142|11:29,1,1365.00001301765,2|8,0:0|0:1,0:0:0:0:
48,75,88996,1,8,0:1:0:0:
95,92,89049,1,8,0:1:0:0:
175,112,89156,1,8,0:1:0:0:
461,232,89263,5,12,0:3:0:0:
473,296,89371,1,0,0:0:0:0:
461,232,89478,1,0,0:0:0:0:
473,296,89585,1,0,0:0:0:0:
327,285,89692,1,8,0:3:0:0:
322,350,89799,1,0,0:0:0:0:
327,285,89906,1,0,0:0:0:0:
322,350,90013,1,0,0:0:0:0:
176,228,90121,5,8,0:3:0:0:
138,282,90228,1,0,0:0:0:0:
176,228,90335,1,0,0:0:0:0:
320,172,90442,1,8,0:3:0:0:
384,158,90549,1,0,0:0:0:0:
320,172,90656,1,0,0:0:0:0:
103,65,90763,2,0,L|209:59,1,66.0000020141602,8|0,0:3|0:3,0:0:0:0:
452,69,90978,5,12,0:3:0:0:
472,131,91085,1,0,0:0:0:0:
452,69,91192,1,0,0:0:0:0:
472,131,91299,1,0,0:0:0:0:
335,266,91406,2,0,L|317:346,1,66.0000020141602,8|0,0:3|0:3,0:0:0:0:
440,234,91621,2,0,L|461:299,1,66.0000020141602,0|0,0:3|0:3,0:0:0:0:
315,185,91835,5,8,0:3:0:0:
260,147,91942,1,0,0:0:0:0:
315,185,92049,1,0,0:0:0:0:
446,102,92156,1,8,0:3:0:0:
501,66,92263,1,0,0:0:0:0:
446,102,92371,1,0,0:0:0:0:
239,20,92478,2,0,L|348:22,1,66.0000020141602,8|0,0:3|0:3,0:0:0:0:
73,90,92692,5,8,0:3:0:0:
28,134,92799,1,0,0:3:0:0:
46,194,92906,1,0,0:3:0:0:
108,207,93013,1,0,0:3:0:0:
210,214,93121,2,0,L|222:289,1,66.0000020141602,8|0,0:3|0:3,0:0:0:0:
110,288,93335,2,0,L|100:366,1,66.0000020141602,0|0,0:3|0:3,0:0:0:0:
337,364,93549,5,8,0:3:0:0:
402,356,93656,1,0,0:0:0:0:
337,364,93763,1,0,0:0:0:0:
209,361,93871,1,8,0:3:0:0:
168,308,93978,1,0,0:0:0:0:
209,361,94085,1,0,0:0:0:0:
461,194,94192,2,0,L|343:188,1,66.0000020141602,8|8,0:3|0:3,0:0:0:0:
92,19,94406,5,8,0:3:0:0:
36,155,94621,1,8,0:3:0:0:
246,65,94835,1,8,0:3:0:0:
84,185,95049,1,8,0:3:0:0:
326,177,95263,1,8,0:3:0:0:
116,234,95478,1,8,0:3:0:0:
369,306,95692,1,8,0:3:0:0:
138,285,95906,1,8,0:3:0:0:
459,343,96121,5,8,0:3:0:0:
478,281,96228,1,8,0:3:0:0:
445,227,96335,1,8,0:3:0:0:
382,216,96442,1,8,0:3:0:0:
142,26,96549,2,0,L|228:12,1,66.0000020141602,8|8,0:3|0:3,0:0:0:0:
440,130,96763,2,0,L|356:124,1,66.0000020141602,8|8,0:3|0:3,0:0:0:0:
137,170,96978,5,10,0:0:0:0:
161,208,97406,2,0,L|200:197,2,30,0|0|0,0:0|0:0|0:0,0:0:0:0:
53,254,97621,2,0,L|11:246,2,30,0|0|0,0:0|0:0|0:0,0:0:0:0:
324,298,97835,5,2,0:0:0:0:
256,192,97942,12,0,101049,0:0:0:0:
162,218,101263,6,0,B|260:167|260:167|480:152|480:152|363:33|363:33|491:165,1,660.000006294251,6|0,0:0|0:0,0:0:0:0:
468,181,101906,2,0,L|381:190,1,75,2|2,0:0|0:0,0:0:0:0:
170,236,102121,2,0,B|206:282|206:282|344:281,1,150,10|8,0:0|0:1,0:0:0:0:
64,297,102442,2,0,B|34:224|34:224|63:147,1,150,2|2,0:0|0:3,0:0:0:0:
291,132,102763,6,0,L|306:31,3,75,6|0|0|0,0:0|0:0|0:0|0:0,0:0:0:0:
86,28,103192,2,0,L|135:96,1,75,2|0,0:0|0:0,0:0:0:0:
217,99,103406,1,0,0:0:0:0:
15,228,103513,1,2,0:0:0:0:
221,276,103621,2,0,L|318:284,1,75,2|0,0:0|0:0,0:0:0:0:
90,352,103835,5,8,0:0:0:0:
309,323,103942,2,0,L|397:309,1,75,2|0,0:0|0:0,0:0:0:0:
144,141,104156,2,0,L|232:130,1,75,2|8,0:0|0:1,0:0:0:0:
31,55,104478,1,4,0:1:0:0:
383,311,104692,6,0,B|82:219|82:219|174:95|174:95|77:229,1,623.999971435548,6|0,1:1|0:0,0:0:0:0:
58,262,105335,2,0,L|164:272,1,75,2|2,0:0|0:0,0:0:0:0:
366,164,105549,2,0,B|295:143|295:143|181:142,1,150,10|8,0:0|0:1,0:0:0:0:
458,73,105871,2,0,B|489:163|489:163|453:229,1,150,2|2,0:0|0:3,0:0:0:0:
253,259,106192,2,0,L|251:342,3,75,6|0|0|0,0:0|0:0|0:0|0:0,0:0:0:0:
27,228,106621,6,0,L|82:173,1,75,2|0,0:0|0:0,0:0:0:0:
176,168,106835,1,2,0:3:0:0:
408,97,106942,2,0,L|315:57,1,75,2|0,0:0|0:0,0:0:0:0:
130,54,107156,1,2,0:3:0:0:
351,38,107263,2,0,B|263:46|263:46|196:81,1,150,8|8,0:0|0:1,0:0:0:0:
437,179,107585,2,0,L|378:235,1,75,2|8,0:0|0:1,0:0:0:0:
289,240,107799,1,8,0:1:0:0:
500,356,107906,2,0,L|410:371,1,75,2|0,0:0|0:0,0:0:0:0:
168,373,108121,6,0,B|339:286|339:286|339:53,1,384,6|0,0:0|0:0,0:0:0:0:
161,8,108763,2,0,L|281:9,1,75,2|2,0:0|0:0,0:0:0:0:
16,130,108978,2,0,B|56:172|56:172|171:169,1,150,10|8,0:0|0:1,0:0:0:0:
374,275,109299,2,0,B|334:317|334:317|219:314,1,150,2|2,0:0|0:3,0:0:0:0:
470,361,109621,2,0,L|390:349,1,75,2|0,0:0|0:0,0:0:0:0:
299,252,109835,2,0,L|386:236,1,75,0|2,0:0|0:3,0:0:0:0:
150,168,110049,2,0,L|62:157,2,75,2|0|0,0:0|0:0|0:0,0:0:0:0:
374,78,110371,2,0,L|251:69,1,75,2|0,0:0|0:0,0:0:0:0:
71,48,110585,1,2,0:0:0:0:
301,35,110692,5,10,0:0:0:0:
250,132,111121,2,0,L|214:124,2,30,0|0|0,0:0|0:0|0:0,0:0:0:0:
358,216,111335,2,0,L|394:208,2,30,0|0|0,0:0|0:0|0:0,0:0:0:0:
92,341,111549,6,0,B|388:210|388:210|297:75|297:75|390:213,1,648.000002471924,6|0,0:0|0:0,0:0:0:0:
392,237,112192,2,0,L|290:246,1,77.9999964294435,2|2,0:0|0:0,0:0:0:0:
97,188,112406,2,0,B|145:154|145:154|279:150,1,155.999992858887,10|8,0:0|0:1,0:0:0:0:
16,65,112728,2,0,B|64:31|64:31|198:27,1,155.999992858887,2|2,0:0|0:3,0:0:0:0:
393,100,113049,6,0,L|411:175,3,77.9999964294435,6|0|0|0,0:0|0:0|0:0|0:0,0:0:0:0:
175,183,113478,2,0,L|240:229,1,77.9999964294435,2|0,0:0|0:0,0:0:0:0:
330,231,113692,1,2,0:3:0:0:
100,281,113799,2,0,L|181:292,1,77.9999964294435,2|0,0:0|0:0,0:0:0:0:
388,302,114013,1,2,0:3:0:0:
147,375,114121,6,0,L|132:200,1,155.999992858887,10|8,0:0|0:1,0:0:0:0:
357,133,114442,2,0,L|267:102,1,77.9999964294435,2|8,0:0|0:1,0:0:0:0:
72,97,114656,1,8,0:1:0:0:
284,18,114763,2,0,L|192:33,1,77.9999964294435,2|0,0:0|0:0,0:0:0:0:
460,218,114978,6,0,B|299:138|299:138|297:337,1,360.000013732911,6|8,0:0|0:1,0:0:0:0:
106,195,115621,2,0,L|222:180,1,77.9999964294435,2|2,0:0|0:0,0:0:0:0:
404,37,115835,2,0,B|368:81|368:81|260:86,1,155.999992858887,10|8,0:0|0:1,0:0:0:0:
495,128,116156,2,0,B|459:172|459:172|351:177,1,155.999992858887,2|2,0:0|0:3,0:0:0:0:
138,261,116478,6,0,L|111:341,2,77.9999964294435,6|0|0,0:0|0:0|0:0,0:0:0:0:
230,243,116799,1,2,0:3:0:0:
15,198,116906,2,0,L|76:142,1,77.9999964294435,2|0,0:0|0:0,0:0:0:0:
166,136,117121,1,0,0:0:0:0:
401,62,117228,1,2,0:0:0:0:
165,42,117335,2,0,L|246:41,1,77.9999964294435,2|0,0:0|0:0,0:0:0:0:
463,185,117549,5,8,0:0:0:0:
230,243,117656,2,0,L|117:250,1,77.9999964294435,2|0,0:0|0:0,0:0:0:0:
377,329,117871,2,0,L|273:341,1,77.9999964294435,2|8,0:0|0:1,0:0:0:0:
485,376,118192,1,4,0:1:0:0:
150,349,118406,6,0,B|458:234|458:234|352:113|352:113|463:237,1,648.000002471924,6|0,1:1|0:0,0:0:0:0:
461,269,119049,2,0,L|363:256,1,83.9999974365235,2|2,0:0|0:0,0:0:0:0:
142,71,119263,2,0,P|219:111|303:86,1,167.999994873047,10|8,0:0|0:1,0:0:0:0:
52,9,119585,2,0,P|35:106|83:167,1,167.999994873047,2|2,0:0|0:3,0:0:0:0:
315,199,119906,6,0,L|330:309,3,83.9999974365235,6|0|0|0,0:0|0:0|0:0|0:0,0:0:0:0:
92,251,120335,2,0,L|156:317,1,83.9999974365235,2|0,0:0|0:0,0:0:0:0:
255,337,120549,1,2,0:3:0:0:
28,170,120656,2,0,L|94:113,1,83.9999974365235,2|0,0:0|0:0,0:0:0:0:
310,89,120871,1,2,0:3:0:0:
62,20,120978,2,0,B|88:73|88:73|215:70,1,167.999994873047,8|8,0:0|0:1,0:0:0:0:
428,157,121299,2,0,L|354:213,1,83.9999974365235,2|8,0:0|0:1,0:0:0:0:
259,205,121513,1,8,0:1:0:0:
482,313,121621,2,0,L|387:323,1,83.9999974365235,2|0,0:0|0:0,0:0:0:0:
138,371,121835,6,0,B|319:308|319:308|320:110,1,384,6|2,0:0|0:3,0:0:0:0:
134,41,122478,2,0,L|249:32,1,83.9999974365235,2|2,0:0|0:0,0:0:0:0:
459,178,122692,2,0,P|392:228|297:236,1,167.999994873047,10|8,0:0|0:1,0:0:0:0:
68,94,123013,2,0,P|135:44|230:36,1,167.999994873047,2|2,0:0|0:3,0:0:0:0:
439,80,123335,6,0,L|337:100,1,83.9999974365235,6|0,0:0|0:0,0:0:0:0:
465,158,123549,2,0,L|472:255,1,83.9999974365235,0|2,0:0|0:3,0:0:0:0:
227,264,123763,2,0,L|290:335,1,83.9999974365235,2|0,0:0|0:0,0:0:0:0:
387,334,123978,1,0,0:0:0:0:
162,192,124085,2,0,L|255:137,1,83.9999974365235,2|0,0:0|0:0,0:0:0:0:
432,101,124299,1,2,0:0:0:0:
235,70,124406,5,8,0:0:0:0:
431,17,124513,2,0,L|322:16,1,83.9999974365235,2|8,0:0|0:1,0:0:0:0:
139,24,124728,1,0,0:0:0:0:
346,119,124835,2,0,L|231:119,1,83.9999974365235,8|8,0:1|0:1,0:0:0:0:
47,135,125049,1,2,0:0:0:0:
264,213,125156,1,0,0:0:0:0:
21,271,125263,5,4,0:0:0:0:
21,271,125478,1,2,0:0:0:0:
21,271,125692,1,2,0:0:0:0:
293,354,126013,2,0,L|212:353,1,60,2|2,0:0|0:0,0:0:0:0:
410,287,126335,1,2,0:0:0:0:
227,245,126549,1,2,0:0:0:0:
482,178,126871,1,2,0:0:0:0:
237,75,126978,5,2,0:0:0:0:
237,75,127192,1,2,0:0:0:0:
237,75,127406,1,2,0:0:0:0:
387,84,127621,1,2,0:0:0:0:
172,155,127835,1,2,0:0:0:0:
172,155,128049,1,2,0:0:0:0:
361,209,128263,2,0,L|273:223,1,60,2|2,0:0|0:0,0:0:0:0:
91,319,128585,1,2,0:0:0:0:
337,356,128692,5,2,0:0:0:0:
337,356,128906,1,2,0:0:0:0:
337,356,129121,1,2,0:0:0:0:
125,190,129442,2,0,L|223:168,1,60,2|2,0:0|0:0,0:0:0:0:
25,116,129763,1,2,0:0:0:0:
192,75,129978,1,2,0:0:0:0:
26,24,130192,2,0,L|96:28,1,60,2|2,0:0|0:0,0:0:0:0:
337,66,130406,5,2,0:0:0:0:
337,66,130621,1,2,0:0:0:0:
168,151,130835,1,2,0:0:0:0:
346,238,131049,2,0,L|267:253,1,60,2|2,0:0|0:0,0:0:0:0:
482,336,131263,2,0,L|482:260,1,60,2|2,0:0|0:0,0:0:0:0:
280,154,131585,1,2,0:0:0:0:
280,154,131692,1,2,0:0:0:0:
280,154,131799,2,0,L|461:145,1,180,2|0,0:0|0:0,0:0:0:0:
