osu file format v14

[General]
AudioFilename: audio.mp3
AudioLeadIn: 0
PreviewTime: 57230
Countdown: 0
SampleSet: Normal
StackLeniency: 0.3
Mode: 0
LetterboxInBreaks: 0
WidescreenStoryboard: 0

[Editor]
DistanceSpacing: 1.6
BeatDivisor: 4
GridSize: 16
TimelineZoom: 1.9

[Metadata]
Title:Colors Power ni Omakasero!
TitleUnicode:カラーズぱわーにおまかせろ!
Artist:Colors*Slash
ArtistUnicode:カラーズ☆スラッシュ
Creator:P4ndemonium
Version:FBI OPEN UP
Source:三ツ星カラーズ
Tags:
BeatmapID:1670520
BeatmapSetID:795454

[Difficulty]
HPDrainRate:5.5
CircleSize:3.8
OverallDifficulty:9.1
ApproachRate:9.4
SliderMultiplier:2
SliderTickRate:1

[Events]
//Background and Video events
0,0,"lmaoooo.png",0,0
//Break Periods
//Storyboard Layer 0 (Background)
//Storyboard Layer 1 (Fail)
//Storyboard Layer 2 (Pass)
//Storyboard Layer 3 (Foreground)
//Storyboard Sound Samples

[TimingPoints]
-820,300,4,1,0,50,1,0
380,-200,4,1,0,30,0,0
9380,-100,4,1,0,30,0,0
9980,-133.333333333333,4,1,0,50,0,0
17180,-133.333333333333,4,3,0,50,0,1
18380,-133.333333333333,4,1,0,50,0,0
28580,-100,4,1,0,50,0,0
29180,-133.333333333333,4,1,0,50,0,0
55580,-133.333333333333,4,3,0,50,0,1
56780,-133.333333333333,4,1,0,50,0,0
57980,-100,4,3,0,70,0,1
76730,-100,4,1,0,70,0,0
77105,-100,4,1,0,5,0,0
77180,-133.333333333333,4,1,0,50,0,0
93980,-133.333333333333,4,3,0,50,0,1
95180,-133.333333333333,4,1,0,50,0,0

[HitObjects]
431,125,380,6,0,B|347:95|331:183|239:146,1,200
122,75,1280,1,0,0:0:0:0:
157,183,1430,1,0,0:0:0:0:
95,319,1580,6,0,B|179:289|195:377|286:340,1,200
393,300,2330,2,0,P|380:321|374:345,2,50
465,206,2780,6,0,P|415:208|371:186,1,100
286,220,3230,1,0,0:0:0:0:
201,112,3380,1,0,0:0:0:0:
201,112,3530,2,0,P|214:133|220:157,1,50
110,212,3830,2,0,P|115:187|129:166,1,50
261,312,4130,5,0,0:0:0:0:
194,244,4280,1,0,0:0:0:0:
96,358,4430,2,0,P|51:376|1:368,1,100
19,243,4880,2,0,P|32:264|38:288,1,50
189,370,5180,6,0,P|194:320|224:281,1,100
224,281,5780,2,0,P|237:259|243:235,1,50
296,154,6080,5,0,0:0:0:0:
296,154,6230,2,0,P|284:132|266:114,1,50
366,210,6530,2,0,P|379:188|385:164,1,50
184,82,6830,2,0,P|195:60|213:42,1,50
114,138,7130,2,0,P|100:116|94:92,1,50
43,270,7430,5,0,0:0:0:0:
43,270,7580,2,0,P|92:263|138:282,1,100
138,282,8180,2,0,P|186:289|232:270,1,100
232,270,8780,6,0,P|223:294|222:319,1,50
383,283,9080,1,0,0:0:0:0:
312,202,9230,1,0,0:0:0:0:
411,115,9380,6,0,L|408:139,7,25
353,18,9680,2,0,L|355:42,7,25
290,106,9980,6,0,P|255:118|217:115,1,75.0000028610231,4|0,0:0|0:0,0:0:0:0:
97,28,10280,2,0,P|135:25|170:38,1,75.0000028610231
348,177,10580,2,0,P|341:213|320:244,1,75.0000028610231
184,304,10880,2,0,P|199:270|228:246,1,75.0000028610231
25,115,11180,6,0,P|43:147|46:184,1,75.0000028610231
117,243,11480,2,0,P|98:275|95:312,1,75.0000028610231
308,212,11780,2,0,P|289:244|258:265,1,75.0000028610231
243,355,12080,2,0,P|205:354|172:370,1,75.0000028610231
464,352,12380,6,0,P|451:317|455:280,1,75.0000028610231
308,212,12680,1,0,0:0:0:0:
308,212,12830,2,0,P|344:218|375:239,1,75.0000028610231
507,146,13130,2,0,P|483:174|449:190,1,75.0000028610231
364,61,13430,6,0,L|378:135,1,75.0000028610231
211,228,13730,2,0,L|224:154,1,75.0000028610231
420,280,14030,2,0,P|350:257|285:289,1,150.000005722046
234,362,14480,2,0,L|160:348,1,75.0000028610231
14,209,14780,6,0,B|119:163|132:257|230:215,1,225.000008583069
238,231,15380,1,0,0:0:0:0:
97,316,15530,1,0,0:0:0:0:
183,122,15680,1,0,0:0:0:0:
376,301,15830,6,0,P|338:304|303:291,1,75.0000028610231
165,240,16130,2,0,P|202:243|237:230,1,75.0000028610231
296,163,16430,6,0,L|282:89,1,75.0000028610231
400,62,16730,1,0,0:0:0:0:
400,62,16880,2,0,L|386:135,1,75.0000028610231
183,122,17180,5,12,0:0:0:0:
465,182,17330,1,2,0:0:0:0:
143,203,17480,5,8,0:0:0:0:
487,184,17630,1,2,0:0:0:0:
148,294,17780,5,8,0:0:0:0:
509,186,17930,1,2,0:0:0:0:
288,0,18080,5,8,0:0:0:0:
224,384,18230,1,10,0:0:0:0:
224,384,18830,6,0,P|227:365|234:348,1,37.5000014305115
349,264,18980,6,8,P|293:268|246:239,2,112.500004291535
336,109,19580,6,0,P|318:141|315:179,1,75.0000028610231,4|0,0:0|0:0,0:0:0:0:
425,119,19880,2,0,P|421:81|403:49,1,75.0000028610231,8|0,0:0|0:0,0:0:0:0:
223,189,20180,2,0,P|230:114|267:49,1,150.000005722046,0|8,0:0|0:0,0:0:0:0:
315,178,20630,1,0,0:0:0:0:
135,194,20780,6,0,L|208:207,1,75.0000028610231
154,289,21080,2,0,L|80:302,1,75.0000028610231,8|0,0:0|0:0,0:0:0:0:
100,92,21380,2,0,L|247:118,1,150.000005722046,0|8,0:0|0:0,0:0:0:0:
315,178,21830,1,0,0:0:0:0:
512,51,21980,6,0,P|493:83|490:120,1,75.0000028610231
406,187,22280,2,0,P|402:149|384:117,1,75.0000028610231,8|0,0:0|0:0,0:0:0:0:
354,270,22580,6,8,L|427:283,1,75.0000028610231,0|0,0:0|0:0,0:0:0:0:
315,178,22880,2,0,L|241:191,1,75.0000028610231,8|0,0:0|0:0,0:0:0:0:
154,309,23180,6,0,P|150:271|132:239,1,75.0000028610231
242,349,23480,2,0,P|245:312|264:280,1,75.0000028610231,8|0,0:0|0:0,0:0:0:0:
65,300,23780,1,0,0:0:0:0:
138,165,23930,2,8,L|131:239,2,75.0000028610231
53,25,24380,6,0,P|76:53|110:69,1,75.0000028610231
159,154,24680,2,0,P|195:147|226:126,1,75.0000028610231,8|0,0:0|0:0,0:0:0:0:
326,30,24980,2,0,L|312:179,1,150.000005722046,0|8,0:0|0:0,0:0:0:0:
374,244,25430,1,0,0:0:0:0:
194,276,25580,6,0,L|267:262,1,75.0000028610231
308,373,25880,2,0,L|234:359,1,75.0000028610231,8|0,0:0|0:0,0:0:0:0:
91,223,26180,2,0,P|98:296|67:365,1,150.000005722046,0|8,0:0|0:0,0:0:0:0:
194,276,26630,1,0,0:0:0:0:
251,168,26780,6,0,P|213:164|181:146,1,75.0000028610231
111,61,27080,2,0,P|148:57|180:39,1,75.0000028610231,8|0,0:0|0:0,0:0:0:0:
72,208,27380,2,0,L|58:134,1,75.0000028610231
111,61,27680,1,8,0:0:0:0:
251,168,27830,6,0,P|288:171|323:158,1,75.0000028610231,8|0,0:0|0:0,0:0:0:0:
458,118,28130,2,0,P|436:148|430:185,1,75.0000028610231,8|0,0:0|0:0,0:0:0:0:
449,312,28430,1,8,0:0:0:0:
330,251,28580,6,0,P|354:251|378:259,3,50,8|0|0|0,0:0|0:0|0:0|0:0,0:0:0:0:
230,335,28880,2,0,P|254:334|278:326,3,50,8|0|8|8,0:0|0:0|0:0|0:0,0:0:0:0:
141,337,29180,6,4,P|147:300|168:269,1,75.0000028610231,12|4,0:0|0:0,0:0:0:0:
40,195,29480,2,0,P|61:225|67:262,1,75.0000028610231,8|0,0:0|0:0,0:0:0:0:
156,129,29780,2,0,L|82:115,1,75.0000028610231
218,194,30080,1,8,0:0:0:0:
279,17,30230,6,0,L|129:30,1,150.000005722046
295,147,30680,1,8,0:0:0:0:
404,42,30830,5,0,0:0:0:0:
383,132,30980,1,0,0:0:0:0:
426,196,31130,1,0,0:0:0:0:
464,215,31280,1,8,0:0:0:0:
496,213,31430,1,0,0:0:0:0:
498,335,31580,6,0,P|467:314|430:308,1,75.0000028610231
292,282,31880,2,0,P|328:275|359:254,1,75.0000028610231,8|0,0:0|0:0,0:0:0:0:
198,260,32180,2,0,L|211:333,1,75.0000028610231
293,191,32480,1,8,0:0:0:0:
223,73,32630,1,0,0:0:0:0:
59,180,32780,6,0,P|92:195|129:195,1,75.0000028610231
145,182,33080,1,8,0:0:0:0:
308,73,33230,2,0,P|270:72|237:88,2,75.0000028610231
405,94,33680,6,8,L|398:57,1,37.5000014305115,8|8,0:0|0:0,0:0:0:0:
312,222,33830,2,8,L|318:185,1,37.5000014305115
448,297,33980,6,0,P|413:284|375:287,1,75.0000028610231,8|0,0:0|0:0,0:0:0:0:
238,349,34280,1,8,0:0:0:0:
312,222,34430,1,0,0:0:0:0:
155,242,34580,2,0,P|189:254|227:251,1,75.0000028610231
17,179,34880,5,8,0:0:0:0:
85,297,35030,1,0,0:0:0:0:
122,91,35180,2,0,L|108:164,1,75.0000028610231
307,103,35480,1,8,0:0:0:0:
232,200,35630,1,0,0:0:0:0:
204,37,35780,2,0,L|217:110,1,75.0000028610231
318,172,36080,2,0,L|331:98,1,75.0000028610231,8|0,0:0|0:0,0:0:0:0:
497,284,36380,6,0,P|459:280|424:293,1,75.0000028610231
311,384,36680,2,0,P|332:353|338:316,1,75.0000028610231,8|0,0:0|0:0,0:0:0:0:
318,172,36980,2,0,P|333:205|362:229,1,75.0000028610231
405,150,37280,1,8,0:0:0:0:
324,13,37430,6,0,L|331:50,1,37.5000014305115,8|0,0:0|0:0,0:0:0:0:
187,128,37730,6,0,L|180:164,1,37.5000014305115,8|0,0:0|0:0,0:0:0:0:
362,230,38030,6,0,L|368:266,1,37.5000014305115,8|0,0:0|0:0,0:0:0:0:
149,344,38330,6,0,L|142:380,1,37.5000014305115,8|0,0:0|0:0,0:0:0:0:
74,248,38480,5,8,0:0:0:0:
276,201,38630,2,8,L|270:165,1,37.5000014305115
29,74,38780,6,0,P|61:92|99:96,1,75.0000028610231,12|0,0:0|0:0,0:0:0:0:
240,78,39080,2,0,P|208:97|187:128,1,75.0000028610231,8|0,0:0|0:0,0:0:0:0:
127,260,39380,2,0,L|113:186,1,75.0000028610231
52,312,39680,1,8,0:0:0:0:
222,211,39830,6,0,L|208:360,1,150.000005722046
330,169,40280,1,8,0:0:0:0:
432,334,40430,5,0,0:0:0:0:
343,307,40580,1,0,0:0:0:0:
309,238,40730,1,0,0:0:0:0:
312,195,40880,1,8,0:0:0:0:
330,169,41030,2,8,L|336:132,1,37.5000014305115
394,64,41180,6,0,P|362:46|325:43,1,75.0000028610231,8|0,0:0|0:0,0:0:0:0:
260,190,41480,2,0,P|297:187|330:169,1,75.0000028610231,8|0,0:0|0:0,0:0:0:0:
91,34,41780,1,0,0:0:0:0:
165,211,41930,1,0,0:0:0:0:
281,56,42080,1,8,0:0:0:0:
93,155,42230,1,0,0:0:0:0:
247,264,42380,6,0,L|260:190,1,75.0000028610231
165,211,42680,1,8,0:0:0:0:
329,318,42830,2,0,L|355:170,1,150.000005722046,0|8,0:0|0:0,0:0:0:0:
247,264,43280,5,8,0:0:0:0:
440,213,43430,1,0,0:0:0:0:
316,142,43580,1,0,0:0:0:0:
425,60,43730,2,0,P|407:92|404:130,2,75.0000028610231,0|8|0,0:0|0:0|0:0,0:0:0:0:
281,225,44180,2,0,P|250:203|231:171,1,75.0000028610231
198,74,44480,5,8,0:0:0:0:
316,142,44630,1,0,0:0:0:0:
110,179,44780,2,0,L|183:165,1,75.0000028610231
122,364,45080,1,8,0:0:0:0:
219,289,45230,1,0,0:0:0:0:
56,261,45380,2,0,L|129:274,1,75.0000028610231
221,159,45680,2,0,L|147:172,1,75.0000028610231,8|0,0:0|0:0,0:0:0:0:
309,299,45980,6,0,P|305:261|287:229,1,75.0000028610231
430,157,46280,2,0,P|401:181|386:215,1,75.0000028610231,8|0,0:0|0:0,0:0:0:0:
487,308,46580,2,0,L|474:235,1,75.0000028610231
414,371,46880,1,8,0:0:0:0:
386,215,47030,6,0,L|379:178,1,37.5000014305115,8|0,0:0|0:0,0:0:0:0:
126,215,47330,6,0,L|132:178,1,37.5000014305115,8|0,0:0|0:0,0:0:0:0:
414,371,47630,6,0,L|407:334,1,37.5000014305115,8|0,0:0|0:0,0:0:0:0:
98,371,47930,6,0,L|104:334,1,37.5000014305115,8|0,0:0|0:0,0:0:0:0:
218,229,48080,5,8,0:0:0:0:
33,150,48230,2,8,L|40:187,1,37.5000014305115
296,170,48380,5,12,0:0:0:0:
135,142,48530,2,0,P|138:179|125:214,2,75.0000028610231
82,60,48980,1,8,0:0:0:0:
82,60,49130,2,0,L|155:46,1,75.0000028610231,0|8,0:0|0:0,0:0:0:0:
296,170,49430,1,0,0:0:0:0:
209,155,49580,6,0,L|135:141,1,75.0000028610231,8|8,0:0|0:0,0:0:0:0:
266,88,49880,1,0,0:0:0:0:
326,252,50030,2,0,L|178:278,1,150.000005722046,8|0,0:0|0:0,0:0:0:0:
266,88,50480,2,0,L|339:101,1,75.0000028610231,0|8,0:0|0:0,0:0:0:0:
364,93,50705,1,8,0:0:0:0:
364,93,50780,1,8,0:0:0:0:
456,141,50930,6,0,P|452:103|465:68,2,75.0000028610231
509,223,51380,1,8,0:0:0:0:
509,223,51530,2,0,L|435:236,2,75.0000028610231,0|8|8,0:0|0:0|0:0,0:0:0:0:
382,318,51980,6,0,L|309:305,1,75.0000028610231,0|8,0:0|0:0,0:0:0:0:
248,378,52280,1,0,0:0:0:0:
435,236,52430,2,0,L|288:210,1,150.000005722046,8|0,0:0|0:0,0:0:0:0:
237,127,52880,2,0,L|310:113,1,75.0000028610231
81,244,53180,5,0,0:0:0:0:
168,70,53330,1,0,0:0:0:0:
150,303,53480,5,8,0:0:0:0:
85,104,53630,1,0,0:0:0:0:
233,267,53780,5,0,0:0:0:0:
320,93,53930,1,0,0:0:0:0:
302,326,54080,5,8,0:0:0:0:
237,127,54230,1,0,0:0:0:0:
444,194,54380,5,0,0:0:0:0:
233,267,54530,1,0,0:0:0:0:
423,283,54680,5,8,0:0:0:0:
176,195,54830,1,0,0:0:0:0:
462,27,54980,5,0,0:0:0:0:
229,107,55130,1,0,0:0:0:0:
502,116,55280,5,8,0:0:0:0:
167,28,55430,1,0,0:0:0:0:
265,341,55580,5,12,0:0:0:0:
404,106,55730,1,2,0:0:0:0:
353,360,55880,5,8,0:0:0:0:
236,84,56030,1,2,0:0:0:0:
181,374,56180,5,8,0:0:0:0:
324,63,56330,1,2,0:0:0:0:
441,379,56480,5,8,0:0:0:0:
262,0,56630,1,2,0:0:0:0:
262,0,57380,6,8,L|265:37,1,37.5000014305115
150,136,57530,2,8,L|146:173,1,37.5000014305115
287,255,57680,6,8,L|290:292,3,37.5000014305115
378,218,57980,6,0,P|385:168|414:128,1,100,12|0,0:0|0:0,0:0:0:0:
218,74,58280,2,0,P|273:156|287:255,1,200,8|0,0:0|0:0,0:0:0:0:
220,318,58730,1,0,0:0:0:0:
378,218,58880,1,8,0:0:0:0:
494,367,59030,1,0,0:0:0:0:
500,185,59180,6,0,P|471:225|463:274,1,100
307,346,59480,2,0,P|293:247|238:165,1,200,8|0,0:0|0:0,0:0:0:0:
158,126,59930,1,0,0:0:0:0:
330,209,60080,1,8,0:0:0:0:
438,52,60230,1,0,0:0:0:0:
464,273,60380,6,0,P|435:232|427:183,1,100
495,122,60680,1,8,0:0:0:0:
238,165,60830,1,0,0:0:0:0:
469,294,60980,1,0,0:0:0:0:
321,109,61130,2,0,L|330:209,1,100,0|8,0:0|0:0,0:0:0:0:
137,321,61430,6,0,P|165:280|173:231,1,100
178,89,61730,2,0,P|198:134|237:164,1,100,0|8,0:0|0:0,0:0:0:0:
423,308,62030,2,0,P|323:304|233:344,1,200
84,196,62480,2,0,P|124:224|173:232,1,100,8|0,0:0|0:0,0:0:0:0:
262,65,62780,6,0,P|171:104|72:101,1,200,0|8,0:0|0:0,0:0:0:0:
0,48,63230,1,0,0:0:0:0:
47,285,63380,2,0,P|55:236|84:196,1,100
116,345,63680,1,8,0:0:0:0:
235,220,63830,6,0,P|227:170|198:130,1,100
197,384,64130,2,0,L|295:366,1,100,0|8,0:0|0:0,0:0:0:0:
353,224,64430,2,0,L|254:206,1,100
446,384,64730,2,0,P|417:343|409:294,1,100,0|8,0:0|0:0,0:0:0:0:
461,79,65030,6,0,P|370:118|271:115,1,200
33,38,65480,2,2,P|78:59|109:98,1,100,10|2,0:0|0:0,0:0:0:0:
86,283,65780,2,2,P|80:233|99:187,1,100
271,115,66080,2,2,P|230:143|181:151,1,100,10|2,0:0|0:0,0:0:0:0:
256,254,66380,6,2,P|305:261|345:290,1,100
346,164,66680,1,8,0:0:0:0:
264,358,66830,1,0,0:0:0:0:
436,258,66980,6,0,L|444:307,3,50
369,162,67280,6,0,L|360:211,3,50,8|0|8|8,0:0|0:0|0:0|0:0,0:0:0:0:
438,73,67580,6,0,P|388:74|343:52,1,100,12|0,0:0|0:0,0:0:0:0:
179,198,67880,2,0,P|278:201|369:162,1,200,8|0,0:0|0:0,0:0:0:0:
388,74,68330,1,0,0:0:0:0:
260,238,68480,1,8,0:0:0:0:
415,378,68630,1,0,0:0:0:0:
233,339,68780,6,0,P|282:340|327:318,1,100
369,162,69080,2,0,P|270:148|188:93,1,200,8|0,0:0|0:0,0:0:0:0:
158,9,69530,1,0,0:0:0:0:
273,203,69680,1,8,0:0:0:0:
76,313,69830,1,0,0:0:0:0:
341,285,69980,6,0,P|296:306|246:305,1,100
29,235,70280,1,8,0:0:0:0:
273,203,70430,2,0,P|228:182|178:183,1,100
344,58,70730,2,0,P|299:79|250:79,1,100,0|8,0:0|0:0,0:0:0:0:
84,162,71030,6,0,P|129:183|179:182,1,100
448,220,71330,2,0,P|402:240|371:279,1,100,0|8,0:0|0:0,0:0:0:0:
276,240,71630,2,0,P|290:141|345:59,1,200
356,308,72080,2,0,P|315:336|265:344,1,100,8|0,0:0|0:0,0:0:0:0:
95,171,72380,6,0,P|193:184|276:240,1,200,0|8,0:0|0:0,0:0:0:0:
248,327,72830,1,0,0:0:0:0:
444,245,72980,1,0,0:0:0:0:
204,154,73130,1,0,0:0:0:0:
471,57,73280,1,8,0:0:0:0:
232,0,73430,6,0,P|260:41|268:91,1,100
346,168,73730,2,0,P|354:119|382:78,1,100,0|8,0:0|0:0,0:0:0:0:
204,154,74030,2,0,P|232:195|240:245,1,100
268,89,74330,1,0,0:0:0:0:
332,285,74480,2,0,P|340:236|368:195,1,100,8|0,0:0|0:0,0:0:0:0:
163,355,74780,5,8,0:0:0:0:
436,276,74930,1,2,0:0:0:0:
155,174,75080,5,8,0:0:0:0:
459,277,75230,1,2,0:0:0:0:
106,251,75380,5,8,0:0:0:0:
461,149,75530,1,2,0:0:0:0:
192,0,75680,5,8,0:0:0:0:
320,384,75830,1,2,0:0:0:0:
320,384,76880,6,0,P|311:310|347:246,1,150
373,227,77180,6,0,P|335:224|303:205,1,75.0000028610231,4|0,0:0|0:0,0:0:0:0:
204,108,77480,2,0,P|219:141|219:178,1,75.0000028610231,8|0,0:0|0:0,0:0:0:0:
34,199,77780,2,0,L|60:51,1,150.000005722046,0|8,0:0|0:0,0:0:0:0:
132,161,78230,1,0,0:0:0:0:
225,38,78380,6,0,P|206:70|204:108,1,75.0000028610231
153,230,78680,2,0,P|150:192|132:161,1,75.0000028610231,8|0,0:0|0:0,0:0:0:0:
96,331,78980,2,0,L|243:304,1,150.000005722046,0|8,0:0|0:0,0:0:0:0:
153,230,79430,1,0,0:0:0:0:
265,373,79580,6,0,P|246:341|243:303,1,75.0000028610231
192,192,79880,2,0,P|210:159|240:138,1,75.0000028610231,8|0,0:0|0:0,0:0:0:0:
348,234,80180,2,0,L|275:221,1,75.0000028610231
291,64,80480,2,0,L|364:50,1,75.0000028610231,8|0,0:0|0:0,0:0:0:0:
512,52,80780,6,0,P|493:83|490:121,1,75.0000028610231
416,173,81080,2,0,P|434:204|437:242,1,75.0000028610231,8|0,0:0|0:0,0:0:0:0:
254,256,81380,1,0,0:0:0:0:
349,234,81530,2,0,L|336:308,1,75.0000028610231,0|8,0:0|0:0,0:0:0:0:
247,219,81830,6,8,L|254:256,1,37.5000014305115
167,289,81980,6,0,L|153:215,1,75.0000028610231,8|0,0:0|0:0,0:0:0:0:
260,145,82280,2,0,L|247:219,1,75.0000028610231,8|0,0:0|0:0,0:0:0:0:
80,325,82580,2,0,L|53:177,1,150.000005722046,0|8,0:0|0:0,0:0:0:0:
154,215,83030,1,0,0:0:0:0:
247,71,83180,6,0,L|260:144,1,75.0000028610231
154,215,83480,2,0,L|167:141,1,75.0000028610231,8|0,0:0|0:0,0:0:0:0:
334,35,83780,2,0,L|360:182,1,150.000005722046,0|8,0:0|0:0,0:0:0:0:
260,145,84230,1,0,0:0:0:0:
347,256,84380,6,0,L|360:182,1,75.0000028610231
454,308,84680,2,0,L|441:235,1,75.0000028610231,8|0,0:0|0:0,0:0:0:0:
247,316,84980,2,0,L|260:242,1,75.0000028610231
323,365,85280,1,8,0:0:0:0:
152,189,85430,6,0,L|165:262,1,75.0000028610231
56,208,85730,2,0,L|70:135,1,75.0000028610231,0|8,0:0|0:0,0:0:0:0:
152,189,86030,1,0,0:0:0:0:
199,76,86180,6,0,L|205:112,3,37.5000014305115,8|0|0|0,0:0|0:0|0:0|0:0,0:0:0:0:
295,115,86480,6,0,L|288:151,3,37.5000014305115,8|0|8|8,0:0|0:0|0:0|0:0,0:0:0:0:
362,55,86780,6,0,P|380:86|383:124,1,75.0000028610231,12|0,0:0|0:0,0:0:0:0:
457,208,87080,2,0,P|459:170|478:138,1,75.0000028610231,8|0,0:0|0:0,0:0:0:0:
512,290,87380,2,0,L|364:316,1,150.000005722046,0|8,0:0|0:0,0:0:0:0:
282,280,87830,1,0,0:0:0:0:
222,347,87980,6,0,P|253:365|291:368,1,75.0000028610231
291,191,88280,2,0,P|253:194|222:213,1,75.0000028610231,8|0,0:0|0:0,0:0:0:0:
364,316,88580,2,0,L|390:168,1,150.000005722046,0|8,0:0|0:0,0:0:0:0:
340,92,89030,1,0,0:0:0:0:
462,178,89180,6,0,P|424:181|390:168,1,75.0000028610231
294,16,89480,2,0,P|328:2|365:6,1,75.0000028610231,8|0,0:0|0:0,0:0:0:0:
309,104,89780,2,0,L|236:118,1,75.0000028610231
220,2,90080,2,0,L|294:16,1,75.0000028610231,8|0,0:0|0:0,0:0:0:0:
53,102,90380,6,0,P|56:64|43:30,1,75.0000028610231
150,142,90680,2,0,P|146:104|159:70,1,75.0000028610231,8|0,0:0|0:0,0:0:0:0:
236,118,90980,1,0,0:0:0:0:
39,175,91130,2,0,L|52:101,1,75.0000028610231,0|8,0:0|0:0,0:0:0:0:
219,29,91430,1,0,0:0:0:0:
330,262,91580,6,0,L|343:188,1,75.0000028610231
236,118,91880,2,0,L|249:191,1,75.0000028610231,8|0,0:0|0:0,0:0:0:0:
417,298,92180,2,0,L|443:150,1,150.000005722046,0|8,0:0|0:0,0:0:0:0:
343,188,92630,1,0,0:0:0:0:
250,44,92780,6,0,L|236:117,1,75.0000028610231
343,188,93080,2,0,L|329:114,1,75.0000028610231,8|0,0:0|0:0,0:0:0:0:
163,8,93380,2,0,L|136:155,1,150.000005722046,0|8,0:0|0:0,0:0:0:0:
237,118,93830,1,0,0:0:0:0:
59,201,93980,5,8,0:0:0:0:
325,82,94130,1,2,0:0:0:0:
36,202,94280,5,8,0:0:0:0:
363,195,94430,1,2,0:0:0:0:
13,203,94580,5,8,0:0:0:0:
352,315,94730,1,2,0:0:0:0:
250,24,94880,5,8,0:0:0:0:
103,384,95030,1,10,0:0:0:0:
250,24,95330,5,0,0:0:0:0:
103,384,95630,5,0,0:0:0:0:
165,231,95780,1,0,0:0:0:0:
266,361,95930,1,0,0:0:0:0:
178,326,96080,5,0,0:0:0:0:
256,192,96680,5,4,0:0:0:0:
256,192,96755,12,0,98630,0:0:0:0:
