osu file format v14

[General]
AudioFilename: audio.mp3
AudioLeadIn: 0
PreviewTime: 57027
Countdown: 0
SampleSet: Soft
StackLeniency: 0.7
Mode: 3
LetterboxInBreaks: 0
SpecialStyle: 1
WidescreenStoryboard: 1

[Editor]
DistanceSpacing: 1
BeatDivisor: 4
GridSize: 8
TimelineZoom: 1.3

[Metadata]
Title:Fuujin Raijin
TitleUnicode:風仁雷仁
Artist:Colorful Sounds Port
ArtistUnicode:カラフル・サウンズ・ポート
Creator:Umo-
Version:7K Hyper
Source:BMS
Tags:kaythen bof2010 famoss THE BMS OF FIGHTERS 2010 - The Evolution of War classical crossover pop Lyrical Signal
BeatmapID:1463933
BeatmapSetID:688240

[Difficulty]
HPDrainRate:8
CircleSize:7
OverallDifficulty:8
ApproachRate:5
SliderMultiplier:1.4
SliderTickRate:1

[Events]
//Background and Video events
0,0,"menu-background.jpg",0,0
//Break Periods
//Storyboard Layer 0 (Background)
//Storyboard Layer 1 (Fail)
//Storyboard Layer 2 (Pass)
//Storyboard Layer 3 (Foreground)
//Storyboard Sound Samples

[TimingPoints]
1675,422.535211267606,4,2,1,40,1,0
57449,-100,4,2,1,40,0,1
72660,-100,4,2,1,40,0,0
87872,452.830188679245,4,2,1,40,1,0
87872,-93.4579439252336,4,2,1,40,0,0
89683,500,4,2,1,40,1,0
89683,-84.7457627118644,4,2,1,40,0,0
91683,674.157303370787,4,2,1,40,1,0
91683,-74.1839762611276,4,2,1,40,0,0

[HitObjects]
329,192,2942,5,0,0:0:0:0:
182,192,3153,1,0,0:0:0:0:
36,192,3365,1,4,0:0:0:0:
256,192,3576,1,0,0:0:0:0:
402,192,3787,1,0,0:0:0:0:
109,192,3998,1,0,0:0:0:0:
256,192,4210,1,0,0:0:0:0:
475,192,4632,1,0,0:0:0:0:
109,192,4844,1,0,0:0:0:0:
256,192,5055,1,0,0:0:0:0:
402,192,5266,1,0,0:0:0:0:
36,192,5477,1,0,0:0:0:0:
475,192,5689,1,0,0:0:0:0:
256,192,5900,1,0,0:0:0:0:
109,192,6322,1,0,0:0:0:0:
329,192,6534,1,0,0:0:0:0:
402,192,6745,1,0,0:0:0:0:
109,192,7167,1,0,0:0:0:0:
475,192,7590,1,0,0:0:0:0:
36,192,8013,1,0,0:0:0:0:
475,192,8435,1,0,0:0:0:0:
402,192,8858,1,0,0:0:0:0:
329,192,9280,1,0,0:0:0:0:
36,192,9703,1,0,0:0:0:0:
109,192,9914,1,0,0:0:0:0:
329,192,10125,1,2,0:0:0:0:
402,192,10125,1,4,0:0:0:0:
475,192,10125,1,0,0:0:0:0:
256,192,10336,1,0,0:0:0:0:
109,192,10548,1,0,0:0:0:0:
182,192,10759,1,2,0:0:0:0:
402,192,10759,1,0,0:0:0:0:
109,192,10970,1,0,0:0:0:70:clap.wav
329,192,10970,1,0,0:0:0:0:
36,192,11393,1,0,0:0:0:0:
182,192,11604,1,0,0:0:0:0:
475,192,11815,1,0,0:0:0:0:
182,192,12027,1,2,0:0:0:0:
402,192,12027,1,0,0:0:0:0:
109,192,12238,1,0,0:0:0:0:
256,192,12449,1,0,0:0:0:0:
329,192,12660,1,0,0:0:0:70:clap.wav
475,192,12660,1,0,0:0:0:0:
36,192,13083,1,0,0:0:0:0:
182,192,13294,1,2,0:0:0:0:
329,192,13294,1,0,0:0:0:0:
182,192,13505,1,2,0:0:0:0:
329,192,13505,1,0,0:0:0:0:
475,192,13928,1,0,0:0:0:0:
36,192,14139,1,2,0:0:0:0:
329,192,14139,1,0,0:0:0:0:
109,192,14351,1,0,0:0:0:70:clap.wav
182,192,14456,1,0,0:0:0:0:
256,192,14562,1,0,0:0:0:0:
109,192,14773,1,2,0:0:0:0:
329,192,14773,1,0,0:0:0:0:
36,192,15196,1,2,0:0:0:0:
182,192,15196,1,4,0:0:0:0:
329,192,15196,1,0,0:0:0:70:snaretom.wav
475,192,15407,1,0,0:0:0:30:hihat.wav
182,192,15618,1,2,0:0:0:0:
329,192,15618,1,8,0:0:0:0:
36,192,15829,1,0,0:0:0:30:hihat.wav
182,192,16041,1,2,0:0:0:0:
256,192,16041,1,0,0:0:0:0:
329,192,16041,1,0,0:0:0:0:
109,192,16252,1,0,0:0:0:30:hihat.wav
256,192,16463,1,2,0:0:0:0:
402,192,16463,1,8,0:0:0:0:
329,192,16675,1,0,0:0:0:30:hihat.wav
36,192,16886,1,2,0:0:0:0:
182,192,16886,1,0,0:0:0:0:
402,192,16886,1,0,0:0:0:0:
109,192,17097,1,0,0:0:0:30:hihat.wav
256,192,17308,1,2,0:0:0:0:
329,192,17308,1,8,0:0:0:0:
475,192,17520,1,0,0:0:0:30:hihat.wav
109,192,17731,1,2,0:0:0:0:
256,192,17731,1,0,0:0:0:0:
329,192,17731,1,0,0:0:0:0:
36,192,17942,1,0,0:0:0:30:hihat.wav
182,192,18153,1,2,0:0:0:0:
256,192,18153,1,8,0:0:0:0:
402,192,18153,1,0,0:0:0:0:
36,192,18365,1,2,0:0:0:0:
329,192,18365,1,0,0:0:0:30:hihat.wav
475,192,18365,1,0,0:0:0:0:
109,192,18576,1,2,0:0:0:0:
256,192,18576,1,0,0:0:0:0:
402,192,18576,1,0,0:0:0:0:
182,192,18787,1,0,0:0:0:30:hihat.wav
109,192,18998,1,2,0:0:0:0:
329,192,18998,1,8,0:0:0:0:
402,192,19210,1,0,0:0:0:30:hihat.wav
36,192,19421,1,2,0:0:0:0:
182,192,19421,1,0,0:0:0:0:
329,192,19421,1,0,0:0:0:0:
109,192,19632,1,0,0:0:0:30:hihat.wav
182,192,19844,1,2,0:0:0:0:
402,192,19844,1,8,0:0:0:0:
475,192,20055,1,0,0:0:0:30:hihat.wav
36,192,20266,1,2,0:0:0:0:
182,192,20266,1,0,0:0:0:0:
329,192,20266,1,0,0:0:0:0:
256,192,20477,1,0,0:0:0:30:hihat.wav
109,192,20689,1,2,0:0:0:0:
475,192,20689,1,8,0:0:0:0:
402,192,20900,1,0,0:0:0:30:hihat.wav
182,192,21111,1,2,0:0:0:0:
329,192,21111,1,0,0:0:0:0:
475,192,21111,1,0,0:0:0:0:
36,192,21322,1,0,0:0:0:30:hihat.wav
475,192,21322,1,0,0:0:0:0:
109,192,21393,1,0,0:0:0:30:hihat.wav
182,192,21463,1,0,0:0:0:30:hihat.wav
256,192,21534,1,2,0:0:0:0:
329,192,21534,1,8,0:0:0:0:
36,192,21745,1,0,0:0:0:30:hihat.wav
475,192,21745,1,0,0:0:0:0:
402,192,21815,1,0,0:0:0:30:hihat.wav
329,192,21886,1,0,0:0:0:30:hihat.wav
36,192,21956,1,2,0:0:0:0:
256,192,21956,1,4,0:0:0:0:
475,192,21956,1,0,0:0:0:70:snaretom.wav
109,192,22167,1,0,0:0:0:30:hihat.wav
182,192,22379,1,2,0:0:0:0:
329,192,22379,1,8,0:0:0:0:
402,192,22590,1,0,0:0:0:30:hihat.wav
36,192,22801,1,2,0:0:0:0:
182,192,22801,1,0,0:0:0:0:
475,192,22801,1,0,0:0:0:0:
256,192,23013,1,0,0:0:0:30:hihat.wav
329,192,23224,1,2,0:0:0:0:
475,192,23224,1,8,0:0:0:0:
109,192,23435,1,0,0:0:0:30:hihat.wav
36,192,23646,1,2,0:0:0:0:
256,192,23646,1,0,0:0:0:0:
402,192,23646,1,0,0:0:0:0:
182,192,23858,1,0,0:0:0:30:hihat.wav
36,192,24069,1,2,0:0:0:0:
329,192,24069,1,8,0:0:0:0:
109,192,24280,1,0,0:0:0:30:hihat.wav
182,192,24491,1,2,0:0:0:0:
256,192,24491,1,0,0:0:0:0:
475,192,24491,1,0,0:0:0:0:
36,192,24703,1,0,0:0:0:30:hihat.wav
402,192,24808,1,0,0:0:0:0:
256,192,24914,1,2,0:0:0:0:
329,192,24914,1,8,0:0:0:0:
109,192,25020,1,0,0:0:0:0:
182,192,25125,1,2,0:0:0:0:
256,192,25231,1,0,0:0:0:0:
36,192,25336,1,2,0:0:0:0:
329,192,25336,1,0,0:0:0:0:
475,192,25336,1,0,0:0:0:0:
182,192,25548,1,0,0:0:0:30:hihat.wav
109,192,25759,1,2,0:0:0:0:
329,192,25759,1,8,0:0:0:0:
475,192,25970,1,0,0:0:0:30:hihat.wav
329,192,26041,1,0,0:0:0:30:hihat.wav
182,192,26111,1,0,0:0:0:30:hihat.wav
36,192,26182,1,2,0:0:0:0:
475,192,26182,1,0,0:0:0:0:
109,192,26393,1,0,0:0:0:30:hihat.wav
182,192,26463,1,0,0:0:0:30:hihat.wav
256,192,26534,1,0,0:0:0:30:hihat.wav
329,192,26604,1,2,0:0:0:0:
475,192,26604,1,8,0:0:0:0:
36,192,26815,1,0,0:0:0:30:hihat.wav
109,192,26868,1,0,0:0:0:30:hihat.wav
182,192,26921,1,0,0:0:0:30:hihat.wav
475,192,26974,1,0,0:0:0:30:hihat.wav
402,192,27027,1,2,0:0:0:0:
329,192,27079,1,0,0:0:0:0:
256,192,27132,1,0,0:0:0:0:
182,192,27185,1,0,0:0:0:0:
329,192,27449,1,0,0:0:0:0:
475,192,27449,1,0,0:0:0:0:
36,192,27766,1,0,0:0:0:0:
109,192,27766,1,0,0:0:0:0:
329,192,28083,1,0,0:0:0:0:
402,192,28083,1,0,0:0:0:0:
36,192,28400,1,0,0:0:0:0:
109,192,28453,1,0,0:0:0:0:
182,192,28505,1,0,0:0:0:0:
475,192,28558,1,0,0:0:0:0:
402,192,28611,1,0,0:0:0:0:
329,192,28664,1,0,0:0:0:0:
36,192,28717,1,2,0:0:0:0:
256,192,28717,1,4,0:0:0:0:
329,192,28928,1,0,0:0:0:0:
109,192,29139,1,0,0:0:0:0:
256,192,29139,1,0,0:0:0:0:
182,192,29351,1,0,0:0:0:0:
475,192,29351,1,0,0:0:0:0:
36,192,29562,1,0,0:0:0:0:
402,192,29562,1,0,0:0:0:0:
109,192,29773,1,0,0:0:0:0:
182,192,29984,1,0,0:0:0:0:
329,192,29984,1,0,0:0:0:0:
36,192,30196,1,0,0:0:0:0:
402,192,30618,1,0,0:0:0:0:
109,192,30829,1,0,0:0:0:0:
329,192,30829,1,0,0:0:0:0:
256,192,31041,1,0,0:0:0:0:
182,192,31252,1,0,0:0:0:0:
475,192,31252,1,0,0:0:0:0:
329,192,31463,1,0,0:0:0:0:
36,192,31675,1,0,0:0:0:0:
182,192,31675,1,0,0:0:0:0:
475,192,31886,1,0,0:0:0:0:
182,192,32308,1,0,0:0:0:0:
256,192,32520,1,0,0:0:0:0:
475,192,32520,1,0,0:0:0:0:
109,192,32731,1,0,0:0:0:0:
329,192,32942,1,0,0:0:0:0:
475,192,32942,1,0,0:0:0:0:
36,192,33153,1,0,0:0:0:0:
109,192,33365,1,0,0:0:0:0:
402,192,33365,1,0,0:0:0:0:
256,192,33576,1,0,0:0:0:0:
109,192,33998,1,0,0:0:0:0:
182,192,34210,1,0,0:0:0:0:
402,192,34210,1,0,0:0:0:0:
329,192,34421,1,0,0:0:0:0:
182,192,34632,1,0,0:0:0:0:
402,192,34844,1,0,0:0:0:0:
36,192,35055,1,0,0:0:0:0:
182,192,35055,1,0,0:0:0:0:
475,192,35266,1,2,0:0:0:0:
402,192,35319,1,0,0:0:0:0:
329,192,35372,1,0,0:0:0:0:
256,192,35425,1,0,0:0:0:0:
36,192,35477,1,2,0:0:0:0:
182,192,35477,1,4,0:0:0:0:
402,192,35689,1,0,0:0:0:0:
109,192,35900,1,0,0:0:0:0:
256,192,35900,1,0,0:0:0:0:
329,192,36111,1,0,0:0:0:0:
475,192,36111,1,0,0:0:0:0:
182,192,36322,1,0,0:0:0:0:
402,192,36534,1,0,0:0:0:0:
109,192,36745,1,0,0:0:0:0:
256,192,36745,1,0,0:0:0:0:
329,192,36956,1,0,0:0:0:0:
182,192,37379,1,0,0:0:0:0:
109,192,37590,1,0,0:0:0:0:
475,192,37590,1,0,0:0:0:0:
329,192,37801,1,0,0:0:0:0:
36,192,38013,1,0,0:0:0:0:
256,192,38224,1,0,0:0:0:0:
109,192,38435,1,0,0:0:0:0:
475,192,38435,1,0,0:0:0:0:
329,192,38646,1,0,0:0:0:0:
402,192,39069,1,0,0:0:0:0:
182,192,39280,1,0,0:0:0:0:
329,192,39280,1,0,0:0:0:0:
109,192,39491,1,0,0:0:0:0:
256,192,39491,1,0,0:0:0:0:
475,192,39703,1,0,0:0:0:0:
256,192,39914,1,0,0:0:0:0:
36,192,40125,1,0,0:0:0:0:
402,192,40125,1,0,0:0:0:0:
182,192,40336,1,0,0:0:0:0:
329,192,40548,1,0,0:0:0:0:
402,192,40548,1,0,0:0:0:0:
109,192,40706,1,0,0:0:0:0:
182,192,40706,1,0,0:0:0:0:
329,192,40865,1,0,0:0:0:0:
402,192,40865,1,0,0:0:0:0:
36,192,40970,1,0,0:0:0:0:
182,192,41076,1,0,0:0:0:0:
329,192,41182,1,0,0:0:0:0:
475,192,41287,1,0,0:0:0:0:
36,192,41393,1,0,0:0:0:0:
182,192,41498,1,0,0:0:0:0:
475,192,41604,1,0,0:0:0:0:
402,192,41710,1,0,0:0:0:0:
329,192,41815,1,0,0:0:0:0:
256,192,41921,1,0,0:0:0:0:
36,192,42027,1,0,0:0:0:0:
182,192,42132,1,0,0:0:0:0:
329,192,42238,1,2,0:0:0:0:
402,192,42238,1,4,0:0:0:0:
475,192,42238,1,0,0:0:0:70:snaretom.wav
36,192,42449,1,0,0:0:0:0:
109,192,42449,1,0,0:0:0:30:hihat.wav
182,192,42555,1,0,0:0:0:0:
256,192,42660,1,2,0:0:0:0:
329,192,42660,1,8,0:0:0:0:
475,192,42660,1,0,0:0:0:0:
109,192,42872,1,0,0:0:0:30:hihat.wav
182,192,42872,1,0,0:0:0:0:
402,192,42977,1,0,0:0:0:0:
36,192,43083,1,2,0:0:0:0:
256,192,43083,1,0,0:0:0:0:
475,192,43294,1,0,0:0:0:30:hihat.wav
402,192,43400,1,0,0:0:0:0:
182,192,43505,1,2,0:0:0:0:
256,192,43505,1,8,0:0:0:0:
329,192,43505,1,0,0:0:0:0:
109,192,43611,1,0,0:0:0:0:
36,192,43717,1,0,0:0:0:30:hihat.wav
475,192,43717,1,0,0:0:0:0:
402,192,43822,1,0,0:0:0:0:
182,192,43928,1,2,0:0:0:0:
329,192,43928,1,0,0:0:0:0:
36,192,44139,1,0,0:0:0:30:hihat.wav
109,192,44245,1,0,0:0:0:0:
329,192,44351,1,2,0:0:0:0:
402,192,44351,1,8,0:0:0:0:
475,192,44351,1,0,0:0:0:0:
329,192,44562,1,0,0:0:0:30:hihat.wav
475,192,44562,1,0,0:0:0:0:
256,192,44667,1,0,0:0:0:0:
36,192,44773,1,2,0:0:0:0:
182,192,44773,1,0,0:0:0:0:
402,192,44984,1,0,0:0:0:30:hihat.wav
329,192,45090,1,0,0:0:0:0:
36,192,45196,1,2,0:0:0:0:
109,192,45196,1,8,0:0:0:0:
182,192,45196,1,0,0:0:0:0:
329,192,45407,1,2,0:0:0:0:
475,192,45407,1,0,0:0:0:30:hihat.wav
256,192,45513,1,0,0:0:0:0:
36,192,45618,1,2,0:0:0:0:
109,192,45618,1,0,0:0:0:0:
402,192,45618,1,0,0:0:0:0:
182,192,45724,1,0,0:0:0:0:
256,192,45829,1,0,0:0:0:30:hihat.wav
109,192,46041,1,8,0:0:0:0:
182,192,46041,1,2,0:0:0:0:
402,192,46041,1,0,0:0:0:0:
329,192,46252,1,0,0:0:0:30:hihat.wav
36,192,46463,1,2,0:0:0:0:
475,192,46463,1,0,0:0:0:0:
256,192,46675,1,0,0:0:0:30:hihat.wav
109,192,46886,1,8,0:0:0:0:
182,192,46886,1,2,0:0:0:0:
402,192,46886,1,0,0:0:0:0:
256,192,47097,1,0,0:0:0:30:hihat.wav
36,192,47308,1,2,0:0:0:0:
475,192,47308,1,0,0:0:0:0:
402,192,47520,1,0,0:0:0:30:hihat.wav
329,192,47625,1,0,0:0:0:0:
36,192,47731,1,2,0:0:0:0:
109,192,47731,1,8,0:0:0:0:
182,192,47731,1,0,0:0:0:0:
256,192,47836,1,0,0:0:0:0:
402,192,47942,1,0,0:0:0:30:hihat.wav
329,192,48048,1,0,0:0:0:0:
36,192,48153,1,2,0:0:0:0:
256,192,48153,1,0,0:0:0:0:
109,192,48259,1,0,0:0:0:0:
182,192,48365,1,2,0:0:0:0:
475,192,48365,1,0,0:0:0:30:hihat.wav
402,192,48470,1,0,0:0:0:0:
36,192,48576,1,2,0:0:0:0:
109,192,48576,1,8,0:0:0:0:
329,192,48576,1,0,0:0:0:0:
182,192,48682,1,0,0:0:0:0:
256,192,48787,1,2,0:0:0:0:
475,192,48787,1,0,0:0:0:30:hihat.wav
402,192,48893,1,0,0:0:0:0:
36,192,48998,1,2,0:0:0:0:
109,192,48998,1,4,0:0:0:0:
329,192,48998,1,0,0:0:0:70:snaretom.wav
329,192,49210,1,0,0:0:0:30:hihat.wav
475,192,49210,1,0,0:0:0:0:
256,192,49315,1,0,0:0:0:0:
36,192,49421,1,8,0:0:0:0:
109,192,49421,1,2,0:0:0:0:
182,192,49421,1,0,0:0:0:0:
329,192,49632,1,0,0:0:0:0:
402,192,49632,1,0,0:0:0:30:hihat.wav
256,192,49738,1,0,0:0:0:0:
109,192,49844,1,2,0:0:0:0:
182,192,49844,1,0,0:0:0:0:
329,192,50055,1,0,0:0:0:30:hihat.wav
475,192,50055,1,0,0:0:0:0:
256,192,50160,1,0,0:0:0:0:
36,192,50266,1,8,0:0:0:0:
109,192,50266,1,2,0:0:0:0:
182,192,50266,1,0,0:0:0:0:
402,192,50372,1,0,0:0:0:0:
109,192,50477,1,0,0:0:0:30:hihat.wav
475,192,50477,1,0,0:0:0:0:
256,192,50583,1,0,0:0:0:0:
36,192,50689,1,2,0:0:0:0:
329,192,50689,1,0,0:0:0:0:
109,192,50900,1,0,0:0:0:30:hihat.wav
182,192,51005,1,0,0:0:0:0:
256,192,51111,1,2,0:0:0:0:
402,192,51111,1,8,0:0:0:0:
475,192,51111,1,0,0:0:0:0:
36,192,51322,1,0,0:0:0:0:
329,192,51322,1,0,0:0:0:30:hihat.wav
109,192,51428,1,0,0:0:0:0:
182,192,51534,1,2,0:0:0:0:
475,192,51534,1,0,0:0:0:0:
329,192,51745,1,0,0:0:0:30:hihat.wav
256,192,51851,1,0,0:0:0:0:
36,192,51956,1,2,0:0:0:0:
109,192,51956,1,8,0:0:0:0:
182,192,51956,1,0,0:0:0:0:
402,192,52167,1,2,0:0:0:0:
475,192,52167,1,0,0:0:0:30:hihat.wav
256,192,52273,1,0,0:0:0:0:
36,192,52379,1,2,0:0:0:0:
182,192,52379,1,0,0:0:0:0:
475,192,52590,1,0,0:0:0:30:hihat.wav
402,192,52696,1,0,0:0:0:0:
36,192,52801,1,8,0:0:0:0:
109,192,52801,1,2,0:0:0:0:
329,192,52801,1,0,0:0:0:0:
182,192,53013,1,0,0:0:0:30:hihat.wav
256,192,53118,1,0,0:0:0:0:
329,192,53224,1,2,0:0:0:0:
475,192,53224,1,0,0:0:0:0:
109,192,53435,1,0,0:0:0:30:hihat.wav
329,192,53541,1,0,0:0:0:0:
36,192,53646,1,8,0:0:0:0:
182,192,53646,1,2,0:0:0:0:
475,192,53646,1,0,0:0:0:0:
402,192,53858,1,0,0:0:0:30:hihat.wav
329,192,53963,1,0,0:0:0:0:
36,192,54069,1,2,0:0:0:0:
182,192,54069,1,0,0:0:0:0:
329,192,54280,1,0,0:0:0:30:hihat.wav
256,192,54386,1,0,0:0:0:0:
109,192,54491,1,2,0:0:0:0:
182,192,54491,1,8,0:0:0:0:
475,192,54491,1,0,0:0:0:0:
402,192,54597,1,0,0:0:0:0:
329,192,54703,1,0,0:0:0:30:hihat.wav
36,192,54808,1,0,0:0:0:0:
109,192,54914,1,2,0:0:0:0:
475,192,54914,1,0,0:0:0:0:
402,192,55020,1,0,0:0:0:0:
182,192,55125,1,2,0:0:0:0:
329,192,55125,1,0,0:0:0:30:hihat.wav
109,192,55231,1,0,0:0:0:0:
36,192,55336,1,8,0:0:0:0:
329,192,55336,1,2,0:0:0:0:
402,192,55336,1,0,0:0:0:0:
256,192,55442,1,0,0:0:0:0:
182,192,55548,1,2,0:0:0:0:
475,192,55548,1,0,0:0:0:30:hihat.wav
402,192,55653,1,0,0:0:0:0:
36,192,55759,1,2,0:0:0:0:
256,192,55759,1,4,0:0:0:0:
329,192,55759,1,0,0:0:0:0:
109,192,55865,1,0,0:0:0:0:
182,192,55970,1,0,0:0:0:0:
475,192,56076,1,0,0:0:0:0:
329,192,56182,1,0,0:0:0:0:
109,192,56393,1,0,0:0:0:0:
402,192,56604,1,0,0:0:0:0:
182,192,56815,1,0,0:0:0:0:
256,192,57027,1,0,0:0:0:0:
109,192,57238,1,0,0:0:0:0:
402,192,57238,1,0,0:0:0:0:
36,192,57449,1,2,0:0:0:0:
256,192,57449,1,4,0:0:0:0:
475,192,57449,1,0,0:0:0:70:snaretom.wav
402,192,57660,1,0,0:0:0:30:hihat.wav
329,192,57660,1,0,0:0:0:0:
36,192,57872,1,2,0:0:0:0:
182,192,57872,1,8,0:0:0:0:
256,192,57872,1,0,0:0:0:0:
109,192,58083,1,0,0:0:0:30:hihat.wav
402,192,58083,1,0,0:0:0:0:
329,192,58294,1,2,0:0:0:0:
475,192,58294,1,0,0:0:0:0:
256,192,58505,1,0,0:0:0:30:hihat.wav
36,192,58717,1,2,0:0:0:0:
329,192,58717,1,8,0:0:0:0:
402,192,58717,1,0,0:0:0:0:
109,192,58928,1,0,0:0:0:30:hihat.wav
182,192,58928,1,0,0:0:0:0:
256,192,59139,1,2,0:0:0:0:
475,192,59139,1,0,0:0:0:0:
329,192,59351,1,0,0:0:0:30:hihat.wav
402,192,59351,1,0,0:0:0:0:
36,192,59562,1,2,0:0:0:0:
109,192,59562,1,8,0:0:0:0:
256,192,59562,1,0,0:0:0:0:
402,192,59773,1,0,0:0:0:30:hihat.wav
475,192,59773,1,0,0:0:0:0:
36,192,59984,1,2,0:0:0:0:
182,192,59984,1,0,0:0:0:0:
256,192,60196,1,0,0:0:0:30:hihat.wav
109,192,60407,1,2,0:0:0:0:
329,192,60407,1,8,0:0:0:0:
475,192,60407,1,0,0:0:0:0:
182,192,60618,1,2,0:0:0:0:
256,192,60618,1,0,0:0:0:30:hihat.wav
402,192,60618,1,0,0:0:0:0:
36,192,60829,1,2,0:0:0:0:
329,192,60829,1,0,0:0:0:0:
109,192,61041,1,0,0:0:0:30:hihat.wav
182,192,61146,1,0,0:0:0:0:
256,192,61252,1,8,0:0:0:0:
402,192,61252,1,2,0:0:0:0:
475,192,61252,1,0,0:0:0:0:
36,192,61358,1,0,0:0:0:0:
109,192,61463,1,0,0:0:0:30:hihat.wav
182,192,61569,1,0,0:0:0:0:
256,192,61675,1,2,0:0:0:0:
475,192,61675,1,0,0:0:0:0:
402,192,61886,1,0,0:0:0:30:hihat.wav
329,192,61991,1,0,0:0:0:0:
36,192,62097,1,8,0:0:0:0:
109,192,62097,1,2,0:0:0:0:
256,192,62097,1,0,0:0:0:0:
475,192,62203,1,0,0:0:0:0:
402,192,62308,1,0,0:0:0:30:hihat.wav
329,192,62414,1,0,0:0:0:0:
36,192,62520,1,2,0:0:0:0:
256,192,62520,1,0,0:0:0:0:
182,192,62731,1,0,0:0:0:30:hihat.wav
256,192,62836,1,0,0:0:0:0:
36,192,62942,1,2,0:0:0:0:
329,192,62942,1,8,0:0:0:0:
475,192,62942,1,0,0:0:0:0:
109,192,63048,1,0,0:0:0:0:
182,192,63153,1,0,0:0:0:30:hihat.wav
402,192,63259,1,0,0:0:0:0:
36,192,63365,1,2,0:0:0:0:
329,192,63365,1,0,0:0:0:0:
256,192,63470,1,0,0:0:0:0:
36,192,63576,1,2,0:0:0:0:
402,192,63576,1,0,0:0:0:30:hihat.wav
109,192,63646,1,0,0:0:0:30:hihat.wav
182,192,63717,1,0,0:0:0:30:hihat.wav
256,192,63787,1,2,0:0:0:0:
475,192,63787,1,8,0:0:0:0:
109,192,63998,1,2,0:0:0:0:
402,192,63998,1,0,0:0:0:30:hihat.wav
329,192,64069,1,0,0:0:0:30:hihat.wav
256,192,64139,1,0,0:0:0:30:hihat.wav
36,192,64210,1,2,0:0:0:0:
182,192,64210,1,4,0:0:0:0:
475,192,64210,1,0,0:0:0:0:
402,192,64421,1,0,0:0:0:30:hihat.wav
109,192,64421,1,0,0:0:0:0:
36,192,64632,1,8,0:0:0:0:
256,192,64632,1,2,0:0:0:0:
329,192,64632,1,0,0:0:0:0:
182,192,64844,1,0,0:0:0:30:hihat.wav
36,192,65055,1,2,0:0:0:0:
329,192,65055,1,0,0:0:0:0:
256,192,65266,1,0,0:0:0:30:hihat.wav
182,192,65477,1,8,0:0:0:0:
402,192,65477,1,2,0:0:0:0:
475,192,65477,1,0,0:0:0:0:
329,192,65689,1,0,0:0:0:30:hihat.wav
36,192,65689,1,0,0:0:0:0:
109,192,65900,1,2,0:0:0:0:
256,192,65900,1,0,0:0:0:0:
182,192,66111,1,0,0:0:0:30:hihat.wav
329,192,66111,1,0,0:0:0:0:
256,192,66322,1,8,0:0:0:0:
402,192,66322,1,2,0:0:0:0:
475,192,66322,1,0,0:0:0:0:
182,192,66534,1,0,0:0:0:30:hihat.wav
109,192,66534,1,0,0:0:0:0:
402,192,66745,1,2,0:0:0:0:
329,192,66745,1,0,0:0:0:0:
109,192,66956,1,0,0:0:0:30:hihat.wav
182,192,67167,1,8,0:0:0:0:
329,192,67167,1,2,0:0:0:0:
475,192,67167,1,0,0:0:0:0:
109,192,67379,1,2,0:0:0:0:
256,192,67379,1,0,0:0:0:30:hihat.wav
402,192,67379,1,0,0:0:0:0:
36,192,67590,1,2,0:0:0:0:
182,192,67590,1,0,0:0:0:0:
475,192,67801,1,0,0:0:0:30:hihat.wav
402,192,67907,1,0,0:0:0:0:
36,192,68013,1,2,0:0:0:0:
256,192,68013,1,8,0:0:0:0:
329,192,68013,1,0,0:0:0:0:
109,192,68118,1,0,0:0:0:0:
182,192,68224,1,0,0:0:0:30:hihat.wav
256,192,68329,1,0,0:0:0:0:
36,192,68435,1,2,0:0:0:0:
475,192,68435,1,0,0:0:0:0:
402,192,68541,1,0,0:0:0:0:
329,192,68646,1,0,0:0:0:30:hihat.wav
256,192,68646,1,0,0:0:0:0:
36,192,68752,1,0,0:0:0:0:
109,192,68858,1,2,0:0:0:0:
182,192,68858,1,8,0:0:0:0:
402,192,68858,1,0,0:0:0:0:
329,192,68963,1,0,0:0:0:0:
256,192,69069,1,0,0:0:0:30:hihat.wav
36,192,69069,1,0,0:0:0:0:
182,192,69175,1,0,0:0:0:0:
109,192,69280,1,2,0:0:0:0:
475,192,69280,1,0,0:0:0:0:
402,192,69386,1,0,0:0:0:0:
329,192,69491,1,0,0:0:0:30:hihat.wav
256,192,69491,1,0,0:0:0:0:
182,192,69597,1,0,0:0:0:0:
36,192,69703,1,8,0:0:0:0:
109,192,69703,1,2,0:0:0:0:
475,192,69703,1,0,0:0:0:0:
402,192,69808,1,0,0:0:0:0:
329,192,69914,1,0,0:0:0:30:hihat.wav
182,192,69914,1,0,0:0:0:0:
36,192,70020,1,0,0:0:0:0:
109,192,70125,1,2,0:0:0:0:
402,192,70125,1,0,0:0:0:0:
329,192,70231,1,0,0:0:0:0:
256,192,70336,1,2,0:0:0:0:
475,192,70336,1,0,0:0:0:30:hihat.wav
182,192,70442,1,0,0:0:0:0:
109,192,70548,1,8,0:0:0:0:
402,192,70548,1,2,0:0:0:0:
329,192,70653,1,0,0:0:0:0:
36,192,70759,1,2,0:0:0:0:
256,192,70759,1,0,0:0:0:30:hihat.wav
109,192,70865,1,0,0:0:0:0:
182,192,70970,1,2,0:0:0:0:
475,192,70970,1,0,0:0:0:0:
402,192,71076,1,0,0:0:0:0:
329,192,71182,1,0,0:0:0:30:hihat.wav
256,192,71287,1,0,0:0:0:0:
36,192,71393,1,2,0:0:0:0:
182,192,71393,1,8,0:0:0:0:
475,192,71393,1,0,0:0:0:0:
256,192,71498,1,0,0:0:0:0:
109,192,71604,1,2,0:0:0:0:
329,192,71604,1,0,0:0:0:30:hihat.wav
402,192,71710,1,0,0:0:0:0:
36,192,71815,1,2,0:0:0:0:
256,192,71815,1,4,0:0:0:0:
475,192,71815,1,0,0:0:0:0:
109,192,71921,1,0,0:0:0:0:
182,192,72027,1,0,0:0:0:0:
256,192,72132,1,0,0:0:0:0:
329,192,72238,1,0,0:0:0:0:
36,192,72660,1,4,0:0:0:0:
402,192,72660,1,2,0:0:0:0:
109,192,72766,1,0,0:0:0:0:
182,192,72872,1,0,0:0:0:0:
475,192,72977,1,0,0:0:0:0:
402,192,73083,1,0,0:0:0:0:
329,192,73189,1,0,0:0:0:0:
36,192,73294,1,0,0:0:0:0:
109,192,73400,1,0,0:0:0:0:
182,192,73505,1,0,0:0:0:0:
256,192,73611,1,0,0:0:0:0:
329,192,73717,1,0,0:0:0:0:
475,192,73822,1,0,0:0:0:0:
402,192,73928,1,0,0:0:0:0:
329,192,74034,1,0,0:0:0:0:
36,192,74139,1,0,0:0:0:0:
182,192,74245,1,0,0:0:0:0:
329,192,74351,1,4,0:0:0:0:
402,192,74351,1,2,0:0:0:0:
475,192,74351,1,0,0:0:0:70:snaretom.wav
256,192,74562,1,0,0:0:0:30:hihat.wav
36,192,74773,1,2,0:0:0:0:
109,192,74773,1,8,0:0:0:0:
182,192,74773,1,0,0:0:0:0:
329,192,74984,1,0,0:0:0:30:hihat.wav
256,192,75196,1,2,0:0:0:0:
475,192,75196,1,0,0:0:0:0:
182,192,75407,1,0,0:0:0:30:hihat.wav
36,192,75618,1,2,0:0:0:0:
109,192,75618,1,8,0:0:0:0:
475,192,75618,1,0,0:0:0:0:
402,192,75829,1,0,0:0:0:30:hihat.wav
36,192,76041,1,2,0:0:0:0:
329,192,76041,1,0,0:0:0:0:
109,192,76252,1,0,0:0:0:30:hihat.wav
182,192,76463,1,8,0:0:0:0:
329,192,76463,1,2,0:0:0:0:
475,192,76463,1,0,0:0:0:0:
402,192,76675,1,0,0:0:0:30:hihat.wav
36,192,76886,1,2,0:0:0:0:
182,192,76886,1,0,0:0:0:0:
256,192,77097,1,0,0:0:0:30:hihat.wav
329,192,77308,1,8,0:0:0:0:
402,192,77308,1,2,0:0:0:0:
475,192,77308,1,0,0:0:0:0:
36,192,77520,1,2,0:0:0:0:
109,192,77520,1,0,0:0:0:30:hihat.wav
182,192,77520,1,0,0:0:0:0:
329,192,77731,1,2,0:0:0:0:
402,192,77731,1,0,0:0:0:0:
475,192,77731,1,0,0:0:0:0:
256,192,77942,1,0,0:0:0:30:hihat.wav
36,192,78153,1,2,0:0:0:0:
182,192,78153,1,8,0:0:0:0:
402,192,78153,1,0,0:0:0:0:
109,192,78365,1,0,0:0:0:30:hihat.wav
182,192,78576,1,2,0:0:0:0:
329,192,78576,1,0,0:0:0:0:
402,192,78787,1,0,0:0:0:30:hihat.wav
109,192,78998,1,2,0:0:0:0:
329,192,78998,1,8,0:0:0:0:
475,192,78998,1,0,0:0:0:0:
182,192,79210,1,0,0:0:0:30:hihat.wav
36,192,79421,1,2,0:0:0:0:
329,192,79421,1,0,0:0:0:0:
256,192,79632,1,0,0:0:0:30:hihat.wav
36,192,79844,1,8,0:0:0:0:
182,192,79844,1,2,0:0:0:0:
475,192,79844,1,0,0:0:0:0:
402,192,80055,1,0,0:0:0:30:hihat.wav
109,192,80266,1,2,0:0:0:0:
256,192,80266,1,0,0:0:0:0:
182,192,80477,1,2,0:0:0:0:
475,192,80477,1,0,0:0:0:30:hihat.wav
402,192,80548,1,0,0:0:0:30:hihat.wav
329,192,80618,1,0,0:0:0:30:hihat.wav
36,192,80689,1,8,0:0:0:0:
256,192,80689,1,2,0:0:0:0:
109,192,80900,1,2,0:0:0:0:
475,192,80900,1,0,0:0:0:30:hihat.wav
182,192,80970,1,0,0:0:0:30:hihat.wav
256,192,81041,1,0,0:0:0:30:hihat.wav
329,192,81111,1,2,0:0:0:0:
402,192,81111,1,4,0:0:0:0:
475,192,81111,1,0,0:0:0:70:snaretom.wav
109,192,81322,1,0,0:0:0:30:hihat.wav
36,192,81534,1,8,0:0:0:0:
182,192,81534,1,2,0:0:0:0:
256,192,81534,1,0,0:0:0:0:
109,192,81745,1,0,0:0:0:30:hihat.wav
182,192,81956,1,2,0:0:0:0:
475,192,81956,1,0,0:0:0:0:
329,192,82167,1,0,0:0:0:30:hihat.wav
36,192,82379,1,2,0:0:0:0:
182,192,82379,1,8,0:0:0:0:
402,192,82379,1,0,0:0:0:0:
256,192,82590,1,0,0:0:0:30:hihat.wav
109,192,82801,1,2,0:0:0:0:
329,192,82801,1,0,0:0:0:0:
182,192,83013,1,0,0:0:0:30:hihat.wav
256,192,83224,1,8,0:0:0:0:
402,192,83224,1,2,0:0:0:0:
475,192,83224,1,0,0:0:0:0:
109,192,83435,1,0,0:0:0:30:hihat.wav
36,192,83646,1,2,0:0:0:0:
182,192,83646,1,0,0:0:0:0:
329,192,83858,1,0,0:0:0:30:hihat.wav
36,192,84069,1,8,0:0:0:0:
109,192,84069,1,2,0:0:0:0:
182,192,84175,1,0,0:0:0:0:
256,192,84280,1,2,0:0:0:0:
475,192,84280,1,0,0:0:0:30:hihat.wav
402,192,84386,1,0,0:0:0:0:
36,192,84491,1,2,0:0:0:0:
109,192,84491,1,0,0:0:0:0:
329,192,84491,1,0,0:0:0:0:
182,192,84703,1,0,0:0:0:30:hihat.wav
36,192,84914,1,2,0:0:0:0:
256,192,84914,1,8,0:0:0:0:
475,192,84914,1,0,0:0:0:0:
402,192,85125,1,0,0:0:0:30:hihat.wav
109,192,85336,1,2,0:0:0:0:
329,192,85336,1,0,0:0:0:0:
182,192,85548,1,0,0:0:0:30:hihat.wav
329,192,85759,1,2,0:0:0:0:
402,192,85759,1,8,0:0:0:0:
475,192,85759,1,0,0:0:0:0:
109,192,85970,1,0,0:0:0:30:hihat.wav
36,192,86182,1,2,0:0:0:0:
182,192,86182,1,0,0:0:0:0:
402,192,86182,1,0,0:0:0:0:
329,192,86393,1,0,0:0:0:30:hihat.wav
36,192,86604,1,8,0:0:0:0:
109,192,86604,1,2,0:0:0:0:
475,192,86604,1,0,0:0:0:0:
256,192,86604,1,0,0:0:0:0:
402,192,86815,1,0,0:0:0:30:hihat.wav
109,192,87027,1,2,0:0:0:0:
329,192,87027,1,0,0:0:0:0:
36,192,87238,1,0,0:0:0:30:hihat.wav
109,192,87238,1,0,0:0:0:0:
182,192,87308,1,0,0:0:0:30:hihat.wav
402,192,87379,1,0,0:0:0:30:hihat.wav
256,192,87449,1,10,0:0:0:0:
329,192,87449,1,0,0:0:0:0:
36,192,87660,1,2,0:0:0:0:
109,192,87660,1,0,0:0:0:30:hihat.wav
182,192,87731,1,0,0:0:0:30:hihat.wav
475,192,87801,1,0,0:0:0:30:hihat.wav
329,192,87872,1,6,0:0:0:0:
402,192,87872,1,0,0:0:0:70:snaretom.wav
182,192,88324,1,0,0:0:0:0:
329,192,88777,1,0,0:0:0:0:
182,192,89230,1,0,0:0:0:0:
256,192,89683,1,0,0:0:0:0:
36,192,90183,1,0,0:0:0:0:
109,192,90683,1,0,0:0:0:0:
329,192,91183,1,0,0:0:0:0:
256,192,91683,1,0,0:0:0:0:
109,192,94379,1,0,0:0:0:0:
402,192,94379,1,0,0:0:0:0:
