osu file format v14

[General]
AudioFilename: port.mp3
AudioLeadIn: 0
PreviewTime: 56129
Countdown: 0
SampleSet: Soft
StackLeniency: 0.7
Mode: 0
LetterboxInBreaks: 0
WidescreenStoryboard: 1

[Editor]
DistanceSpacing: 0.7
BeatDivisor: 4
GridSize: 4
TimelineZoom: 2.7

[Metadata]
Title:Fuujin Raijin
TitleUnicode:風仁雷仁
Artist:Colorful Sounds Port
ArtistUnicode:カラフル・サウンズ・ポート
Creator:Komore
Version:Normal
Source:BMS
Tags:wajinshu
BeatmapID:1413003
BeatmapSetID:667790

[Difficulty]
HPDrainRate:3
CircleSize:3.5
OverallDifficulty:3.5
ApproachRate:4.5
SliderMultiplier:1.2
SliderTickRate:1

[Events]
//Background and Video events
0,0,"suka.jpg",0,0
//Break Periods
//Storyboard Layer 0 (Background)
//Storyboard Layer 1 (Fail)
//Storyboard Layer 2 (Pass)
//Storyboard Layer 3 (Foreground)
//Storyboard Sound Samples

[TimingPoints]
883,422.5352,4,2,1,60,1,0
2150,-100,4,2,1,60,0,0
2573,-100,4,2,1,50,0,0
9333,-100,4,2,1,60,0,0
14404,-100,4,2,1,60,0,0
14509,-100,4,2,1,60,0,0
26657,-100,4,2,1,40,0,0
48312,-100,4,2,1,60,0,0
53277,-100,4,2,1,60,0,0
54967,-100,4,2,1,40,0,0
55073,-100,4,2,1,40,0,0
55390,-100,4,2,1,50,0,0
55812,-100,4,2,1,60,0,0
56235,-100,4,2,1,70,0,0
56657,-100,4,2,1,80,0,1
59192,-100,4,2,1,80,0,1
59615,-100,4,2,1,50,0,1
60883,-100,4,2,1,60,0,1
61728,-100,4,2,1,70,0,1
62573,-100,4,2,1,80,0,1
62995,-100,4,2,1,50,0,1
63418,-100,4,2,1,80,0,1
66798,-100,4,2,1,70,0,1
66904,-100,4,2,1,70,0,1
73559,-100,4,2,1,70,0,0
87080,452.8302,4,2,1,60,1,0
87080,-100,4,2,1,60,0,0
88438,459.7701,4,2,1,60,1,0
88438,-100,4,2,1,60,0,0
88885,512.8205,4,2,1,40,1,0
88885,-100,4,2,1,40,0,0
89409,476.1905,4,2,1,40,1,0
89409,-100,4,2,1,40,0,0
89885,521.7391,4,2,1,40,1,0
89885,-100,4,2,1,40,0,0
90928,662.9834,4,2,1,20,1,0
90928,-100,4,2,1,20,0,0
93248,-100,4,2,1,5,0,0
93579,-100,4,2,1,20,0,0
96231,-100,4,2,1,5,0,0

[Colours]
Combo1 : 255,215,91
Combo2 : 255,51,153
Combo3 : 123,37,218
Combo4 : 69,174,51

[HitObjects]
59,137,2573,6,0,P|117:109|175:123,1,120,4|2,0:0|0:0,0:0:0:0:
197,150,3206,1,0,0:0:0:0:
227,178,3418,2,0,P|286:170|346:163,1,120,2|2,0:0|0:0,0:0:0:0:
382,184,4052,1,0,0:0:0:0:
410,215,4263,2,0,B|432:253|432:253|416:351,1,120,6|2,0:0|0:0,0:0:0:0:
344,366,5108,2,0,P|291:337|216:357,1,120,4|2,0:0|0:0,0:0:0:0:
196,364,5742,1,0,0:0:0:0:
155,373,5953,6,0,L|35:359,2,120,6|2|4,0:0|0:0|0:0,0:0:0:0:
227,329,7221,1,2,0:0:0:0:
302,364,7643,2,0,P|360:340|433:362,1,120,4|2,0:0|0:0,0:0:0:0:
493,378,8488,1,2,0:0:0:0:
512,296,8911,2,0,P|506:262|495:235,1,60,2|2,0:0|0:0,0:0:0:0:
459,219,9333,6,0,P|406:255|339:230,1,120,6|2,3:0|0:0,0:0:0:0:
319,220,9967,1,4,3:0:0:0:
293,185,10178,2,0,L|306:65,1,120,10|2,0:0|0:0,0:0:0:0:
275,38,10812,1,2,0:0:0:0:
235,51,11023,2,0,L|161:42,1,60,2|6,0:0|3:0,0:0:0:0:
137,62,11446,2,0,P|130:94|132:138,1,60,2|2,0:0|0:0,0:0:0:0:
139,161,11868,2,0,P|83:142|15:177,1,120,10|2,0:0|0:0,0:0:0:0:
6,198,12502,1,6,3:0:0:0:
19,237,12713,5,6,3:0:0:0:
90,281,13136,2,0,P|153:274|216:268,1,120,6|8,3:0|0:0,0:0:0:0:
280,312,13981,1,14,3:0:0:0:
347,261,14404,6,0,P|363:195|325:134,1,120,14|10,3:1|0:0,0:0:0:0:
272,102,15249,2,0,P|143:114|130:113,1,120,10|10,0:0|0:0,0:0:0:0:
86,166,16094,2,0,B|64:202|64:202|83:298,1,120,10|10,0:0|0:0,0:0:0:0:
144,330,16939,2,0,P|225:294|266:320,1,120,10|10,0:0|0:0,0:0:0:0:
278,332,17573,1,10,0:0:0:0:
311,356,17784,2,0,L|451:347,1,120,10|10,0:0|0:0,0:0:0:0:
490,289,18629,2,0,P|499:258|494:217,1,60,10|0,0:0|0:0,0:0:0:0:
472,197,19052,1,10,0:0:0:0:
405,145,19474,6,0,P|352:151|272:162,1,120,8|10,0:0|0:0,0:0:0:0:
217,209,20319,2,0,P|187:205|157:201,1,60,10|2,0:0|0:0,0:0:0:0:
121,223,20742,2,0,P|87:213|55:218,1,60,8|12,0:0|3:0,0:0:0:0:
27,193,21164,2,0,B|16:115|16:115|46:76,1,120,14|10,0:0|0:0,0:0:0:0:
110,34,22009,1,10,0:0:0:0:
178,83,22432,1,10,0:0:0:0:
249,39,22854,6,0,P|300:26|365:48,1,120,10|10,0:0|0:0,0:0:0:0:
417,109,23699,2,0,P|409:160|404:191,1,60,8|2,0:0|0:0,0:0:0:0:
430,203,24122,2,0,P|439:232|434:273,1,60,10|2,0:0|0:0,0:0:0:0:
408,292,24544,2,0,P|355:281|280:268,1,120,10|10,0:0|0:0,0:0:0:0:
253,289,25178,1,2,3:0:0:0:
212,302,25390,2,0,P|178:296|132:287,1,60,8|2,0:0|3:0,0:0:0:0:
115,309,25812,2,0,P|85:304|55:300,1,60,10|2,0:0|3:0,0:0:0:0:
27,269,26235,5,10,0:0:0:0:
27,269,27925,6,0,P|34:199|42:149,2,120,6|2|2,3:1|0:0|0:0,0:0:0:0:
81,332,29192,1,2,0:0:0:0:
149,283,29615,2,0,P|217:259|266:280,1,120,2|2,0:0|0:0,0:0:0:0:
289,303,30249,1,2,0:0:0:0:
319,331,30460,2,0,B|461:321,1,120,2|2,0:0|0:0,0:0:0:0:
471,296,31094,1,2,0:0:0:0:
494,260,31305,6,0,P|496:191|456:151,1,120,2|2,0:0|0:0,0:0:0:0:
384,127,32150,2,0,P|294:146|256:143,1,120,2|2,0:0|0:0,0:0:0:0:
193,103,32995,2,0,L|173:231,1,120,2|0,0:0|0:0,0:0:0:0:
189,260,33629,1,2,0:0:0:0:
216,291,33840,2,0,P|273:271|336:285,1,120,2|2,0:0|0:0,0:0:0:0:
368,301,34474,1,4,3:0:0:0:
405,281,34685,6,0,B|424:243|424:243|407:164,1,120,4|2,3:1|0:0,0:0:0:0:
345,111,35530,1,2,0:0:0:0:
273,154,35953,1,2,0:0:0:0:
199,113,36375,2,0,P|136:96|68:136,2,120,2|2|2,0:0|0:0|0:0,0:0:0:0:
273,154,37643,2,0,P|302:150|332:147,1,60,2|2,0:0|0:0,0:0:0:0:
369,127,38066,6,0,B|345:165|345:165|363:263,1,120,0|2,0:0|0:0,0:0:0:0:
375,277,38699,1,2,0:0:0:0:
354,313,38911,2,0,L|293:302,1,60,2|2,0:0|0:0,0:0:0:0:
258,323,39333,2,0,P|213:337|184:331,1,60,2|2,0:0|0:0,0:0:0:0:
168,309,39756,2,0,B|150:255|181:212|181:212|169:180|169:180|201:128|165:72,1,240,2|2,0:0|0:0,0:0:0:0:
97,41,41023,1,0,0:0:0:0:
42,105,41446,6,0,P|18:160|51:229,1,120,4|2,3:1|0:0,0:0:0:0:
63,246,42080,1,2,0:0:0:0:
97,270,42291,2,0,B|166:248|166:248|208:268,1,120,10|8,0:0|0:0,0:0:0:0:
277,316,43136,2,0,P|336:309|396:304,1,120,10|8,0:0|0:0,0:0:0:0:
434,284,43770,1,2,0:0:0:0:
460,251,43981,2,0,P|452:210|444:191,1,60,10|0,0:0|0:0,0:0:0:0:
414,164,44404,2,0,P|417:127|425:101,1,60,8|8,0:0|0:0,0:0:0:0:
447,71,44826,6,0,P|400:88|327:56,1,120,10|10,0:0|0:0,0:0:0:0:
263,23,45671,2,0,P|256:64|246:153,1,120,10|8,0:0|0:0,0:0:0:0:
214,169,46305,1,2,0:0:0:0:
180,194,46516,2,0,B|146:173|146:173|57:188,1,120,10|10,0:0|0:0,0:0:0:0:
33,211,47150,1,2,0:0:0:0:
19,250,47361,2,0,P|22:274|28:315,2,60,10|8|10,0:0|0:0|0:0,0:0:0:0:
102,261,48206,6,0,P|168:243|241:270,1,120,4|8,3:1|0:0,0:0:0:0:
250,279,48840,1,2,0:0:0:0:
284,303,49052,2,0,L|369:296,1,60,10|0,0:0|0:0,0:0:0:0:
378,274,49474,2,0,L|449:283,1,60,10|0,0:0|0:0,0:0:0:0:
464,249,49897,2,0,B|476:181|476:181|451:125,1,120,10|8,0:0|0:0,0:0:0:0:
422,107,50530,1,2,0:0:0:0:
386,83,50742,2,0,P|357:85|317:94,1,60,10|0,0:0|0:0,0:0:0:0:
289,109,51164,2,0,P|261:105|222:100,1,60,10|8,0:0|0:0,0:0:0:0:
193,122,51587,6,0,P|168:180|190:238,1,120,8|10,0:0|0:0,0:0:0:0:
240,294,52432,2,0,P|264:240|248:184,1,120,10|10,0:0|0:0,0:0:0:0:
307,124,53277,2,0,P|367:135|441:143,1,120,8|10,0:0|0:0,0:0:0:0:
466,130,53911,1,2,0:0:0:0:
495,159,54122,2,0,P|515:214|490:276,1,120,8|10,0:0|0:0,0:0:0:0:
419,306,54967,6,0,P|360:299|300:293,1,120,6|2,3:1|0:0,0:0:0:0:
223,327,55812,1,2,0:0:0:0:
176,256,56235,2,0,P|176:223|181:190,1,60,2|2,0:0|0:0,0:0:0:0:
207,164,56657,6,0,L|197:98,1,60,6|2,3:1|0:0,0:0:0:0:
168,75,57080,2,0,P|136:77|100:74,1,60,10|2,0:0|0:0,0:0:0:0:
69,91,57502,2,0,P|41:137|56:210,1,120,8|10,0:0|0:0,0:0:0:0:
78,230,58136,1,2,0:0:0:0:
106,260,58347,2,0,P|140:256|177:253,1,60,10|2,0:0|0:0,0:0:0:0:
200,277,58770,2,0,P|230:282|275:276,1,60,10|2,0:0|0:0,0:0:0:0:
295,259,59192,2,0,P|360:263|427:274,1,120,10|10,0:0|0:0,0:0:0:0:
451,290,59826,1,2,0:0:0:0:
485,265,60037,6,0,B|503:224|503:224|473:132,1,120,10|10,0:0|0:0,0:0:0:0:
416,96,60882,2,0,P|356:117|293:78,1,120,10|10,0:0|0:0,0:0:0:0:
235,50,61728,2,0,P|227:109|220:169,1,120,10|10,0:0|0:0,0:0:0:0:
288,218,62573,2,0,P|346:211|364:202,1,60,10|8,0:0|0:0,0:0:0:0:
382,233,62995,2,0,P|393:259|401:304,1,60,8|8,0:0|0:0,0:0:0:0:
372,322,63418,6,0,P|340:323|299:329,1,60,6|2,3:1|0:0,0:0:0:0:
273,343,63840,2,0,P|242:340|197:335,1,60,10|2,0:0|0:0,0:0:0:0:
176,317,64263,2,0,P|113:333|52:298,1,120,10|10,0:0|0:0,0:0:0:0:
39,277,64897,1,2,0:0:0:0:
25,237,65108,2,0,P|32:169|36:158,1,60,10|2,0:0|0:0,0:0:0:0:
57,146,65530,2,0,P|51:88|45:75,1,60,10|2,0:0|0:0,0:0:0:0:
22,55,65953,2,0,P|87:44|151:34,1,120,10|10,0:0|0:0,0:0:0:0:
210,81,66798,6,0,P|231:138|204:199,2,120,10|8|10,0:0|0:0|0:0,0:0:0:0:
178,53,67854,1,2,0:0:0:0:
138,65,68066,2,0,P|101:64|68:59,1,60,10|2,0:0|0:0,0:0:0:0:
38,48,68488,2,0,P|43:81|50:119,1,60,14|2,0:0|0:0,0:0:0:0:
26,143,68911,1,14,0:0:0:0:
3,223,69333,2,0,P|36:214|80:216,1,60,14|14,0:0|3:0,0:0:0:0:
100,229,69756,2,0,L|91:303,1,60,14|14,3:0|3:0,0:0:0:0:
122,318,70178,6,0,P|177:338|239:293,1,120,14|8,3:2|3:0,0:0:0:0:
260,284,70812,1,10,3:0:0:0:
288,253,71023,2,0,P|284:219|277:187,1,60,6|0,3:1|0:0,0:0:0:0:
310,166,71446,2,0,L|391:174,1,60,2|2,0:0|0:0,0:0:0:0:
405,143,71868,2,0,B|483:168|487:229|487:229|439:224|439:224|426:244|409:256|409:256|464:325|426:392,1,360,6|2,3:1|0:0,0:0:0:0:
344,383,73559,6,0,P|286:377|209:372,1,120,14|10,3:1|0:0,0:0:0:0:
149,335,74404,2,0,P|138:265|168:212,1,120,10|10,0:0|0:0,0:0:0:0:
227,173,75249,2,0,B|264:185|264:185|367:168,1,120,10|10,0:0|0:0,0:0:0:0:
417,131,76094,1,10,0:0:0:0:
470,195,76516,2,0,P|483:233|485:262,1,60,10|10,2:0|2:3,0:0:0:0:
462,288,76939,6,0,P|391:267|335:298,1,120,10|10,0:0|0:0,0:0:0:0:
282,331,77784,2,0,P|211:352|155:321,1,120,10|10,0:0|0:0,0:0:0:0:
132,260,78629,2,0,P|139:192|145:139,1,120,10|10,0:0|0:0,0:0:0:0:
198,75,79474,2,0,P|233:68|265:72,1,60,10|8,0:0|3:0,0:0:0:0:
291,94,79897,2,0,L|355:90,1,60,8|0,3:0|0:0,0:0:0:0:
386,67,80319,6,0,B|369:146|369:146|390:178,1,120,6|10,3:1|0:0,0:0:0:0:
458,228,81164,2,0,P|395:261|402:312,1,120,10|10,0:0|0:0,0:0:0:0:
445,369,82009,2,0,P|397:361|311:352,1,120,10|10,0:0|0:0,0:0:0:0:
256,306,82854,2,0,P|226:316|179:318,1,60,10|2,0:0|0:0,0:0:0:0:
163,342,83277,2,0,P|130:332|93:330,1,60,10|2,0:0|0:0,0:0:0:0:
67,348,83699,6,0,B|46:306|46:306|67:207,1,120,10|10,0:0|0:0,0:0:0:0:
106,163,84544,2,0,P|101:134|95:93,2,60,10|0|10,0:0|0:0|0:0,0:0:0:0:
175,210,85390,2,0,P|231:223|286:189,1,120,10|0,0:0|0:0,0:0:0:0:
348,141,86235,2,0,P|383:144|410:150,1,60,10|8,0:0|3:0,0:0:0:0:
433,182,86657,2,0,P|442:220|438:246,1,60,8|8,3:0|3:0,0:0:0:0:
421,275,87080,5,2,0:0:0:0:
256,192,87193,12,2,90928,0:0:0:0:
