osu file format v14

[General]
AudioFilename: port.mp3
AudioLeadIn: 0
PreviewTime: 56129
Countdown: 0
SampleSet: Soft
StackLeniency: 0.5
Mode: 0
LetterboxInBreaks: 0
WidescreenStoryboard: 1

[Editor]
Bookmarks: 38066
DistanceSpacing: 0.9
BeatDivisor: 2
GridSize: 16
TimelineZoom: 4.199999

[Metadata]
Title:Fuujin Raijin
TitleUnicode:風仁雷仁
Artist:Colorful Sounds Port
ArtistUnicode:カラフル・サウンズ・ポート
Creator:Komore
Version:Insane
Source:BMS
Tags:wajinshu
BeatmapID:1412952
BeatmapSetID:667790

[Difficulty]
HPDrainRate:6
CircleSize:4.3
OverallDifficulty:7
ApproachRate:8
SliderMultiplier:1.7
SliderTickRate:1

[Events]
//Background and Video events
0,0,"suka.jpg",0,0
//Break Periods
//Storyboard Layer 0 (Background)
//Storyboard Layer 1 (Fail)
//Storyboard Layer 2 (Pass)
//Storyboard Layer 3 (Foreground)
//Storyboard Sound Samples

[TimingPoints]
883,422.5352,4,2,1,60,1,0
883,-111.111111111111,4,2,1,60,0,0
2573,-111.111111111111,4,2,1,50,0,0
7115,-111.111111111111,4,2,1,20,0,0
7221,-111.111111111111,4,2,1,50,0,0
9333,-111.111111111111,4,2,1,60,0,0
14404,-100,4,2,1,60,0,0
26657,-125,4,2,0,40,0,0
27608,-125,4,2,1,40,0,0
27925,-120.481927710843,4,2,1,40,0,0
39756,-142.857142857143,4,2,1,40,0,0
40601,-131.578947368421,4,2,1,40,0,0
41446,-111.111111111111,4,2,1,40,0,0
48312,-111.111111111111,4,2,1,60,0,0
54967,-125,4,2,1,40,0,0
55390,-125,4,2,1,50,0,0
55812,-125,4,2,1,60,0,0
56235,-100,4,2,1,70,0,0
56657,-100,4,2,1,80,0,0
59615,-100,4,2,1,50,0,0
60883,-100,4,2,1,60,0,0
61728,-100,4,2,1,70,0,0
62573,-100,4,2,1,80,0,0
62995,-100,4,2,1,50,0,0
63418,-100,4,2,1,80,0,0
66798,-100,4,2,1,70,0,0
71868,-147.058823529412,4,2,1,70,0,0
73136,-88.4955752212389,4,2,1,70,0,0
73559,-100,4,2,1,70,0,0
87080,452.8302,4,2,1,60,1,0
87080,-133.333333333333,4,2,1,60,0,0
88438,459.7701,4,2,1,60,1,0
88885,512.8205,4,2,1,40,1,0
89409,476.1905,4,2,1,40,1,0
89885,521.7391,4,2,1,40,1,0
90928,662.9834,4,2,1,20,1,0
93248,-100,4,2,1,5,0,0
93579,-100,4,2,1,20,0,0
96231,-100,4,2,1,5,0,0

[Colours]
Combo1 : 255,215,91
Combo2 : 255,51,153
Combo3 : 123,37,218
Combo4 : 69,174,51

[HitObjects]
234,257,2150,5,2,0:0:0:0:
234,257,2361,1,2,0:0:0:0:
253,237,2573,6,0,P|290:242|328:251,1,76.4999976654054,4|0,0:0|0:0,0:0:0:0:
237,135,2995,2,0,P|192:153|153:147,1,76.4999976654054,2|0,0:0|0:0,0:0:0:0:
340,44,3418,2,0,P|330:100|322:157,1,114.749996498108,2|0,0:0|0:0,0:0:0:0:
392,211,3840,2,0,P|432:214|468:192,1,76.4999976654054,2|0,0:0|0:0,0:0:0:0:
320,377,4263,6,0,P|313:339|307:301,1,76.4999976654054,6|0,0:0|0:0,0:0:0:0:
392,211,4685,2,0,P|398:248|404:286,1,76.4999976654054,2|0,0:0|0:0,0:0:0:0:
215,343,5108,2,0,P|179:313|91:336,1,114.749996498108,4|0,0:0|0:0,0:0:0:0:
36,361,5530,2,0,P|32:322|26:285,1,76.4999976654054,2|0,0:0|0:0,0:0:0:0:
147,176,5953,6,0,B|243:157|243:157|275:169|280:213,1,152.999995330811,6|2,0:0|0:0,0:0:0:0:
508,83,6798,2,0,P|461:99|396:56,1,114.749996498108,4|0,0:0|0:0,0:0:0:0:
326,35,7221,2,0,P|332:72|337:110,1,76.4999976654053,2|0,0:0|0:0,0:0:0:0:
233,220,7643,6,0,P|171:185|86:219,2,152.999995330811,4|2|2,0:0|0:0|0:0,0:0:0:0:
233,220,8911,1,2,0:0:0:0:
353,178,9122,1,2,0:0:0:0:
259,70,9333,6,0,P|271:103|273:154,1,76.4999976654053,6|2,3:0|0:0,0:0:0:0:
172,126,9756,1,2,0:0:0:0:
364,55,9967,1,4,3:0:0:0:
304,235,10178,2,0,P|247:227|190:220,1,114.749996498108,10|0,0:0|0:0,0:0:0:0:
119,272,10601,2,0,P|102:311|110:361,1,76.4999976654053,2|2,0:0|0:0,0:0:0:0:
304,235,11023,5,2,0:0:0:0:
155,124,11235,1,6,3:0:0:0:
254,69,11446,2,0,P|257:108|260:146,1,76.4999976654053,2|2,0:0|0:0,0:0:0:0:
132,254,11868,2,0,P|83:227|27:236,1,114.749996498108,10|0,0:0|0:0,0:0:0:0:
68,314,12291,1,2,0:0:0:0:
155,124,12502,1,6,3:0:0:0:
26,18,12713,6,0,P|33:72|41:132,1,114.749996498108,6|0,3:0|0:0,0:0:0:0:
10,218,13136,1,6,3:0:0:0:
155,124,13347,1,10,3:0:0:0:
271,260,13559,2,0,P|221:232|165:239,1,114.749996498108,8|0,0:0|0:0,0:0:0:0:
102,299,13981,1,14,3:0:0:0:
102,299,14404,6,0,P|97:257|90:215,1,85,14|0,3:1|0:0,0:0:0:0:
211,58,14826,2,0,P|202:100|198:143,1,85,10|0,0:0|0:0,0:0:0:0:
304,223,15249,2,0,P|345:231|385:218,1,85,10|0,0:0|0:0,0:0:0:0:
221,350,15671,2,0,P|169:315|107:324,1,127.5,10|0,0:0|0:0,0:0:0:0:
30,376,16094,6,0,P|25:334|17:293,1,85,10|0,0:0|0:0,0:0:0:0:
139,106,16516,2,0,P|131:169|124:232,1,127.5,10|0,0:0|0:0,0:0:0:0:
190,297,16939,2,0,P|232:302|269:282,1,85,10|0,0:0|0:0,0:0:0:0:
30,197,17361,1,10,0:0:0:0:
136,382,17573,1,10,0:0:0:0:
284,265,17784,6,0,P|278:222|272:180,1,85,10|0,0:0|0:0,0:0:0:0:
326,112,18101,1,0,0:0:0:0:
343,100,18206,2,0,P|386:103|424:120,1,85,10|0,0:0|0:0,0:0:0:0:
254,30,18629,2,0,P|212:50|171:47,1,85,10|0,0:0|0:0,0:0:0:0:
96,17,18946,1,0,0:0:0:0:
79,5,19052,2,0,P|72:51|67:89,1,85,10|0,0:0|0:0,0:0:0:0:
169,229,19474,6,0,B|224:209|283:232|283:232|314:201|286:173,1,170,8|10,0:0|0:0,0:0:0:0:
78,16,20319,2,0,P|82:58|87:100,1,85,10|2,0:0|0:0,0:0:0:0:
104,127,20601,2,0,L|96:168,2,28.3333333333333,2|2|8,0:0|0:0|0:0,0:0:0:0:
0,234,20953,1,12,3:0:0:0:
15,245,21023,2,0,P|36:241|58:239,1,28.3333333333333,0|0,0:0|0:0,0:0:0:0:
118,289,21164,6,0,P|167:277|202:283,1,85,14|0,0:0|0:0,0:0:0:0:
201,79,21587,2,0,P|193:120|188:163,1,85,10|0,0:0|0:0,0:0:0:0:
312,280,22009,1,10,0:0:0:0:
285,146,22221,1,0,0:0:0:0:
258,356,22432,2,0,P|327:372|392:324,1,127.5,10|0,0:0|0:0,0:0:0:0:
434,275,22854,6,0,P|424:230|414:181,1,85,10|0,0:0|0:0,0:0:0:0:
334,51,23277,2,0,P|377:63|446:69,1,85,10|2,0:0|0:0,0:0:0:0:
256,191,23699,2,0,P|213:179|144:173,1,85,8|2,0:0|0:0,0:0:0:0:
101,222,24016,1,2,0:0:0:0:
71,246,24122,1,10,0:0:0:0:
60,282,24228,1,2,0:0:0:0:
65,319,24333,1,2,0:0:0:0:
87,350,24439,1,2,0:0:0:0:
121,365,24544,6,0,P|188:358|247:352,1,127.5,10|0,0:0|0:0,0:0:0:0:
333,384,24967,1,10,0:0:0:0:
498,250,25178,2,0,L|490:206,2,28.3333333333333,2|2|2,3:0|3:0|3:0,0:0:0:0:
438,318,25390,2,0,P|398:312|353:304,1,85,8|2,0:0|3:0,0:0:0:0:
321,297,25671,2,0,L|327:340,2,28.3333333333333,2|2|10,3:0|3:0|0:0,0:0:0:0:
212,212,26023,2,0,L|215:193,4,14.1666666666667,2|0|2|0|0,3:0|0:0|3:0|0:0|0:0,0:0:0:0:
241,166,26235,6,0,L|231:115,3,28.3333333333333,10|0|0|0,0:0|0:0|0:0|0:0,0:0:0:0:
241,166,26657,6,2,P|251:98|254:84,1,68
177,54,26974,6,2,P|167:122|164:136,1,68
331,151,27291,6,2,P|364:143|404:152,1,68,2|0,0:0|0:0,0:0:0:0:
477,185,27608,6,0,L|491:182,7,11.3333333333333,2|0|0|2|0|0|2|0,3:0|0:0|0:0|3:0|0:0|0:0|3:0|0:0,0:0:0:0:
507,161,27925,6,0,P|496:222|484:300,1,141.100002045364,6|2,3:1|0:0,0:0:0:0:
484,300,28770,2,0,P|439:259|345:270,1,141.100002045364,2|2,0:0|0:0,0:0:0:0:
284,318,29404,1,2,0:0:0:0:
201,263,29615,6,0,P|131:277|62:287,1,141.100002045364,2|2,0:0|0:0,0:0:0:0:
2,210,30249,1,2,0:0:0:0:
59,129,30460,1,2,0:0:0:0:
59,129,30882,2,0,L|129:140,1,70.5500010226822,2|2,0:0|0:0,0:0:0:0:
207,201,31305,6,0,P|270:172|336:195,2,141.100002045364,2|2|2,0:0|0:0|0:0,0:0:0:0:
207,201,32573,2,0,P|200:148|193:95,1,105.825001534023,2|0,0:0|0:0,0:0:0:0:
178,84,32995,6,0,P|109:100|39:113,1,141.100002045364,2|0,0:0|0:0,0:0:0:0:
6,207,33629,1,2,0:0:0:0:
50,296,33840,2,0,P|112:264|180:277,1,141.100002045364,2|2,0:0|0:0,0:0:0:0:
264,333,34474,2,0,L|290:329,2,23.5166670075607,4|0|0,3:0|0:0|0:0,0:0:0:0:
247,352,34685,6,0,P|240:281|231:211,1,141.100002045364,4|2,3:1|0:0,0:0:0:0:
231,211,35530,2,0,P|162:220|91:226,1,141.100002045364,2|2,0:0|0:0,0:0:0:0:
283,363,36375,6,0,P|335:342|404:368,1,105.825001534023,2|0,0:0|0:0,0:0:0:0:
398,367,36798,2,0,P|402:332|408:297,1,70.5500010226822,2|0,0:0|0:0,0:0:0:0:
314,152,37221,2,0,P|320:197|328:257,1,105.825001534023,2|0,0:0|0:0,0:0:0:0:
319,276,37643,1,2,0:0:0:0:
410,201,37854,1,2,0:0:0:0:
234,228,38066,6,0,P|164:217|94:204,1,141.100002045364,2|2,0:0|0:0,0:0:0:0:
94,204,38699,1,2,0:0:0:0:
28,307,38911,2,0,P|65:298|107:297,1,70.5500010226822,2|2,0:0|0:0,0:0:0:0:
97,117,39333,2,0,P|61:114|27:106,1,70.5500010226822,2|2,0:0|0:0,0:0:0:0:
178,209,39756,6,0,B|294:221|254:137|369:148,1,208.249993644715,2|0,0:0|0:0,0:0:0:0:
434,201,40601,6,0,B|399:41|399:41|412:74|453:89,1,226.09999723999,2|0,0:0|0:0,0:0:0:0:
368,148,41446,6,0,P|310:142|254:133,1,114.749996498108,4|0,3:1|0:0,0:0:0:0:
184,78,41868,1,2,0:0:0:0:
101,213,42080,1,2,0:0:0:0:
101,213,42185,1,2,0:0:0:0:
101,213,42291,2,0,P|142:197|192:198,1,76.4999976654053,10|0,0:0|0:0,0:0:0:0:
258,264,42713,1,8,0:0:0:0:
152,97,42925,1,0,0:0:0:0:
152,97,43030,1,0,0:0:0:0:
152,97,43136,6,0,B|76:109|0:119,1,152.999995330811,10|8,0:0|0:0,0:0:0:0:
112,231,43770,1,2,0:0:0:0:
112,231,43875,1,2,0:0:0:0:
111,231,43981,2,0,P|149:225|187:220,1,76.4999976654053,10|0,0:0|0:0,0:0:0:0:
142,349,44404,1,8,0:0:0:0:
0,192,44615,1,8,0:0:0:0:
0,192,44721,1,0,0:0:0:0:
0,191,44826,6,0,P|48:136|121:141,1,152.999995330811,10|10,0:0|0:0,0:0:0:0:
370,36,45671,2,0,B|272:55|272:55|224:32,1,152.999995330811,10|8,0:0|0:0,0:0:0:0:
339,138,46305,1,2,0:0:0:0:
255,213,46516,6,0,P|217:206|179:201,1,76.4999976654053,10|2,0:0|0:0,0:0:0:0:
104,251,46833,1,2,0:0:0:0:
94,259,46939,2,0,L|88:195,1,38.2499988327027,10|2,0:0|0:0,0:0:0:0:
181,286,47150,2,0,L|173:324,1,38.2499988327027,2|2,0:0|0:0,0:0:0:0:
97,373,47361,5,10,0:0:0:0:
249,368,47573,1,8,0:0:0:0:
243,215,47784,1,10,0:0:0:0:
90,220,47995,1,10,0:0:0:0:
311,294,48206,6,0,P|367:286|425:280,1,114.749996498108,4|0,3:1|0:0,0:0:0:0:
499,336,48629,1,8,0:0:0:0:
377,159,48840,1,2,0:0:0:0:
377,159,48946,1,2,0:0:0:0:
377,158,49052,2,0,P|366:195|362:233,1,76.4999976654053,10|0,0:0|0:0,0:0:0:0:
490,152,49474,1,10,0:0:0:0:
335,62,49685,1,0,0:0:0:0:
335,62,49791,1,0,0:0:0:0:
335,62,49897,6,0,B|286:43|236:62|236:62|210:44|216:17,1,152.999995330811,10|8,0:0|0:0,0:0:0:0:
347,168,50530,1,2,0:0:0:0:
347,168,50636,1,2,0:0:0:0:
347,168,50742,2,0,P|385:164|423:161,1,76.4999976654053,10|0,0:0|0:0,0:0:0:0:
238,99,51164,1,10,0:0:0:0:
320,276,51375,1,8,0:0:0:0:
320,276,51481,1,0,0:0:0:0:
320,276,51587,6,0,B|372:253|372:253|412:286|466:279,2,152.999995330811,8|10|10,0:0|0:0|0:0,0:0:0:0:
320,276,52854,2,0,B|333:235|333:235|309:161,1,114.749996498108,10|0,0:0|0:0,0:0:0:0:
232,121,53277,6,0,P|193:118|155:119,1,76.4999976654053,8|2,0:0|0:0,0:0:0:0:
88,186,53594,1,2,0:0:0:0:
81,206,53699,2,0,P|84:226|89:244,1,38.2499988327027,10|2,0:0|0:0,0:0:0:0:
0,157,53911,2,0,P|5:136|12:119,1,38.2499988327027,2|0,0:0|0:0,0:0:0:0:
95,61,54122,5,8,0:0:0:0:
244,13,54333,1,2,0:0:0:0:
381,92,54544,1,10,0:0:0:0:
231,140,54756,1,10,0:0:0:0:
286,277,54967,6,0,P|339:268|386:261,1,102,6|0,3:1|0:0,0:0:0:0:
465,219,55390,6,0,P|439:186|356:188,1,102,2|0,0:0|0:0,0:0:0:0:
298,138,55812,6,0,P|352:137|385:100,1,102,2|0,0:0|0:0,0:0:0:0:
332,30,56235,6,0,P|290:23|234:15,1,85,2|2,0:0|0:0,0:0:0:0:
96,171,56657,5,6,3:1:0:0:
248,16,56868,1,2,0:0:0:0:
136,73,57080,1,10,0:0:0:0:
298,133,57291,1,2,0:0:0:0:
159,231,57502,2,0,P|101:199|32:227,1,127.5,8|0,0:0|0:0,0:0:0:0:
23,234,57925,2,0,P|18:191|10:149,1,85,10|2,0:0|0:0,0:0:0:0:
150,22,58347,5,10,0:0:0:0:
118,162,58559,1,2,0:0:0:0:
257,283,58770,5,10,0:0:0:0:
289,143,58982,1,2,0:0:0:0:
42,327,59192,6,0,P|80:287|163:300,1,127.5,10|0,0:0|0:0,0:0:0:0:
214,354,59615,1,10,0:0:0:0:
118,162,59826,1,2,0:0:0:0:
292,261,60037,6,0,B|331:253|370:270|370:270|417:241,1,127.5,10|0,0:0|0:0,0:0:0:0:
483,292,60460,2,0,P|498:328|491:381,1,85,10|0,0:0|0:0,0:0:0:0:
388,226,60882,2,0,P|393:162|401:99,1,127.5,10|0,0:0|0:0,0:0:0:0:
368,20,61305,2,0,P|421:15|452:30,1,85,10|0,0:0|0:0,0:0:0:0:
206,115,61728,6,0,L|123:100,1,85,10|0,0:0|0:0,0:0:0:0:
305,239,62150,2,0,P|351:225|404:229,1,85,10|0,0:0|0:0,0:0:0:0:
131,364,62573,2,0,B|120:322|120:322|136:270,1,85,10|8,0:0|0:0,0:0:0:0:
153,253,62854,2,0,L|146:211,2,28.3333333333333,8|8|8,0:0|0:0|0:0,0:0:0:0:
311,363,63206,1,10,0:0:0:0:
311,363,63312,1,0,0:0:0:0:
311,363,63418,5,6,3:1:0:0:
256,226,63629,1,2,0:0:0:0:
199,89,63841,1,10,0:0:0:0:
367,225,64052,1,2,0:0:0:0:
164,302,64263,2,0,P|124:293|66:291,1,85,10|0,0:0|0:0,0:0:0:0:
240,384,64685,5,10,0:0:0:0:
198,183,64897,1,2,0:0:0:0:
54,353,65108,5,10,0:0:0:0:
347,276,65319,1,2,0:0:0:0:
210,371,65530,1,10,0:0:0:0:
77,270,65742,1,2,0:0:0:0:
229,98,65953,2,0,B|253:180|253:180|218:237,1,127.5,10|0,0:0|0:0,0:0:0:0:
163,267,66375,1,10,0:0:0:0:
348,361,66587,1,2,0:0:0:0:
348,361,66692,1,0,0:0:0:0:
348,361,66798,6,0,B|456:335|456:335|491:351|494:394,1,170,10|8,0:0|0:0,0:0:0:0:
273,263,67432,2,0,L|211:257,2,42.5,2|0|10,0:0|0:0|0:0,0:0:0:0:
439,194,67854,1,2,0:0:0:0:
348,361,68066,1,10,0:0:0:0:
165,313,68277,1,2,0:0:0:0:
399,279,68488,5,14,0:0:0:0:
267,154,68699,1,2,0:0:0:0:
85,143,68911,1,14,0:0:0:0:
431,44,69122,5,2,0:0:0:0:
431,44,69228,1,2,0:0:0:0:
431,44,69333,1,14,0:0:0:0:
445,202,69544,1,14,3:0:0:0:
291,314,69756,1,14,3:0:0:0:
86,249,69967,1,14,3:0:0:0:
180,115,70178,6,0,B|214:126|221:157|221:157|185:205|200:260,1,170,14|8,3:2|3:0,0:0:0:0:
406,190,70812,1,10,3:0:0:0:
406,190,70918,1,2,0:0:0:0:
406,190,71023,2,0,P|358:193|307:176,1,85,6|0,3:1|0:0,0:0:0:0:
262,115,71340,1,2,0:0:0:0:
251,102,71446,2,0,P|257:76|267:54,1,42.5,2|0,0:0|0:0,0:0:0:0:
343,21,71657,1,2,0:0:0:0:
225,194,71868,6,0,B|113:254|24:162|24:162|76:197|136:176,1,317.900001940308,6|0,3:1|0:0,0:0:0:0:
225,194,73136,6,2,B|213:143|213:143|227:109|227:109|216:46,1,144.075000439682
297,19,73559,6,0,P|337:4|379:8,1,85,14|0,3:1|0:0,0:0:0:0:
494,168,73981,2,0,P|451:162|409:156,1,85,10|0,0:0|0:0,0:0:0:0:
272,270,74404,2,0,L|261:185,1,85,10|0,0:0|0:0,0:0:0:0:
158,44,74826,2,0,P|95:56|88:133,1,127.5,10|0,0:0|0:0,0:0:0:0:
141,175,75249,6,0,P|183:170|225:165,1,85,10|0,0:0|0:0,0:0:0:0:
457,80,75671,2,0,B|414:63|366:82|366:82|311:48,1,127.5,10|0,0:0|0:0,0:0:0:0:
262,11,76094,2,0,P|257:51|251:96,1,85,10|0,0:0|0:0,0:0:0:0:
389,0,76516,1,10,2:0:0:0:
119,41,76728,1,10,2:3:0:0:
305,172,76939,6,0,P|347:166|389:161,1,85,10|0,0:0|0:0,0:0:0:0:
458,211,77256,1,0,0:0:0:0:
469,228,77361,2,0,P|481:269|471:309,1,85,10|0,0:0|0:0,0:0:0:0:
347,178,77784,2,0,P|353:125|361:61,1,85,10|0,0:0|0:0,0:0:0:0:
292,36,78100,1,0,0:0:0:0:
274,26,78206,2,0,L|176:17,1,85,10|0,0:0|0:0,0:0:0:0:
72,151,78629,6,0,B|31:254|31:254|55:271|65:300,1,170,10|0,0:0|0:0,0:0:0:0:
371,214,79474,2,0,P|329:207|288:194,1,85,10|8,0:0|3:0,0:0:0:0:
255,187,79756,2,0,L|261:231,2,28.3333333333333,8|8|8,3:0|3:0|3:0,0:0:0:0:
166,69,80108,1,0,0:0:0:0:
181,66,80178,2,0,L|177:111,1,28.3333333333333
101,143,80319,6,0,P|58:139|12:134,1,85,6|0,3:1|0:0,0:0:0:0:
146,302,80742,2,0,P|197:285|242:290,1,85,10|0,0:0|0:0,0:0:0:0:
52,373,81164,1,10,0:0:0:0:
102,189,81375,1,0,0:0:0:0:
261,285,81587,2,0,B|344:296|344:296|387:271,1,127.5,10|0,0:0|0:0,0:0:0:0:
463,302,82009,6,0,P|485:358|482:383,1,85,10|0,0:0|0:0,0:0:0:0:
324,222,82432,2,0,P|330:177|352:134,1,85,10|0,0:0|0:0,0:0:0:0:
394,358,82854,2,0,P|355:352|297:345,1,85,10|2,0:0|0:0,0:0:0:0:
230,384,83171,1,2,0:0:0:0:
203,355,83277,1,10,0:0:0:0:
167,342,83382,1,2,0:0:0:0:
128,342,83488,1,2,0:0:0:0:
92,357,83594,1,2,0:0:0:0:
60,377,83699,6,0,P|55:302|47:250,1,127.5,10|0,0:0|0:0,0:0:0:0:
0,176,84122,2,0,B|105:151|105:151|143:169|131:219,1,170,10|10,0:0|0:0,0:0:0:0:
306,126,84756,1,0,0:0:0:0:
222,6,84967,2,0,P|216:46|210:90,1,85,10|2,0:0|0:0,0:0:0:0:
305,216,85390,6,0,B|372:204|372:204|405:224|405:224|487:213,1,170,10|0,0:0|0:0,0:0:0:0:
264,364,86235,2,0,P|224:348|182:349,1,85,10|8,0:0|3:0,0:0:0:0:
152,369,86516,2,0,L|145:320,2,28.3333333333333,0|0|8,0:0|0:0|3:0,0:0:0:0:
30,244,86868,2,0,L|25:272,2,28.3333333333333,8|0|0,3:0|0:0|0:0,0:0:0:0:
96,186,87080,6,0,P|159:191|223:196,1,127.500004863739,2|2,0:0|0:0,0:0:0:0:
431,55,87985,2,0,P|368:68|305:73,1,127.500004863739,2|2,0:0|0:0,0:0:0:0:
162,25,88885,5,2,0:0:0:0:
256,153,89409,5,2,0:0:0:0:
162,245,89885,5,2,0:0:0:0:
241,345,90406,5,2,0:0:0:0:
241,345,90928,6,0,B|313:356|355:309|355:309|385:334|425:339|425:339|356:245|351:135|406:79|461:64|461:64|378:132|414:224,1,680,2|0,0:0|0:0,0:0:0:0:
256,192,93745,12,0,96231,0:0:0:0:
