osu file format v14

[General]
AudioFilename: audio.mp3
AudioLeadIn: 0
PreviewTime: 72453
Countdown: 0
SampleSet: None
StackLeniency: 0.7
Mode: 1
LetterboxInBreaks: 0
WidescreenStoryboard: 1

[Editor]
DistanceSpacing: 0.2
BeatDivisor: 4
GridSize: 32
TimelineZoom: 2.179999

[Metadata]
Title:ETERNAL DRAIN
TitleUnicode:ETERNAL DRAIN
Artist:Colorful Sounds Port
ArtistUnicode:カラフル・サウンズ・ポート
Creator:zigizigiefe
Version:_yu68's Muzukashii
Source:BMS
Tags:DELAYMASTER+ DELAYMASTER DELAY MASTER PLUS ANIME POP BOF2011 THE BOF OF FIGHTERS 2011 Midnaait Nishizumi _yu68
BeatmapID:1480041
BeatmapSetID:692110

[Difficulty]
HPDrainRate:5
CircleSize:5
OverallDifficulty:5
ApproachRate:5
SliderMultiplier:1.4
SliderTickRate:1

[Events]
//Background and Video events
0,0,"BG.jpg",0,0
//Break Periods
//Storyboard Layer 0 (Background)
//Storyboard Layer 1 (Fail)
//Storyboard Layer 2 (Pass)
//Storyboard Layer 3 (Foreground)
//Storyboard Sound Samples

[TimingPoints]
1580,402.684563758389,4,1,0,10,1,8
1982,-100,4,1,0,20,0,8
2385,-100,4,1,0,30,0,8
2788,-100,4,1,0,40,0,8
3190,-100,4,1,0,50,0,8
3593,-100,4,1,0,60,0,8
3996,-100,4,1,0,70,0,8
4398,-100,4,1,0,80,0,8
4802,402.684563758389,4,1,0,90,1,0
17687,-100,4,1,0,95,0,0
20909,-100,4,1,0,95,0,1
33795,-100,4,1,0,85,0,0
69231,-100,4,1,0,95,0,0
74063,-100,4,1,0,95,0,1
85338,-100,4,1,0,95,0,0
86949,-100,4,1,0,95,0,1
98224,-100,4,1,0,95,0,0
99835,-100,4,1,0,95,0,1
101446,-100,4,1,0,95,0,0
101496,-100,4,1,0,85,0,0
103057,-100,4,1,0,95,0,1
115942,-100,4,1,0,95,0,0

[HitObjects]
256,192,4801,5,4,0:0:0:0:
256,192,5406,1,8,0:0:0:0:
256,192,5607,1,0,0:0:0:0:
256,192,6211,1,8,0:0:0:0:
256,192,6412,1,0,0:0:0:0:
256,192,7016,1,0,0:0:0:0:
256,192,7218,1,8,0:0:0:0:
256,192,7520,1,8,0:0:0:0:
256,192,7822,1,8,0:0:0:0:
256,192,8023,1,0,0:0:0:0:
256,192,8627,1,8,0:0:0:0:
256,192,8828,1,0,0:0:0:0:
256,192,9432,1,0,0:0:0:0:
256,192,9634,1,8,0:0:0:0:
256,192,10439,1,0,0:0:0:0:
256,192,11244,1,0,0:0:0:0:
256,192,11446,1,0,0:0:0:0:
256,192,11647,1,8,0:0:0:0:
256,192,12251,1,0,0:0:0:0:
256,192,12453,1,8,0:0:0:0:
256,192,12855,1,0,0:0:0:0:
256,192,13258,1,8,0:0:0:0:
256,192,13459,1,0,0:0:0:0:
256,192,13862,1,0,0:0:0:0:
256,192,14063,1,8,0:0:0:0:
256,192,14466,1,0,0:0:0:0:
256,192,14667,1,0,0:0:0:0:
256,192,14869,1,8,0:0:0:0:
256,192,15271,1,8,0:0:0:0:
256,192,15473,1,0,0:0:0:0:
256,192,15674,1,8,0:0:0:0:
256,192,15875,1,8,0:0:0:0:
256,192,16077,1,0,0:0:0:0:
256,192,16479,1,8,0:0:0:0:
256,192,16882,1,0,0:0:0:0:
256,192,17083,1,0,0:0:0:0:
256,192,17285,1,8,0:0:0:0:
256,192,17486,1,8,0:0:0:0:
256,192,17687,1,4,0:0:0:0:
256,192,17989,1,8,0:0:0:0:
256,192,18291,1,8,0:0:0:0:
256,192,18493,1,4,0:0:0:0:
256,192,18795,1,8,0:0:0:0:
256,192,19097,1,8,0:0:0:0:
256,192,19298,1,0,0:0:0:0:
256,192,19399,1,0,0:0:0:0:
256,192,19499,1,0,0:0:0:0:
256,192,19701,1,0,0:0:0:0:
256,192,19801,1,0,0:0:0:0:
256,192,19902,1,0,0:0:0:0:
256,192,20104,2,0,L|256:128,6,35
256,192,20909,1,4,0:0:0:0:
256,192,21312,1,8,0:0:0:0:
256,192,21513,1,8,0:0:0:0:
256,192,21614,1,8,0:0:0:0:
256,192,21714,1,8,0:0:0:0:
256,192,22117,1,8,0:0:0:0:
256,192,22318,1,0,0:0:0:0:
256,192,22419,1,0,0:0:0:0:
256,192,22520,1,0,0:0:0:0:
256,192,22922,1,8,0:0:0:0:
256,192,23124,1,8,0:0:0:0:
256,192,23224,1,8,0:0:0:0:
256,192,23325,1,8,0:0:0:0:
256,192,23526,1,0,0:0:0:0:
256,192,23728,1,8,0:0:0:0:
256,192,24130,1,0,0:0:0:0:
256,192,24533,1,8,0:0:0:0:
256,192,24734,1,0,0:0:0:0:
256,192,24835,1,0,0:0:0:0:
256,192,24936,1,0,0:0:0:0:
256,192,25137,1,0,0:0:0:0:
256,192,25338,1,8,0:0:0:0:
256,192,25540,1,8,0:0:0:0:
256,192,25741,1,0,0:0:0:0:
256,192,26144,1,8,0:0:0:0:
256,192,26345,1,8,0:0:0:0:
256,192,26446,1,8,0:0:0:0:
256,192,26546,1,8,0:0:0:0:
256,192,26748,1,0,0:0:0:0:
256,192,26949,1,8,0:0:0:0:
256,192,27352,1,0,0:0:0:0:
256,192,27755,1,8,0:0:0:0:
256,192,27956,1,0,0:0:0:0:
256,192,28057,1,0,0:0:0:0:
256,192,28157,1,0,0:0:0:0:
256,192,28560,1,8,0:0:0:0:
256,192,28761,1,8,0:0:0:0:
256,192,28862,1,8,0:0:0:0:
256,192,28963,1,8,0:0:0:0:
256,192,29365,1,0,0:0:0:0:
256,192,29567,1,8,0:0:0:0:
256,192,29768,1,0,0:0:0:0:
256,192,29869,1,0,0:0:0:0:
256,192,29969,1,0,0:0:0:0:
256,192,30171,1,8,0:0:0:0:
256,192,30372,1,8,0:0:0:0:
256,192,30573,1,0,0:0:0:0:
256,192,30976,1,8,0:0:0:0:
256,192,31177,1,8,0:0:0:0:
256,192,31379,1,0,0:0:0:0:
256,192,31580,1,0,0:0:0:0:
256,192,31781,1,8,0:0:0:0:
256,192,31983,1,8,0:0:0:0:
256,192,32184,1,0,0:0:0:0:
256,192,32285,1,0,0:0:0:0:
256,192,32385,1,0,0:0:0:0:
256,192,32587,1,0,0:0:0:0:
256,192,32989,1,8,0:0:0:0:
256,192,33090,1,8,0:0:0:0:
256,192,33191,1,8,0:0:0:0:
256,192,33392,1,8,0:0:0:0:
256,192,33795,1,0,0:0:0:0:
256,192,34197,1,8,0:0:0:0:
256,192,35003,1,8,0:0:0:0:
256,192,35406,1,0,0:0:0:0:
256,192,35808,1,8,0:0:0:0:
256,192,36010,1,8,0:0:0:0:
256,192,36211,1,0,0:0:0:0:
256,192,36312,1,0,0:0:0:0:
256,192,36412,1,0,0:0:0:0:
256,192,36614,1,8,0:0:0:0:
256,192,37016,1,0,0:0:0:0:
256,192,37419,1,8,0:0:0:0:
256,192,38023,1,0,0:0:0:0:
256,192,38224,1,8,0:0:0:0:
256,192,38627,1,0,0:0:0:0:
256,192,39030,1,8,0:0:0:0:
256,192,39231,1,0,0:0:0:0:
256,192,39432,1,8,0:0:0:0:
256,192,39533,1,8,0:0:0:0:
256,192,39634,1,8,0:0:0:0:
256,192,39835,1,0,0:0:0:0:
256,192,40238,1,0,0:0:0:0:
256,192,40640,1,8,0:0:0:0:
256,192,41043,1,0,0:0:0:0:
256,192,41244,1,0,0:0:0:0:
256,192,41446,1,8,0:0:0:0:
256,192,41647,1,0,0:0:0:0:
256,192,41848,1,0,0:0:0:0:
256,192,42251,1,8,0:0:0:0:
256,192,42654,1,0,0:0:0:0:
256,192,42855,1,8,0:0:0:0:
256,192,43057,1,8,0:0:0:0:
256,192,43258,1,0,0:0:0:0:
256,192,43359,1,0,0:0:0:0:
256,192,43459,1,0,0:0:0:0:
256,192,43862,1,8,0:0:0:0:
256,192,44265,1,8,0:0:0:0:
256,192,44466,1,0,0:0:0:0:
256,192,44667,1,8,0:0:0:0:
256,192,44869,1,0,0:0:0:0:
256,192,45070,1,0,0:0:0:0:
256,192,45271,1,8,0:0:0:0:
256,192,45473,1,8,0:0:0:0:
256,192,45875,1,8,0:0:0:0:
256,192,45976,1,8,0:0:0:0:
256,192,46077,1,8,0:0:0:0:
256,192,46278,1,8,0:0:0:0:
256,192,46479,1,0,0:0:0:0:
256,192,46580,1,0,0:0:0:0:
256,192,46681,1,0,0:0:0:0:
256,192,47083,1,8,0:0:0:0:
256,192,47889,1,8,0:0:0:0:
256,192,48291,1,0,0:0:0:0:
256,192,48694,1,8,0:0:0:0:
256,192,48895,1,8,0:0:0:0:
256,192,49097,1,0,0:0:0:0:
256,192,49197,1,0,0:0:0:0:
256,192,49298,1,0,0:0:0:0:
256,192,49499,1,8,0:0:0:0:
256,192,49701,1,8,0:0:0:0:
256,192,49902,1,0,0:0:0:0:
256,192,50305,1,8,0:0:0:0:
256,192,50909,1,0,0:0:0:0:
256,192,51110,1,8,0:0:0:0:
256,192,51513,1,0,0:0:0:0:
256,192,51916,1,8,0:0:0:0:
256,192,52117,1,0,0:0:0:0:
256,192,52318,1,8,0:0:0:0:
256,192,52419,1,8,0:0:0:0:
256,192,52520,1,8,0:0:0:0:
256,192,52721,1,0,0:0:0:0:
256,192,52922,1,8,0:0:0:0:
256,192,53124,1,0,0:0:0:0:
256,192,53526,1,8,0:0:0:0:
256,192,53728,1,8,0:0:0:0:
256,192,53929,1,0,0:0:0:0:
256,192,54130,1,0,0:0:0:0:
256,192,54332,1,8,0:0:0:0:
256,192,54533,1,0,0:0:0:0:
256,192,54734,1,0,0:0:0:0:
256,192,55137,1,8,0:0:0:0:
256,192,55338,1,0,0:0:0:0:
256,192,55540,1,0,0:0:0:0:
256,192,55741,1,8,0:0:0:0:
256,192,55942,1,8,0:0:0:0:
256,192,56144,1,0,0:0:0:0:
256,192,56244,1,0,0:0:0:0:
256,192,56345,1,0,0:0:0:0:
256,192,56748,1,8,0:0:0:0:
256,192,56949,1,0,0:0:0:0:
256,192,57150,1,8,0:0:0:0:
256,192,57352,1,0,0:0:0:0:
256,192,57553,1,8,0:0:0:0:
256,192,57755,1,0,0:0:0:0:
256,192,57956,1,0,0:0:0:0:
256,192,58157,1,8,0:0:0:0:
256,192,58359,1,8,0:0:0:0:
256,192,58761,1,8,0:0:0:0:
256,192,58862,1,8,0:0:0:0:
256,192,58963,1,8,0:0:0:0:
256,192,59164,1,8,0:0:0:0:
256,192,59365,1,0,0:0:0:0:
256,192,59466,1,0,0:0:0:0:
256,192,59567,1,0,0:0:0:0:
256,192,60372,1,0,0:0:0:0:
256,192,60573,1,8,0:0:0:0:
256,192,60674,1,8,0:0:0:0:
256,192,60775,1,8,0:0:0:0:
256,192,61177,1,0,0:0:0:0:
256,192,61983,1,8,0:0:0:0:
256,192,62184,1,0,0:0:0:0:
256,192,62285,1,0,0:0:0:0:
256,192,62385,1,0,0:0:0:0:
256,192,62788,1,0,0:0:0:0:
256,192,63191,1,8,0:0:0:0:
256,192,63593,1,0,0:0:0:0:
256,192,63795,1,0,0:0:0:0:
256,192,63996,1,8,0:0:0:0:
256,192,64399,1,0,0:0:0:0:
256,192,64600,1,8,0:0:0:0:
256,192,64801,1,8,0:0:0:0:
256,192,65003,1,8,0:0:0:0:
256,192,65104,1,8,0:0:0:0:
256,192,65204,1,8,0:0:0:0:
256,192,65406,1,0,0:0:0:0:
256,192,65607,1,8,0:0:0:0:
256,192,65808,1,0,0:0:0:0:
256,192,65909,1,0,0:0:0:0:
256,192,66010,1,0,0:0:0:0:
256,192,66815,1,0,0:0:0:0:
256,192,67016,1,8,0:0:0:0:
256,192,67117,1,8,0:0:0:0:
256,192,67218,1,8,0:0:0:0:
256,192,67620,1,0,0:0:0:0:
256,192,68426,1,8,0:0:0:0:
256,192,68627,1,0,0:0:0:0:
256,192,68728,1,0,0:0:0:0:
256,192,68828,1,0,0:0:0:0:
256,192,69231,1,0,0:0:0:0:
256,192,69835,1,8,0:0:0:0:
256,192,70036,1,0,0:0:0:0:
256,192,70640,1,8,0:0:0:0:
256,192,70842,1,0,0:0:0:0:
256,192,71043,1,0,0:0:0:0:
256,192,71144,1,0,0:0:0:0:
256,192,71244,1,0,0:0:0:0:
256,192,71446,1,0,0:0:0:0:
256,192,71647,1,8,0:0:0:0:
256,192,71848,1,8,0:0:0:0:
256,192,72050,1,8,0:0:0:0:
256,192,72453,1,0,0:0:0:0:
256,192,72553,1,0,0:0:0:0:
256,192,72654,1,0,0:0:0:0:
256,192,72855,1,8,0:0:0:0:
256,192,72956,1,8,0:0:0:0:
256,192,73057,1,8,0:0:0:0:
256,192,73258,2,0,L|256:128,6,35
256,192,74063,1,4,0:0:0:0:
256,192,74466,1,8,0:0:0:0:
256,192,74667,1,8,0:0:0:0:
256,192,74869,1,0,0:0:0:0:
256,192,75070,1,0,0:0:0:0:
256,192,75171,1,0,0:0:0:0:
256,192,75271,1,0,0:0:0:0:
256,192,75473,1,8,0:0:0:0:
256,192,75674,1,0,0:0:0:0:
256,192,76077,1,8,0:0:0:0:
256,192,76278,1,0,0:0:0:0:
256,192,76479,1,0,0:0:0:0:
256,192,76781,1,8,0:0:0:0:
256,192,76882,1,8,0:0:0:0:
256,192,77083,1,8,0:0:0:0:
256,192,77285,1,0,0:0:0:0:
256,192,77687,1,0,0:0:0:0:
256,192,77889,1,8,0:0:0:0:
256,192,78090,1,0,0:0:0:0:
256,192,78291,1,8,0:0:0:0:
256,192,78392,1,8,0:0:0:0:
256,192,78493,1,8,0:0:0:0:
256,192,78694,1,0,0:0:0:0:
256,192,78895,1,8,0:0:0:0:
256,192,79298,1,8,0:0:0:0:
256,192,79499,1,0,0:0:0:0:
256,192,79600,1,0,0:0:0:0:
256,192,79701,1,0,0:0:0:0:
256,192,79902,1,0,0:0:0:0:
256,192,80104,1,8,0:0:0:0:
256,192,80506,1,0,0:0:0:0:
256,192,80909,1,8,0:0:0:0:
256,192,81110,1,8,0:0:0:0:
256,192,81312,1,0,0:0:0:0:
256,192,81513,1,0,0:0:0:0:
256,192,81614,1,0,0:0:0:0:
256,192,81714,1,0,0:0:0:0:
256,192,81916,1,8,0:0:0:0:
256,192,82117,1,0,0:0:0:0:
256,192,82520,1,8,0:0:0:0:
256,192,82721,1,8,0:0:0:0:
256,192,82922,1,0,0:0:0:0:
256,192,83224,1,0,0:0:0:0:
256,192,83325,1,0,0:0:0:0:
256,192,83526,1,8,0:0:0:0:
256,192,83728,1,0,0:0:0:0:
256,192,84533,1,0,0:0:0:0:
256,192,84936,1,8,0:0:0:0:
256,192,85137,1,0,0:0:0:0:
256,192,85338,1,8,0:0:0:0:
256,192,85439,1,8,0:0:0:0:
256,192,85540,1,8,0:0:0:0:
256,192,85741,1,8,0:0:0:0:
256,192,85842,1,8,0:0:0:0:
256,192,85942,1,8,0:0:0:0:
256,192,86144,2,0,L|256:128,6,35
256,192,86949,1,4,0:0:0:0:
256,192,87352,1,8,0:0:0:0:
256,192,87553,1,8,0:0:0:0:
256,192,87755,1,0,0:0:0:0:
256,192,87956,1,0,0:0:0:0:
256,192,88057,1,0,0:0:0:0:
256,192,88157,1,0,0:0:0:0:
256,192,88359,1,8,0:0:0:0:
256,192,88560,1,0,0:0:0:0:
256,192,88963,1,8,0:0:0:0:
256,192,89164,1,0,0:0:0:0:
256,192,89365,1,0,0:0:0:0:
256,192,89667,1,8,0:0:0:0:
256,192,89768,1,8,0:0:0:0:
256,192,89969,1,8,0:0:0:0:
256,192,90171,1,0,0:0:0:0:
256,192,90573,1,0,0:0:0:0:
256,192,90775,1,8,0:0:0:0:
256,192,90976,1,0,0:0:0:0:
256,192,91177,1,8,0:0:0:0:
256,192,91278,1,8,0:0:0:0:
256,192,91379,1,8,0:0:0:0:
256,192,91580,1,0,0:0:0:0:
256,192,91781,1,8,0:0:0:0:
256,192,92184,1,8,0:0:0:0:
256,192,92385,1,0,0:0:0:0:
256,192,92486,1,0,0:0:0:0:
256,192,92587,1,0,0:0:0:0:
256,192,92788,1,0,0:0:0:0:
256,192,92989,1,8,0:0:0:0:
256,192,93392,1,0,0:0:0:0:
256,192,93795,1,8,0:0:0:0:
256,192,93996,1,8,0:0:0:0:
256,192,94197,1,0,0:0:0:0:
256,192,94399,1,0,0:0:0:0:
256,192,94499,1,0,0:0:0:0:
256,192,94600,1,0,0:0:0:0:
256,192,94801,1,8,0:0:0:0:
256,192,95003,1,0,0:0:0:0:
256,192,95406,1,8,0:0:0:0:
256,192,95607,1,8,0:0:0:0:
256,192,95808,1,0,0:0:0:0:
256,192,96110,1,0,0:0:0:0:
256,192,96211,1,0,0:0:0:0:
256,192,96412,1,8,0:0:0:0:
256,192,96614,1,0,0:0:0:0:
256,192,96815,1,8,0:0:0:0:
256,192,96916,1,8,0:0:0:0:
256,192,97016,1,8,0:0:0:0:
256,192,97218,1,8,0:0:0:0:
256,192,97419,1,0,0:0:0:0:
256,192,97822,1,8,0:0:0:0:
256,192,98023,1,0,0:0:0:0:
256,192,98224,1,8,0:0:0:0:
256,192,98325,1,8,0:0:0:0:
256,192,98426,1,8,0:0:0:0:
256,192,98627,1,8,0:0:0:0:
256,192,98728,1,8,0:0:0:0:
256,192,98828,1,8,0:0:0:0:
256,192,99030,2,8,L|256:128,6,35
256,192,99835,1,0,0:0:0:0:
256,192,100036,1,0,0:0:0:0:
256,192,100137,1,0,0:0:0:0:
256,192,100238,1,0,0:0:0:0:
256,192,100439,1,8,0:0:0:0:
256,192,100640,1,0,0:0:0:0:
256,192,100842,1,8,0:0:0:0:
256,192,101043,1,0,0:0:0:0:
256,192,101244,1,0,0:0:0:0:
256,192,101446,1,0,0:0:0:0:
256,192,103057,1,4,0:0:0:0:
256,192,103459,1,8,0:0:0:0:
256,192,103661,1,8,0:0:0:0:
256,192,103761,1,8,0:0:0:0:
256,192,103862,1,8,0:0:0:0:
256,192,104265,1,8,0:0:0:0:
256,192,104466,1,0,0:0:0:0:
256,192,104567,1,0,0:0:0:0:
256,192,104667,1,0,0:0:0:0:
256,192,105070,1,8,0:0:0:0:
256,192,105271,1,8,0:0:0:0:
256,192,105372,1,8,0:0:0:0:
256,192,105473,1,8,0:0:0:0:
256,192,105674,1,0,0:0:0:0:
256,192,105875,1,8,0:0:0:0:
256,192,106278,1,0,0:0:0:0:
256,192,106681,1,8,0:0:0:0:
256,192,106882,1,0,0:0:0:0:
256,192,106983,1,0,0:0:0:0:
256,192,107083,1,0,0:0:0:0:
256,192,107285,1,0,0:0:0:0:
256,192,107486,1,8,0:0:0:0:
256,192,107687,1,8,0:0:0:0:
256,192,107889,1,0,0:0:0:0:
256,192,108291,1,8,0:0:0:0:
256,192,108493,1,8,0:0:0:0:
256,192,108593,1,8,0:0:0:0:
256,192,108694,1,8,0:0:0:0:
256,192,108895,1,0,0:0:0:0:
256,192,109097,1,8,0:0:0:0:
256,192,109499,1,0,0:0:0:0:
256,192,109902,1,8,0:0:0:0:
256,192,110104,1,0,0:0:0:0:
256,192,110204,1,0,0:0:0:0:
256,192,110305,1,0,0:0:0:0:
256,192,110708,1,8,0:0:0:0:
256,192,110909,1,8,0:0:0:0:
256,192,111010,1,8,0:0:0:0:
256,192,111110,1,8,0:0:0:0:
256,192,111513,1,0,0:0:0:0:
256,192,111714,1,8,0:0:0:0:
256,192,111916,1,0,0:0:0:0:
256,192,112016,1,0,0:0:0:0:
256,192,112117,1,0,0:0:0:0:
256,192,112318,1,8,0:0:0:0:
256,192,112520,1,8,0:0:0:0:
256,192,112721,1,0,0:0:0:0:
256,192,113124,1,8,0:0:0:0:
256,192,113325,1,8,0:0:0:0:
256,192,113526,1,0,0:0:0:0:
256,192,113728,1,0,0:0:0:0:
256,192,113929,1,8,0:0:0:0:
256,192,114130,1,8,0:0:0:0:
256,192,114332,1,0,0:0:0:0:
256,192,114432,1,0,0:0:0:0:
256,192,114533,1,0,0:0:0:0:
256,192,114734,1,0,0:0:0:0:
256,192,114835,1,0,0:0:0:0:
256,192,114936,1,0,0:0:0:0:
256,192,115137,2,0,L|256:128,6,35
256,192,115942,1,0,0:0:0:0:
256,192,116144,1,8,0:0:0:0:
256,192,116244,1,8,0:0:0:0:
256,192,116345,1,8,0:0:0:0:
256,192,116546,1,8,0:0:0:0:
256,192,116748,1,0,0:0:0:0:
256,192,117150,1,8,0:0:0:0:
256,192,117352,1,0,0:0:0:0:
256,192,117453,1,0,0:0:0:0:
256,192,117654,1,0,0:0:0:0:
256,192,117755,1,0,0:0:0:0:
256,192,117956,1,0,0:0:0:0:
256,192,118157,1,8,0:0:0:0:
256,192,118359,1,4,0:0:0:0:
