osu file format v14

[General]
AudioFilename: audio.mp3
AudioLeadIn: 0
PreviewTime: 72453
Countdown: 0
SampleSet: None
StackLeniency: 0.7
Mode: 1
LetterboxInBreaks: 0
WidescreenStoryboard: 1

[Editor]
DistanceSpacing: 0.2
BeatDivisor: 2
GridSize: 32
TimelineZoom: 1.179999

[Metadata]
Title:ETERNAL DRAIN
TitleUnicode:ETERNAL DRAIN
Artist:Colorful Sounds Port
ArtistUnicode:カラフル・サウンズ・ポート
Creator:zigizigiefe
Version:_yu68's Futsuu
Source:BMS
Tags:DELAYMASTER+ DELAYMASTER DELAY MASTER PLUS ANIME POP BOF2011 THE BOF OF FIGHTERS 2011 Midnaait Nishizumi _yu68
BeatmapID:1480040
BeatmapSetID:692110

[Difficulty]
HPDrainRate:7
CircleSize:5
OverallDifficulty:4
ApproachRate:5
SliderMultiplier:1.4
SliderTickRate:1

[Events]
//Background and Video events
0,0,"BG.jpg",0,0
//Break Periods
//Storyboard Layer 0 (Background)
//Storyboard Layer 1 (Fail)
//Storyboard Layer 2 (Pass)
//Storyboard Layer 3 (Foreground)
//Storyboard Sound Samples

[TimingPoints]
1580,402.684563758389,4,1,0,10,1,8
1982,-100,4,1,0,20,0,8
2385,-100,4,1,0,30,0,8
2788,-100,4,1,0,40,0,8
3190,-100,4,1,0,50,0,8
3593,-100,4,1,0,60,0,8
3996,-100,4,1,0,70,0,8
4398,-100,4,1,0,80,0,8
4802,402.684563758389,4,1,0,90,1,0
17687,-100,4,1,0,95,0,0
20909,-100,4,1,0,95,0,1
33795,-100,4,1,0,85,0,0
69231,-100,4,1,0,95,0,0
74063,-100,4,1,0,95,0,1
85338,-100,4,1,0,95,0,0
86949,-100,4,1,0,95,0,1
98224,-100,4,1,0,95,0,0
99835,-100,4,1,0,95,0,1
101446,-100,4,1,0,95,0,0
101496,-100,4,1,0,85,0,0
103057,-100,4,1,0,95,0,1
115942,-100,4,1,0,95,0,0

[HitObjects]
256,192,4801,5,4,0:0:0:0:
256,192,5607,1,0,0:0:0:0:
256,192,6412,1,0,0:0:0:0:
256,192,7218,1,0,0:0:0:0:
256,192,7620,1,8,0:0:0:0:
256,192,8023,1,0,0:0:0:0:
256,192,8828,1,0,0:0:0:0:
256,192,9634,1,8,0:0:0:0:
256,192,10439,1,0,0:0:0:0:
256,192,11244,1,0,0:0:0:0:
256,192,11647,1,8,0:0:0:0:
256,192,12251,1,0,0:0:0:0:
256,192,12453,1,8,0:0:0:0:
256,192,12855,1,0,0:0:0:0:
256,192,13258,1,8,0:0:0:0:
256,192,13661,1,8,0:0:0:0:
256,192,13862,1,0,0:0:0:0:
256,192,14063,1,8,0:0:0:0:
256,192,14466,1,0,0:0:0:0:
256,192,14869,1,8,0:0:0:0:
256,192,15674,1,8,0:0:0:0:
256,192,15875,1,0,0:0:0:0:
256,192,16077,1,0,0:0:0:0:
256,192,16479,1,8,0:0:0:0:
256,192,16882,1,0,0:0:0:0:
256,192,17285,1,8,0:0:0:0:
256,192,17687,1,4,0:0:0:0:
256,192,18493,1,4,0:0:0:0:
256,192,19298,1,4,0:0:0:0:
256,192,19701,1,4,0:0:0:0:
256,192,20104,1,4,0:0:0:0:
256,192,20305,1,4,0:0:0:0:
256,192,20506,1,4,0:0:0:0:
256,192,20708,1,4,0:0:0:0:
256,192,20909,1,12,0:0:0:0:
256,192,21714,1,8,0:0:0:0:
256,192,22117,1,0,0:0:0:0:
256,192,22318,1,0,0:0:0:0:
256,192,22520,1,8,0:0:0:0:
256,192,22922,1,0,0:0:0:0:
256,192,23325,1,8,0:0:0:0:
256,192,23728,1,8,0:0:0:0:
256,192,24130,1,0,0:0:0:0:
256,192,24936,1,0,0:0:0:0:
256,192,25338,1,8,0:0:0:0:
256,192,25540,1,8,0:0:0:0:
256,192,25741,1,0,0:0:0:0:
256,192,26144,1,8,0:0:0:0:
256,192,26546,1,0,0:0:0:0:
256,192,26748,1,8,0:0:0:0:
256,192,26949,1,0,0:0:0:0:
256,192,27352,1,8,0:0:0:0:
256,192,28157,1,8,0:0:0:0:
256,192,28560,1,0,0:0:0:0:
256,192,28761,1,0,0:0:0:0:
256,192,28963,1,8,0:0:0:0:
256,192,29365,1,0,0:0:0:0:
256,192,29768,1,8,0:0:0:0:
256,192,29969,1,0,0:0:0:0:
256,192,30171,1,8,0:0:0:0:
256,192,30573,1,0,0:0:0:0:
256,192,31379,1,0,0:0:0:0:
256,192,31781,1,8,0:0:0:0:
256,192,32184,1,0,0:0:0:0:
256,192,32385,1,0,0:0:0:0:
256,192,32587,1,0,0:0:0:0:
256,192,32989,1,8,0:0:0:0:
256,192,33191,1,8,0:0:0:0:
256,192,33392,1,8,0:0:0:0:
256,192,33795,1,0,0:0:0:0:
256,192,34197,1,8,0:0:0:0:
256,192,35003,1,8,0:0:0:0:
256,192,35406,1,0,0:0:0:0:
256,192,35808,1,8,0:0:0:0:
256,192,36010,1,8,0:0:0:0:
256,192,36211,1,0,0:0:0:0:
256,192,36614,1,8,0:0:0:0:
256,192,37016,1,0,0:0:0:0:
256,192,37419,1,8,0:0:0:0:
256,192,38224,1,8,0:0:0:0:
256,192,38627,1,0,0:0:0:0:
256,192,39030,1,8,0:0:0:0:
256,192,39231,1,0,0:0:0:0:
256,192,39432,1,0,0:0:0:0:
256,192,39835,1,8,0:0:0:0:
256,192,40238,1,0,0:0:0:0:
256,192,40640,1,8,0:0:0:0:
256,192,41043,1,0,0:0:0:0:
256,192,41848,1,0,0:0:0:0:
256,192,42251,1,8,0:0:0:0:
256,192,42654,1,8,0:0:0:0:
256,192,42855,1,0,0:0:0:0:
256,192,43057,1,8,0:0:0:0:
256,192,43459,1,0,0:0:0:0:
256,192,44265,1,0,0:0:0:0:
256,192,44667,1,8,0:0:0:0:
256,192,45070,1,0,0:0:0:0:
256,192,45271,1,8,0:0:0:0:
256,192,45473,1,8,0:0:0:0:
256,192,45875,1,0,0:0:0:0:
256,192,46278,1,8,0:0:0:0:
256,192,46479,1,8,0:0:0:0:
256,192,46681,1,0,0:0:0:0:
256,192,47083,1,8,0:0:0:0:
256,192,47889,1,8,0:0:0:0:
256,192,48291,1,0,0:0:0:0:
256,192,48694,1,8,0:0:0:0:
256,192,48895,1,8,0:0:0:0:
256,192,49097,1,0,0:0:0:0:
256,192,49499,1,8,0:0:0:0:
256,192,49902,1,0,0:0:0:0:
256,192,50305,1,8,0:0:0:0:
256,192,51110,1,8,0:0:0:0:
256,192,51513,1,0,0:0:0:0:
256,192,51916,1,8,0:0:0:0:
256,192,52117,1,0,0:0:0:0:
256,192,52318,1,8,0:0:0:0:
256,192,52721,1,8,0:0:0:0:
256,192,53124,1,0,0:0:0:0:
256,192,53526,1,8,0:0:0:0:
256,192,53929,1,0,0:0:0:0:
256,192,54734,1,0,0:0:0:0:
256,192,55137,1,8,0:0:0:0:
256,192,55540,1,8,0:0:0:0:
256,192,55741,1,0,0:0:0:0:
256,192,55942,1,8,0:0:0:0:
256,192,56345,1,0,0:0:0:0:
256,192,56748,1,8,0:0:0:0:
256,192,57150,1,0,0:0:0:0:
256,192,57956,1,0,0:0:0:0:
256,192,58157,1,8,0:0:0:0:
256,192,58359,1,8,0:0:0:0:
256,192,58761,1,0,0:0:0:0:
256,192,59164,1,8,0:0:0:0:
256,192,59365,1,8,0:0:0:0:
256,192,59567,1,0,0:0:0:0:
256,192,60372,1,8,0:0:0:0:
256,192,60573,1,0,0:0:0:0:
256,192,60775,1,8,0:0:0:0:
256,192,61177,1,0,0:0:0:0:
256,192,61983,1,8,0:0:0:0:
256,192,62184,1,0,0:0:0:0:
256,192,62385,1,8,0:0:0:0:
256,192,62788,1,0,0:0:0:0:
256,192,63191,1,8,0:0:0:0:
256,192,63593,1,0,0:0:0:0:
256,192,63996,1,8,0:0:0:0:
256,192,64399,1,0,0:0:0:0:
256,192,64600,1,8,0:0:0:0:
256,192,64801,1,8,0:0:0:0:
256,192,65204,1,0,0:0:0:0:
256,192,65607,1,0,0:0:0:0:
256,192,65808,1,8,0:0:0:0:
256,192,66010,1,0,0:0:0:0:
256,192,66815,1,8,0:0:0:0:
256,192,67016,1,0,0:0:0:0:
256,192,67218,1,8,0:0:0:0:
256,192,67620,1,0,0:0:0:0:
256,192,68426,1,8,0:0:0:0:
256,192,68627,1,0,0:0:0:0:
256,192,68828,1,8,0:0:0:0:
256,192,69231,1,0,0:0:0:0:
256,192,70036,1,0,0:0:0:0:
256,192,70842,1,0,0:0:0:0:
256,192,71244,1,8,0:0:0:0:
256,192,71647,1,8,0:0:0:0:
256,192,72050,1,8,0:0:0:0:
256,192,72453,1,0,0:0:0:0:
256,192,72654,1,0,0:0:0:0:
256,192,72855,1,0,0:0:0:0:
256,192,73258,1,8,0:0:0:0:
256,192,73459,1,8,0:0:0:0:
256,192,73661,1,8,0:0:0:0:
256,192,74063,1,4,0:0:0:0:
256,192,74869,1,0,0:0:0:0:
256,192,75271,1,8,0:0:0:0:
256,192,75473,1,8,0:0:0:0:
256,192,75674,1,0,0:0:0:0:
256,192,76077,1,0,0:0:0:0:
256,192,76278,1,0,0:0:0:0:
256,192,76479,1,8,0:0:0:0:
256,192,76882,1,8,0:0:0:0:
256,192,77285,1,0,0:0:0:0:
256,192,78090,1,0,0:0:0:0:
256,192,78493,1,0,0:0:0:0:
256,192,78694,1,0,0:0:0:0:
256,192,78895,1,8,0:0:0:0:
256,192,79298,1,8,0:0:0:0:
256,192,79499,1,8,0:0:0:0:
256,192,79701,1,0,0:0:0:0:
256,192,80104,1,8,0:0:0:0:
256,192,80506,1,0,0:0:0:0:
256,192,81312,1,0,0:0:0:0:
256,192,81714,1,8,0:0:0:0:
256,192,81916,1,8,0:0:0:0:
256,192,82117,1,0,0:0:0:0:
256,192,82520,1,0,0:0:0:0:
256,192,82721,1,0,0:0:0:0:
256,192,82922,1,8,0:0:0:0:
256,192,83325,1,8,0:0:0:0:
256,192,83728,1,0,0:0:0:0:
256,192,84533,1,0,0:0:0:0:
256,192,84936,1,0,0:0:0:0:
256,192,85338,1,12,0:0:0:0:
256,192,85741,1,12,0:0:0:0:
256,192,86144,1,12,0:0:0:0:
256,192,86345,1,12,0:0:0:0:
256,192,86546,1,12,0:0:0:0:
256,192,86748,1,12,0:0:0:0:
256,192,86949,1,4,0:0:0:0:
256,192,87755,1,0,0:0:0:0:
256,192,88157,1,8,0:0:0:0:
256,192,88359,1,0,0:0:0:0:
256,192,88560,1,0,0:0:0:0:
256,192,88963,1,0,0:0:0:0:
256,192,89164,1,8,0:0:0:0:
256,192,89365,1,8,0:0:0:0:
256,192,89768,1,8,0:0:0:0:
256,192,90171,1,0,0:0:0:0:
256,192,90976,1,0,0:0:0:0:
256,192,91379,1,0,0:0:0:0:
256,192,91580,1,0,0:0:0:0:
256,192,91781,1,8,0:0:0:0:
256,192,92184,1,8,0:0:0:0:
256,192,92385,1,0,0:0:0:0:
256,192,92587,1,0,0:0:0:0:
256,192,92989,1,8,0:0:0:0:
256,192,93392,1,0,0:0:0:0:
256,192,94197,1,0,0:0:0:0:
256,192,94600,1,8,0:0:0:0:
256,192,94801,1,0,0:0:0:0:
256,192,95003,1,0,0:0:0:0:
256,192,95406,1,0,0:0:0:0:
256,192,95607,1,8,0:0:0:0:
256,192,95808,1,8,0:0:0:0:
256,192,96211,1,8,0:0:0:0:
256,192,96614,1,0,0:0:0:0:
256,192,97419,1,0,0:0:0:0:
256,192,97822,1,0,0:0:0:0:
256,192,98224,1,12,0:0:0:0:
256,192,98627,1,12,0:0:0:0:
256,192,99030,1,12,0:0:0:0:
256,192,99231,1,12,0:0:0:0:
256,192,99432,1,12,0:0:0:0:
256,192,99634,1,12,0:0:0:0:
256,192,99835,1,0,0:0:0:0:
256,192,100238,1,0,0:0:0:0:
256,192,100640,1,8,0:0:0:0:
256,192,101043,1,8,0:0:0:0:
256,192,101446,1,0,0:0:0:0:
256,192,103057,1,12,0:0:0:0:
256,192,103862,1,8,0:0:0:0:
256,192,104265,1,0,0:0:0:0:
256,192,104466,1,0,0:0:0:0:
256,192,104667,1,8,0:0:0:0:
256,192,105070,1,0,0:0:0:0:
256,192,105473,1,8,0:0:0:0:
256,192,105875,1,8,0:0:0:0:
256,192,106278,1,0,0:0:0:0:
256,192,107083,1,0,0:0:0:0:
256,192,107486,1,8,0:0:0:0:
256,192,107687,1,8,0:0:0:0:
256,192,107889,1,0,0:0:0:0:
256,192,108291,1,8,0:0:0:0:
256,192,108694,1,0,0:0:0:0:
256,192,108895,1,8,0:0:0:0:
256,192,109097,1,0,0:0:0:0:
256,192,109499,1,8,0:0:0:0:
256,192,110305,1,8,0:0:0:0:
256,192,110708,1,0,0:0:0:0:
256,192,110909,1,0,0:0:0:0:
256,192,111110,1,8,0:0:0:0:
256,192,111513,1,0,0:0:0:0:
256,192,111916,1,8,0:0:0:0:
256,192,112117,1,0,0:0:0:0:
256,192,112318,1,8,0:0:0:0:
256,192,112721,1,0,0:0:0:0:
256,192,113526,1,0,0:0:0:0:
256,192,113929,1,8,0:0:0:0:
256,192,114332,1,0,0:0:0:0:
256,192,114533,1,0,0:0:0:0:
256,192,114734,1,0,0:0:0:0:
256,192,115137,1,8,0:0:0:0:
256,192,115338,1,8,0:0:0:0:
256,192,115540,1,8,0:0:0:0:
256,192,115942,1,0,0:0:0:0:
256,192,116748,1,8,0:0:0:0:
256,192,117150,1,0,0:0:0:0:
256,192,117352,1,8,0:0:0:0:
256,192,117755,1,8,0:0:0:0:
256,192,117956,1,0,0:0:0:0:
256,192,118359,1,4,0:0:0:0:
