osu file format v14

[General]
AudioFilename: audio.mp3
AudioLeadIn: 0
PreviewTime: 72453
Countdown: 1
SampleSet: Normal
StackLeniency: 0.7
Mode: 1
LetterboxInBreaks: 0
WidescreenStoryboard: 1

[Editor]
DistanceSpacing: 0.2
BeatDivisor: 8
GridSize: 32
TimelineZoom: 1.599998

[Metadata]
Title:ETERNAL DRAIN
TitleUnicode:ETERNAL DRAIN
Artist:Colorful Sounds Port
ArtistUnicode:カラフル・サウンズ・ポート
Creator:zigizigiefe
Version:Oni
Source:BMS
Tags:DELAYMASTER+ DELAYMASTER DELAY MASTER PLUS ANIME POP BOF2011 THE BOF OF FIGHTERS 2011 Midnaait Nishizumi _yu68
BeatmapID:1464636
BeatmapSetID:692110

[Difficulty]
HPDrainRate:5
CircleSize:5
OverallDifficulty:5.5
ApproachRate:5
SliderMultiplier:1.4
SliderTickRate:1

[Events]
//Background and Video events
0,0,"BG.jpg",0,0
//Break Periods
//Storyboard Layer 0 (Background)
//Storyboard Layer 1 (Fail)
//Storyboard Layer 2 (Pass)
//Storyboard Layer 3 (Foreground)
//Storyboard Sound Samples

[TimingPoints]
1580,402.684563758389,4,1,0,10,1,8
1982,-100,4,1,0,20,0,8
2385,-100,4,1,0,30,0,8
2788,-100,4,1,0,40,0,8
3190,-100,4,1,0,50,0,8
3593,-100,4,1,0,60,0,8
3996,-100,4,1,0,70,0,8
4398,-100,4,1,0,80,0,8
4802,402.684563758389,4,1,0,90,1,0
11244,-90.9090909090909,4,1,0,90,0,0
17687,-83.3333333333333,4,1,0,95,0,0
20909,-76.9230769230769,4,1,0,95,0,1
33795,-90.9090909090909,4,1,0,85,0,0
69231,-88.2352967128028,4,1,0,95,0,0
70036,-85.7142906122452,4,1,0,95,0,0
70842,-83.3333333333333,4,1,0,95,0,0
73761,-81.6326530612245,4,1,0,95,0,0
73862,-80,4,1,0,95,0,0
73963,-78.4313725490196,4,1,0,95,0,0
74063,-76.9230769230769,4,1,0,95,0,1
85338,-76.9230769230769,4,1,0,95,0,0
86949,-76.9230769230769,4,1,0,95,0,1
98224,-76.9230769230769,4,1,0,95,0,0
99835,-76.9230769230769,4,1,0,95,0,1
101446,-76.9230769230769,4,1,0,95,0,0
101496,-76.9230769230769,4,1,0,85,0,0
103057,-76.9230769230769,4,1,0,95,0,1
115942,-76.9230769230769,4,1,0,95,0,0

[HitObjects]
256,192,1580,12,0,4399,0:0:0:0:
256,192,4801,5,4,0:0:0:0:
256,192,5104,1,8,0:0:0:0:
128,128,5406,1,8,0:0:0:0:
128,128,5607,1,0,0:0:0:0:
256,192,5909,1,0,0:0:0:0:
128,128,6212,1,8,0:0:0:0:
128,128,6412,1,0,0:0:0:0:
192,128,6714,1,0,0:0:0:0:
128,128,7017,1,8,0:0:0:0:
128,128,7218,1,8,0:0:0:0:
192,128,7519,1,0,0:0:0:0:
128,128,7822,1,8,0:0:0:0:
256,192,8023,5,0,0:0:0:0:
256,192,8325,1,8,0:0:0:0:
128,128,8628,1,8,0:0:0:0:
128,128,8829,1,0,0:0:0:0:
256,192,9131,1,0,0:0:0:0:
128,128,9434,1,8,0:0:0:0:
128,128,9635,1,8,0:0:0:0:
128,128,10237,1,8,0:0:0:0:
192,0,10338,1,8,0:0:0:0:
256,64,10439,1,0,0:0:0:0:
256,160,11244,1,4,0:0:0:0:
256,160,11446,1,0,0:0:0:0:
256,160,11647,1,8,0:0:0:0:
256,160,11848,1,0,0:0:0:0:
256,160,11949,1,8,0:0:0:0:
256,160,12150,1,8,0:0:0:0:
256,160,12251,1,0,0:0:0:0:
256,160,12453,1,8,0:0:0:0:
192,64,12855,1,0,0:0:0:0:
192,64,13057,1,0,0:0:0:0:
192,64,13258,1,8,0:0:0:0:
192,64,13459,1,8,0:0:0:0:
192,64,13560,1,0,0:0:0:0:
192,64,13761,1,8,0:0:0:0:
192,64,13862,1,0,0:0:0:0:
192,64,14063,1,8,0:0:0:0:
288,192,14466,1,0,0:0:0:0:
288,192,14667,1,0,0:0:0:0:
288,192,14869,1,8,0:0:0:0:
256,160,15070,1,0,0:0:0:0:
256,160,15171,1,8,0:0:0:0:
256,160,15372,1,8,0:0:0:0:
256,160,15473,1,0,0:0:0:0:
256,160,15675,1,8,0:0:0:0:
256,160,15876,1,8,0:0:0:0:
128,96,15976,1,8,0:0:0:0:
192,64,16077,1,8,0:0:0:0:
192,64,16279,1,0,0:0:0:0:
192,64,16480,1,8,0:0:0:0:
192,64,16681,1,8,0:0:0:0:
192,64,16782,1,0,0:0:0:0:
192,64,16983,1,8,0:0:0:0:
192,64,17084,1,0,0:0:0:0:
192,64,17285,1,8,0:0:0:0:
224,192,17687,1,12,0:0:0:0:
256,128,17989,1,0,0:0:0:0:
224,128,18291,1,8,0:0:0:0:
224,192,18493,1,12,0:0:0:0:
256,128,18795,1,0,0:0:0:0:
224,128,19097,1,8,0:0:0:0:
224,192,19298,1,8,0:0:0:0:
128,128,19399,1,8,0:0:0:0:
160,128,19499,1,8,0:0:0:0:
224,192,19701,1,8,0:0:0:0:
160,128,19801,1,8,0:0:0:0:
160,128,19902,1,8,0:0:0:0:
224,192,20104,1,8,0:0:0:0:
192,96,20204,1,8,0:0:0:0:
192,96,20305,1,8,0:0:0:0:
192,96,20406,1,8,0:0:0:0:
192,96,20506,1,8,0:0:0:0:
96,64,20909,1,0,0:0:0:0:
160,96,21110,1,0,0:0:0:0:
160,96,21211,1,8,0:0:0:0:
64,64,21312,1,0,0:0:0:0:
160,96,21513,1,8,0:0:0:0:
256,224,21614,1,8,0:0:0:0:
160,96,21714,1,0,0:0:0:0:
160,96,21915,1,0,0:0:0:0:
160,96,22117,1,0,0:0:0:0:
160,96,22217,1,0,0:0:0:0:
160,96,22318,1,8,0:0:0:0:
256,224,22419,1,8,0:0:0:0:
160,96,22520,1,0,0:0:0:0:
160,96,22721,1,0,0:0:0:0:
160,96,22923,1,8,0:0:0:0:
160,96,23023,1,0,0:0:0:0:
160,96,23124,1,8,0:0:0:0:
160,64,23224,1,8,0:0:0:0:
0,160,23325,1,0,0:0:0:0:
160,96,23526,1,0,0:0:0:0:
160,96,23728,1,8,0:0:0:0:
256,224,24130,1,0,0:0:0:0:
160,96,24331,1,0,0:0:0:0:
160,96,24432,1,8,0:0:0:0:
160,96,24533,1,0,0:0:0:0:
160,96,24734,1,8,0:0:0:0:
160,96,24835,1,8,0:0:0:0:
256,224,24936,1,0,0:0:0:0:
160,96,25037,1,0,0:0:0:0:
160,96,25137,1,8,0:0:0:0:
160,96,25339,1,8,0:0:0:0:
160,96,25540,1,8,0:0:0:0:
160,96,25641,1,8,0:0:0:0:
256,224,25741,1,0,0:0:0:0:
160,96,25942,1,8,0:0:0:0:
160,96,26043,1,8,0:0:0:0:
192,64,26144,1,0,0:0:0:0:
160,96,26244,1,8,0:0:0:0:
160,96,26345,1,0,0:0:0:0:
256,224,26546,1,0,0:0:0:0:
160,96,26647,1,8,0:0:0:0:
96,128,26848,1,0,0:0:0:0:
160,96,26949,1,8,0:0:0:0:
96,64,27352,1,0,0:0:0:0:
160,96,27553,1,0,0:0:0:0:
160,96,27654,1,8,0:0:0:0:
64,64,27755,1,0,0:0:0:0:
160,96,27956,1,8,0:0:0:0:
256,224,28057,1,8,0:0:0:0:
160,96,28157,1,0,0:0:0:0:
160,96,28358,1,0,0:0:0:0:
160,96,28560,1,0,0:0:0:0:
160,96,28660,1,0,0:0:0:0:
160,96,28761,1,8,0:0:0:0:
256,224,28862,1,8,0:0:0:0:
160,96,28963,1,8,0:0:0:0:
160,96,29164,1,0,0:0:0:0:
224,128,29265,1,8,0:0:0:0:
160,96,29466,1,0,0:0:0:0:
160,96,29567,1,8,0:0:0:0:
160,64,29667,1,8,0:0:0:0:
0,160,29768,1,0,0:0:0:0:
160,96,29969,1,0,0:0:0:0:
160,96,30171,1,8,0:0:0:0:
256,224,30573,1,0,0:0:0:0:
160,96,30774,1,0,0:0:0:0:
160,96,30875,1,8,0:0:0:0:
160,96,30976,1,0,0:0:0:0:
224,64,31077,1,0,0:0:0:0:
160,96,31177,1,8,0:0:0:0:
256,224,31379,1,0,0:0:0:0:
160,96,31480,1,0,0:0:0:0:
160,96,31580,1,8,0:0:0:0:
160,96,31681,1,0,0:0:0:0:
160,96,31782,1,8,0:0:0:0:
160,96,31983,1,8,0:0:0:0:
256,224,32184,1,0,0:0:0:0:
160,96,32285,1,8,0:0:0:0:
160,96,32385,1,8,0:0:0:0:
160,96,32486,1,8,0:0:0:0:
192,64,32587,1,0,0:0:0:0:
160,96,32788,1,8,0:0:0:0:
160,96,32889,1,8,0:0:0:0:
256,224,32989,5,0,0:0:0:0:
160,96,33090,1,8,0:0:0:0:
96,128,33291,1,0,0:0:0:0:
160,96,33392,1,8,0:0:0:0:
96,64,33795,1,0,0:0:0:0:
192,128,33996,5,0,0:0:0:0:
192,128,34197,1,8,0:0:0:0:
192,128,34399,1,0,0:0:0:0:
160,128,34499,1,0,0:0:0:0:
160,128,34600,1,0,0:0:0:0:
192,128,34801,1,0,0:0:0:0:
192,128,35003,1,8,0:0:0:0:
224,64,35406,1,8,0:0:0:0:
224,64,35506,1,0,0:0:0:0:
288,96,35708,1,0,0:0:0:0:
288,96,35808,1,8,0:0:0:0:
224,160,36010,1,0,0:0:0:0:
288,96,36211,1,0,0:0:0:0:
288,96,36312,1,8,0:0:0:0:
288,96,36513,1,0,0:0:0:0:
288,96,36614,1,8,0:0:0:0:
320,128,37016,1,0,0:0:0:0:
192,128,37217,1,8,0:0:0:0:
192,128,37418,1,8,0:0:0:0:
192,128,37620,1,0,0:0:0:0:
160,128,37720,1,8,0:0:0:0:
160,128,37821,1,0,0:0:0:0:
192,128,38022,1,0,0:0:0:0:
192,128,38224,1,8,0:0:0:0:
224,64,38627,1,8,0:0:0:0:
192,128,38727,1,8,0:0:0:0:
288,96,38929,1,0,0:0:0:0:
288,96,39029,1,8,0:0:0:0:
288,96,39231,1,0,0:0:0:0:
288,96,39432,1,0,0:0:0:0:
288,96,39533,1,8,0:0:0:0:
288,96,39734,1,0,0:0:0:0:
288,96,39835,1,8,0:0:0:0:
160,96,40238,1,0,0:0:0:0:
160,96,40338,1,8,0:0:0:0:
192,64,40540,1,0,0:0:0:0:
192,64,40640,1,8,0:0:0:0:
160,96,40842,1,8,0:0:0:0:
160,96,41043,1,8,0:0:0:0:
224,64,41244,1,8,0:0:0:0:
224,64,41345,1,8,0:0:0:0:
224,64,41446,1,8,0:0:0:0:
256,128,41848,1,0,0:0:0:0:
192,192,41949,1,8,0:0:0:0:
192,192,42150,1,0,0:0:0:0:
192,192,42251,1,8,0:0:0:0:
192,192,42453,1,0,0:0:0:0:
192,128,42553,1,0,0:0:0:0:
192,160,42654,1,0,0:0:0:0:
192,160,42855,1,8,0:0:0:0:
192,160,43057,1,8,0:0:0:0:
192,160,43459,1,0,0:0:0:0:
224,96,43661,1,8,0:0:0:0:
224,64,43862,1,8,0:0:0:0:
224,96,44063,1,8,0:0:0:0:
224,96,44164,1,8,0:0:0:0:
224,96,44265,1,0,0:0:0:0:
160,160,44466,1,0,0:0:0:0:
160,160,44667,1,8,0:0:0:0:
160,96,45070,1,0,0:0:0:0:
160,96,45271,1,8,0:0:0:0:
160,96,45473,1,8,0:0:0:0:
192,128,45674,1,8,0:0:0:0:
160,96,45775,1,8,0:0:0:0:
224,32,45875,1,0,0:0:0:0:
160,96,45976,1,8,0:0:0:0:
192,128,46177,1,0,0:0:0:0:
224,32,46278,1,8,0:0:0:0:
224,32,46681,1,0,0:0:0:0:
256,128,46882,1,0,0:0:0:0:
256,128,47083,1,8,0:0:0:0:
256,128,47285,1,0,0:0:0:0:
256,128,47385,1,8,0:0:0:0:
256,128,47486,1,0,0:0:0:0:
192,96,47687,1,8,0:0:0:0:
192,96,47788,1,0,0:0:0:0:
192,96,47889,1,8,0:0:0:0:
224,32,48090,1,8,0:0:0:0:
192,96,48291,1,0,0:0:0:0:
224,64,48392,1,8,0:0:0:0:
288,128,48593,1,8,0:0:0:0:
160,160,48694,1,0,0:0:0:0:
256,64,48895,1,8,0:0:0:0:
224,128,49097,1,0,0:0:0:0:
224,128,49197,1,8,0:0:0:0:
192,192,49399,1,0,0:0:0:0:
192,192,49499,1,8,0:0:0:0:
224,32,49902,1,0,0:0:0:0:
256,128,50103,1,8,0:0:0:0:
256,128,50304,1,8,0:0:0:0:
256,128,50506,1,0,0:0:0:0:
256,128,50606,1,8,0:0:0:0:
256,128,50707,1,0,0:0:0:0:
192,96,50908,1,8,0:0:0:0:
192,96,51010,1,8,0:0:0:0:
192,96,51110,1,0,0:0:0:0:
224,32,51311,1,8,0:0:0:0:
192,96,51512,1,0,0:0:0:0:
224,64,51613,1,8,0:0:0:0:
288,128,51814,1,8,0:0:0:0:
160,160,51915,1,0,0:0:0:0:
256,64,52116,1,8,0:0:0:0:
224,128,52318,1,0,0:0:0:0:
224,128,52418,1,8,0:0:0:0:
192,192,52620,1,0,0:0:0:0:
192,192,52720,1,8,0:0:0:0:
224,32,53124,1,0,0:0:0:0:
256,128,53224,1,8,0:0:0:0:
224,192,53325,1,0,0:0:0:0:
256,128,53425,1,8,0:0:0:0:
256,128,53526,1,0,0:0:0:0:
256,128,53728,1,8,0:0:0:0:
256,128,53929,1,0,0:0:0:0:
256,224,54030,1,8,0:0:0:0:
192,96,54130,1,8,0:0:0:0:
192,96,54231,1,0,0:0:0:0:
192,96,54332,1,8,0:0:0:0:
224,32,54533,1,8,0:0:0:0:
192,96,54734,1,0,0:0:0:0:
224,64,54835,1,8,0:0:0:0:
384,128,54936,1,8,0:0:0:0:
288,128,55036,1,8,0:0:0:0:
160,160,55137,1,0,0:0:0:0:
256,64,55338,1,8,0:0:0:0:
224,128,55540,1,0,0:0:0:0:
224,128,55640,1,8,0:0:0:0:
192,192,55741,1,0,0:0:0:0:
192,192,55842,1,0,0:0:0:0:
192,192,55942,1,8,0:0:0:0:
224,32,56345,1,0,0:0:0:0:
256,128,56445,1,8,0:0:0:0:
256,128,56646,1,8,0:0:0:0:
256,128,56747,1,0,0:0:0:0:
256,128,56949,1,8,0:0:0:0:
256,128,57150,1,8,0:0:0:0:
256,224,57251,1,8,0:0:0:0:
192,96,57452,1,0,0:0:0:0:
192,96,57553,1,8,0:0:0:0:
224,64,57653,1,8,0:0:0:0:
224,32,57754,1,0,0:0:0:0:
160,32,57955,1,8,0:0:0:0:
384,128,58157,1,8,0:0:0:0:
160,160,58358,1,8,0:0:0:0:
256,64,58559,1,8,0:0:0:0:
256,64,58660,1,8,0:0:0:0:
192,192,58761,1,0,0:0:0:0:
224,128,58861,1,8,0:0:0:0:
224,64,59063,1,0,0:0:0:0:
192,192,59163,1,8,0:0:0:0:
192,224,59567,1,0,0:0:0:0:
160,96,59768,1,0,0:0:0:0:
160,96,59869,1,8,0:0:0:0:
160,96,59969,1,0,0:0:0:0:
160,128,60171,1,8,0:0:0:0:
160,128,60372,1,8,0:0:0:0:
192,96,60573,1,8,0:0:0:0:
192,96,60674,1,8,0:0:0:0:
192,96,60775,1,0,0:0:0:0:
192,224,61177,1,0,0:0:0:0:
160,96,61378,1,0,0:0:0:0:
160,96,61479,1,8,0:0:0:0:
160,96,61579,1,8,0:0:0:0:
160,128,61781,1,0,0:0:0:0:
160,128,61982,1,8,0:0:0:0:
192,96,62183,1,8,0:0:0:0:
192,96,62285,1,8,0:0:0:0:
192,96,62385,1,0,0:0:0:0:
192,224,62788,1,0,0:0:0:0:
160,96,62989,1,8,0:0:0:0:
160,96,63190,1,0,0:0:0:0:
160,128,63392,1,8,0:0:0:0:
160,128,63493,1,8,0:0:0:0:
160,128,63593,1,0,0:0:0:0:
192,96,63795,1,8,0:0:0:0:
192,96,63996,1,0,0:0:0:0:
192,224,64398,1,0,0:0:0:0:
160,96,64599,1,8,0:0:0:0:
160,96,64701,1,8,0:0:0:0:
160,128,64800,1,0,0:0:0:0:
160,96,64901,1,8,0:0:0:0:
160,128,65104,1,8,0:0:0:0:
160,128,65204,1,0,0:0:0:0:
192,96,65404,1,8,0:0:0:0:
192,96,65607,1,8,0:0:0:0:
192,224,66010,1,0,0:0:0:0:
160,96,66211,1,0,0:0:0:0:
160,96,66312,1,8,0:0:0:0:
160,96,66412,1,0,0:0:0:0:
160,128,66614,1,8,0:0:0:0:
160,128,66714,1,0,0:0:0:0:
160,128,66815,1,8,0:0:0:0:
192,96,67016,1,8,0:0:0:0:
192,96,67117,1,8,0:0:0:0:
192,96,67218,1,8,0:0:0:0:
192,224,67620,1,0,0:0:0:0:
160,96,67821,1,0,0:0:0:0:
160,96,67922,1,8,0:0:0:0:
160,96,68022,1,0,0:0:0:0:
160,128,68224,1,8,0:0:0:0:
160,128,68325,1,8,0:0:0:0:
160,128,68426,1,0,0:0:0:0:
192,96,68626,1,8,0:0:0:0:
224,64,68728,1,8,0:0:0:0:
192,96,68828,1,0,0:0:0:0:
192,224,69231,1,4,0:0:0:0:
160,96,69432,1,0,0:0:0:0:
160,96,69533,1,8,0:0:0:0:
160,96,69633,1,0,0:0:0:0:
160,128,69835,1,8,0:0:0:0:
160,128,70036,1,4,0:0:0:0:
192,96,70238,1,8,0:0:0:0:
192,96,70338,1,0,0:0:0:0:
192,96,70439,1,8,0:0:0:0:
192,96,70640,1,0,0:0:0:0:
192,224,70841,1,4,0:0:0:0:
160,96,71042,1,8,0:0:0:0:
160,96,71144,1,8,0:0:0:0:
160,128,71243,1,0,0:0:0:0:
160,96,71344,1,8,0:0:0:0:
160,128,71547,1,8,0:0:0:0:
160,128,71647,1,0,0:0:0:0:
192,96,71847,1,8,0:0:0:0:
192,96,72050,1,8,0:0:0:0:
160,160,72453,1,0,0:0:0:0:
160,160,72553,1,0,0:0:0:0:
160,160,72654,1,8,0:0:0:0:
160,160,72855,1,0,0:0:0:0:
160,160,72955,1,0,0:0:0:0:
160,160,73056,1,8,0:0:0:0:
160,160,73258,1,0,0:0:0:0:
160,160,73358,1,0,0:0:0:0:
160,160,73459,1,8,0:0:0:0:
160,160,73560,1,0,0:0:0:0:
160,160,73660,1,8,0:0:0:0:
160,160,73761,1,8,0:0:0:0:
192,96,73862,1,8,0:0:0:0:
192,96,73963,1,8,0:0:0:0:
64,128,74063,1,0,0:0:0:0:
96,96,74265,1,0,0:0:0:0:
160,64,74365,1,8,0:0:0:0:
160,96,74466,1,0,0:0:0:0:
160,96,74667,1,8,0:0:0:0:
224,160,74869,1,0,0:0:0:0:
224,128,75070,1,8,0:0:0:0:
64,128,75171,1,8,0:0:0:0:
160,96,75271,1,0,0:0:0:0:
160,96,75472,1,8,0:0:0:0:
224,160,75674,1,0,0:0:0:0:
160,96,75875,1,8,0:0:0:0:
160,64,75976,1,8,0:0:0:0:
160,96,76076,1,0,0:0:0:0:
224,96,76177,1,0,0:0:0:0:
224,160,76278,1,8,0:0:0:0:
128,96,76479,1,0,0:0:0:0:
160,160,76580,1,8,0:0:0:0:
192,160,76681,1,0,0:0:0:0:
192,160,76781,1,0,0:0:0:0:
192,160,76882,1,8,0:0:0:0:
192,128,77285,5,0,0:0:0:0:
192,128,77487,1,0,0:0:0:0:
160,64,77587,1,8,0:0:0:0:
160,96,77688,1,0,0:0:0:0:
160,96,77889,1,8,0:0:0:0:
224,160,78091,1,0,0:0:0:0:
224,128,78191,1,0,0:0:0:0:
224,128,78292,1,0,0:0:0:0:
64,128,78393,1,8,0:0:0:0:
160,96,78493,1,0,0:0:0:0:
160,64,78694,1,8,0:0:0:0:
224,160,78896,1,0,0:0:0:0:
128,128,78997,1,0,0:0:0:0:
160,96,79097,1,0,0:0:0:0:
160,96,79298,1,0,0:0:0:0:
224,160,79500,1,8,0:0:0:0:
128,128,79601,1,8,0:0:0:0:
128,96,79701,1,0,0:0:0:0:
192,160,79802,1,8,0:0:0:0:
192,160,79903,1,0,0:0:0:0:
192,160,80003,1,0,0:0:0:0:
160,160,80104,1,8,0:0:0:0:
64,128,80506,1,0,0:0:0:0:
96,96,80708,1,0,0:0:0:0:
160,64,80808,1,8,0:0:0:0:
160,96,80909,1,0,0:0:0:0:
160,64,81010,1,0,0:0:0:0:
160,96,81110,1,8,0:0:0:0:
224,160,81312,1,0,0:0:0:0:
224,128,81513,1,8,0:0:0:0:
64,128,81614,1,8,0:0:0:0:
160,96,81714,1,0,0:0:0:0:
160,64,81815,1,0,0:0:0:0:
160,96,81915,1,8,0:0:0:0:
224,160,82117,1,0,0:0:0:0:
160,96,82318,1,8,0:0:0:0:
160,64,82419,1,8,0:0:0:0:
160,96,82519,1,0,0:0:0:0:
256,64,82620,1,0,0:0:0:0:
224,160,82721,1,8,0:0:0:0:
224,64,82822,1,8,0:0:0:0:
128,96,82922,1,0,0:0:0:0:
192,160,83124,1,0,0:0:0:0:
192,160,83224,1,0,0:0:0:0:
192,160,83325,1,8,0:0:0:0:
192,128,83728,5,0,0:0:0:0:
192,128,83930,1,8,0:0:0:0:
160,64,84030,1,8,0:0:0:0:
160,96,84131,1,0,0:0:0:0:
160,96,84332,5,8,0:0:0:0:
224,160,84432,1,8,0:0:0:0:
224,128,84634,1,0,0:0:0:0:
224,128,84735,1,8,0:0:0:0:
64,128,84836,1,8,0:0:0:0:
160,96,84936,1,0,0:0:0:0:
160,64,85137,1,8,0:0:0:0:
224,192,85338,5,12,0:0:0:0:
256,128,85540,1,12,0:0:0:0:
224,192,85741,1,12,0:0:0:0:
224,192,86144,1,12,0:0:0:0:
160,64,86345,1,12,0:0:0:0:
160,64,86546,1,12,0:0:0:0:
288,96,86748,1,12,0:0:0:0:
64,128,86949,1,0,0:0:0:0:
96,96,87151,1,0,0:0:0:0:
160,64,87251,1,8,0:0:0:0:
160,96,87352,1,0,0:0:0:0:
224,96,87453,1,0,0:0:0:0:
160,96,87553,1,8,0:0:0:0:
224,96,87654,1,8,0:0:0:0:
224,160,87755,1,0,0:0:0:0:
224,128,87956,1,8,0:0:0:0:
64,128,88057,1,8,0:0:0:0:
160,96,88157,1,0,0:0:0:0:
160,96,88358,1,8,0:0:0:0:
224,160,88560,1,0,0:0:0:0:
160,96,88761,1,8,0:0:0:0:
160,64,88862,1,8,0:0:0:0:
160,96,88962,1,0,0:0:0:0:
224,96,89063,1,0,0:0:0:0:
224,160,89164,1,8,0:0:0:0:
224,128,89265,1,0,0:0:0:0:
128,96,89365,1,8,0:0:0:0:
192,160,89567,1,0,0:0:0:0:
192,160,89667,1,0,0:0:0:0:
192,160,89768,1,8,0:0:0:0:
192,128,90171,5,0,0:0:0:0:
192,128,90373,1,0,0:0:0:0:
160,64,90473,1,8,0:0:0:0:
160,96,90574,1,0,0:0:0:0:
160,96,90674,1,8,0:0:0:0:
256,96,90775,1,0,0:0:0:0:
256,64,90875,1,0,0:0:0:0:
224,160,90977,1,8,0:0:0:0:
224,128,91178,1,0,0:0:0:0:
64,128,91279,1,8,0:0:0:0:
160,96,91379,1,0,0:0:0:0:
160,64,91580,1,8,0:0:0:0:
224,160,91782,1,0,0:0:0:0:
128,128,91883,1,0,0:0:0:0:
160,96,91983,1,0,0:0:0:0:
160,96,92184,1,0,0:0:0:0:
224,160,92386,1,8,0:0:0:0:
128,128,92487,1,8,0:0:0:0:
128,96,92587,1,0,0:0:0:0:
192,160,92688,1,8,0:0:0:0:
192,160,92789,1,0,0:0:0:0:
192,160,92889,1,0,0:0:0:0:
160,160,92990,1,8,0:0:0:0:
64,128,93392,1,0,0:0:0:0:
160,64,93594,1,8,0:0:0:0:
96,96,93694,1,0,0:0:0:0:
160,96,93795,1,8,0:0:0:0:
224,96,93896,1,8,0:0:0:0:
160,96,93996,1,0,0:0:0:0:
224,96,94097,1,8,0:0:0:0:
224,160,94198,1,0,0:0:0:0:
224,128,94399,1,8,0:0:0:0:
64,128,94500,1,8,0:0:0:0:
160,96,94600,1,0,0:0:0:0:
160,96,94801,1,8,0:0:0:0:
224,160,95003,1,0,0:0:0:0:
160,96,95204,1,8,0:0:0:0:
160,64,95305,1,8,0:0:0:0:
160,96,95405,1,0,0:0:0:0:
224,96,95506,1,0,0:0:0:0:
224,160,95607,1,8,0:0:0:0:
224,128,95708,1,8,0:0:0:0:
128,96,95808,1,8,0:0:0:0:
192,160,96010,1,0,0:0:0:0:
192,160,96110,1,0,0:0:0:0:
192,160,96211,1,8,0:0:0:0:
192,128,96614,5,0,0:0:0:0:
192,128,96816,1,8,0:0:0:0:
160,64,96916,1,8,0:0:0:0:
160,96,97017,1,0,0:0:0:0:
160,96,97218,5,8,0:0:0:0:
224,160,97318,1,8,0:0:0:0:
224,128,97520,1,0,0:0:0:0:
224,128,97621,1,8,0:0:0:0:
64,128,97722,1,8,0:0:0:0:
160,96,97822,1,0,0:0:0:0:
160,64,98023,1,8,0:0:0:0:
224,192,98224,5,12,0:0:0:0:
256,128,98426,1,12,0:0:0:0:
224,192,98627,1,12,0:0:0:0:
224,192,99030,1,12,0:0:0:0:
160,64,99231,1,12,0:0:0:0:
160,64,99432,1,12,0:0:0:0:
288,96,99634,1,12,0:0:0:0:
224,128,99835,5,0,0:0:0:0:
224,128,99936,1,0,0:0:0:0:
224,128,100036,1,0,0:0:0:0:
224,128,100137,1,0,0:0:0:0:
224,128,100238,1,8,0:0:0:0:
192,96,100439,1,8,0:0:0:0:
160,96,100540,1,8,0:0:0:0:
224,128,100640,1,0,0:0:0:0:
224,128,100741,1,0,0:0:0:0:
224,128,100841,1,8,0:0:0:0:
224,128,101043,1,8,0:0:0:0:
160,96,101143,1,0,0:0:0:0:
192,96,101244,1,8,0:0:0:0:
160,64,101446,1,8,0:0:0:0:
96,64,103057,1,0,0:0:0:0:
160,96,103258,1,0,0:0:0:0:
160,96,103359,1,8,0:0:0:0:
64,64,103460,1,0,0:0:0:0:
160,96,103661,1,8,0:0:0:0:
256,224,103762,1,8,0:0:0:0:
160,96,103862,1,0,0:0:0:0:
160,96,104063,1,0,0:0:0:0:
160,96,104265,1,0,0:0:0:0:
160,96,104365,1,0,0:0:0:0:
160,96,104466,1,8,0:0:0:0:
256,224,104567,1,8,0:0:0:0:
160,96,104668,1,0,0:0:0:0:
160,96,104869,1,0,0:0:0:0:
160,96,105071,1,8,0:0:0:0:
160,96,105171,1,0,0:0:0:0:
160,96,105272,1,8,0:0:0:0:
160,64,105372,1,8,0:0:0:0:
0,160,105473,1,0,0:0:0:0:
160,96,105674,1,0,0:0:0:0:
160,96,105876,1,8,0:0:0:0:
256,224,106278,1,0,0:0:0:0:
160,96,106479,1,0,0:0:0:0:
160,96,106580,1,8,0:0:0:0:
160,96,106681,1,0,0:0:0:0:
160,96,106882,1,8,0:0:0:0:
160,96,106983,1,8,0:0:0:0:
256,224,107084,1,0,0:0:0:0:
160,96,107185,1,0,0:0:0:0:
160,96,107285,1,8,0:0:0:0:
160,96,107487,1,8,0:0:0:0:
160,96,107688,1,8,0:0:0:0:
160,96,107789,1,8,0:0:0:0:
256,224,107889,1,0,0:0:0:0:
160,96,108090,1,8,0:0:0:0:
160,96,108191,1,8,0:0:0:0:
192,64,108292,1,0,0:0:0:0:
160,96,108392,1,8,0:0:0:0:
160,96,108493,1,0,0:0:0:0:
256,224,108694,1,0,0:0:0:0:
160,96,108795,1,8,0:0:0:0:
96,128,108996,1,0,0:0:0:0:
160,96,109097,1,8,0:0:0:0:
96,64,109500,1,0,0:0:0:0:
160,96,109701,1,0,0:0:0:0:
160,96,109802,1,8,0:0:0:0:
64,64,109903,1,0,0:0:0:0:
160,96,110104,1,8,0:0:0:0:
256,224,110205,1,8,0:0:0:0:
160,96,110305,1,0,0:0:0:0:
160,96,110506,1,0,0:0:0:0:
160,96,110708,1,0,0:0:0:0:
160,96,110808,1,0,0:0:0:0:
160,96,110909,1,8,0:0:0:0:
256,224,111010,1,8,0:0:0:0:
160,96,111111,1,8,0:0:0:0:
160,96,111312,1,0,0:0:0:0:
224,128,111413,1,8,0:0:0:0:
160,96,111614,5,0,0:0:0:0:
160,96,111715,1,8,0:0:0:0:
160,64,111815,1,8,0:0:0:0:
0,160,111916,1,0,0:0:0:0:
160,96,112117,1,0,0:0:0:0:
160,96,112319,1,8,0:0:0:0:
256,224,112721,5,0,0:0:0:0:
160,96,112922,1,0,0:0:0:0:
160,96,113023,1,8,0:0:0:0:
160,96,113124,1,0,0:0:0:0:
224,64,113225,1,0,0:0:0:0:
160,96,113325,1,8,0:0:0:0:
256,224,113527,1,0,0:0:0:0:
160,96,113728,1,8,0:0:0:0:
160,96,113829,1,0,0:0:0:0:
160,96,113930,1,8,0:0:0:0:
160,96,114030,1,8,0:0:0:0:
160,96,114131,1,0,0:0:0:0:
256,224,114332,1,8,0:0:0:0:
160,96,114433,1,8,0:0:0:0:
160,96,114533,1,8,0:0:0:0:
192,64,114735,1,8,0:0:0:0:
160,96,114835,1,8,0:0:0:0:
160,96,114936,5,8,0:0:0:0:
256,224,115137,5,8,0:0:0:0:
160,96,115238,1,8,0:0:0:0:
160,96,115338,1,8,0:0:0:0:
96,128,115439,1,8,0:0:0:0:
160,96,115540,1,8,0:0:0:0:
96,160,115943,1,0,0:0:0:0:
256,224,116144,1,8,0:0:0:0:
256,224,116244,1,8,0:0:0:0:
256,224,116345,1,0,0:0:0:0:
256,224,116446,1,8,0:0:0:0:
256,224,116647,1,8,0:0:0:0:
256,224,116748,1,0,0:0:0:0:
256,192,116949,1,0,0:0:0:0:
256,224,117150,1,12,0:0:0:0:
256,192,117453,1,12,0:0:0:0:
256,224,117654,1,12,0:0:0:0:
256,224,117956,1,4,0:0:0:0:
256,224,118157,1,12,0:0:0:0:
256,192,118359,1,4,0:0:0:0:
