osu file format v14

[General]
AudioFilename: audio.mp3
AudioLeadIn: 0
PreviewTime: 72453
Countdown: 1
SampleSet: Normal
StackLeniency: 0.7
Mode: 1
LetterboxInBreaks: 0
WidescreenStoryboard: 0

[Editor]
DistanceSpacing: 0.3
BeatDivisor: 8
GridSize: 32
TimelineZoom: 3.499997

[Metadata]
Title:ETERNAL DRAIN
TitleUnicode:ETERNAL DRAIN
Artist:Colorful Sounds Port
ArtistUnicode:カラフル・サウンズ・ポート
Creator:zigizigiefe
Version:ETERNAL
Source:BMS
Tags:DELAYMASTER+ DELAYMASTER DELAY MASTER PLUS ANIME POP BOF2011 THE BOF OF FIGHTERS 2011 Midnaait Nishizumi _yu68
BeatmapID:1464531
BeatmapSetID:692110

[Difficulty]
HPDrainRate:5
CircleSize:5
OverallDifficulty:9
ApproachRate:5
SliderMultiplier:1.4
SliderTickRate:1

[Events]
//Background and Video events
0,0,"BG.jpg",0,0
//Break Periods
//Storyboard Layer 0 (Background)
//Storyboard Layer 1 (Fail)
//Storyboard Layer 2 (Pass)
//Storyboard Layer 3 (Foreground)
//Storyboard Sound Samples

[TimingPoints]
1580,402.684563758389,4,1,0,10,1,8
1982,-100,4,1,0,20,0,8
2385,-100,4,1,0,30,0,8
2788,-100,4,1,0,40,0,8
3190,-100,4,1,0,50,0,8
3593,-100,4,1,0,60,0,8
3996,-100,4,1,0,70,0,8
4398,-100,4,1,0,80,0,8
4802,402.684563758389,4,1,0,90,1,0
11244,-66.6666666666667,4,1,0,90,0,0
17687,-57.1428571428571,4,1,0,95,0,0
20557,-56.140350877193,4,1,0,95,0,0
20607,-55.1724137931035,4,1,0,95,0,0
20657,-54.2372881355932,4,1,0,95,0,0
20708,-53.3333333333333,4,1,0,95,0,0
20758,-52.445260259604,4,1,0,95,0,0
20808,-51.6129032258065,4,1,0,95,0,0
20859,-50.7936507936508,4,1,0,95,0,0
20909,-50,4,1,0,95,0,1
33442,-50.7936507936508,4,1,0,95,0,1
33493,-51.6129032258065,4,1,0,95,0,1
33543,-52.4590163934426,4,1,0,95,0,1
33593,-53.3333333333333,4,1,0,95,0,1
33644,-54.2372881355932,4,1,0,95,0,1
33694,-55.1724137931035,4,1,0,95,0,1
33744,-55.9832050384885,4,1,0,95,0,1
33795,-57.1428571428571,4,1,0,85,0,0
45171,-56.6371681415929,4,1,0,85,0,0
45271,-56.140350877193,4,1,0,85,0,0
45372,-55.6521739130435,4,1,0,85,0,0
45473,-55.1724137931034,4,1,0,85,0,0
45573,-54.7008547008547,4,1,0,85,0,0
45674,-54.2372881355932,4,1,0,85,0,0
45775,-53.781512605042,4,1,0,85,0,0
45875,-53.3333333333333,4,1,0,85,0,0
45976,-52.8925619834711,4,1,0,85,0,0
46077,-52.4590163934426,4,1,0,85,0,0
46177,-52.0325203252033,4,1,0,85,0,0
46278,-51.6129032258064,4,1,0,85,0,0
46379,-51.2,4,1,0,85,0,0
46479,-50.7936507936508,4,1,0,85,0,0
46580,-50.3937007874016,4,1,0,85,0,0
46681,-50,4,1,0,85,0,0
59013,-50.5263157894737,4,1,0,85,0,0
59063,-51.063829787234,4,1,0,85,0,0
59114,-51.6129032258064,4,1,0,85,0,0
59164,-52.1739130434783,4,1,0,85,0,0
59214,-52.7472527472528,4,1,0,85,0,0
59265,-53.3333333333333,4,1,0,85,0,0
59315,-53.9325842696629,4,1,0,85,0,0
59365,-54.5454545454545,4,1,0,85,0,0
59416,-55.1724137931034,4,1,0,85,0,0
59466,-55.8139534883721,4,1,0,85,0,0
59516,-56.4705882352941,4,1,0,85,0,0
59567,-57.1428571428571,4,1,0,85,0,0
69231,-54.5454545454545,4,1,0,95,0,0
70036,-52.1739130434783,4,1,0,95,0,0
70842,-50,4,1,0,95,0,0
74063,-50,4,1,0,95,0,1
85338,-50,4,1,0,95,0,0
86949,-50,4,1,0,95,0,1
98224,-50,4,1,0,95,0,0
99835,-50,4,1,0,95,0,1
101446,-50,4,1,0,95,0,0
101496,-50,4,1,0,85,0,0
103057,-50,4,1,0,95,0,1
115942,-50,4,1,0,95,0,0

[HitObjects]
256,192,1580,12,0,4399,0:0:0:0:
256,192,4801,5,4,0:0:0:0:
256,192,5104,1,8,0:0:0:0:
128,128,5406,1,8,0:0:0:0:
128,128,5607,1,0,0:0:0:0:
256,192,5909,1,0,0:0:0:0:
128,128,6212,1,8,0:0:0:0:
128,128,6412,1,0,0:0:0:0:
192,128,6714,1,0,0:0:0:0:
128,128,7017,1,8,0:0:0:0:
128,128,7218,1,8,0:0:0:0:
192,128,7519,1,0,0:0:0:0:
128,128,7822,1,8,0:0:0:0:
256,192,8023,5,0,0:0:0:0:
256,192,8325,1,8,0:0:0:0:
128,128,8628,1,8,0:0:0:0:
128,128,8829,1,0,0:0:0:0:
256,192,9131,1,0,0:0:0:0:
128,128,9434,1,8,0:0:0:0:
128,128,9635,1,8,0:0:0:0:
128,128,10237,1,8,0:0:0:0:
192,0,10338,1,8,0:0:0:0:
256,64,10439,1,0,0:0:0:0:
256,160,11244,1,4,0:0:0:0:
256,160,11446,1,0,0:0:0:0:
288,224,11546,1,0,0:0:0:0:
256,160,11647,1,8,0:0:0:0:
256,160,11848,1,0,0:0:0:0:
256,160,11949,1,8,0:0:0:0:
256,160,12050,1,0,0:0:0:0:
256,160,12150,1,8,0:0:0:0:
256,160,12251,1,0,0:0:0:0:
256,160,12352,1,0,0:0:0:0:
256,160,12453,1,8,0:0:0:0:
256,160,12654,1,8,0:0:0:0:
160,128,12755,1,8,0:0:0:0:
192,64,12855,1,0,0:0:0:0:
192,64,13057,1,0,0:0:0:0:
288,224,13157,1,8,0:0:0:0:
192,64,13258,1,8,0:0:0:0:
192,64,13459,1,8,0:0:0:0:
192,64,13560,1,0,0:0:0:0:
192,64,13661,1,8,0:0:0:0:
192,64,13761,1,8,0:0:0:0:
192,64,13862,1,0,0:0:0:0:
192,64,13963,1,0,0:0:0:0:
192,64,14063,1,8,0:0:0:0:
160,128,14265,1,0,0:0:0:0:
288,192,14466,1,0,0:0:0:0:
288,192,14667,1,0,0:0:0:0:
288,192,14869,1,8,0:0:0:0:
256,160,15070,1,0,0:0:0:0:
256,160,15171,1,8,0:0:0:0:
256,160,15272,1,8,0:0:0:0:
256,160,15372,1,8,0:0:0:0:
256,160,15473,1,0,0:0:0:0:
256,160,15574,1,0,0:0:0:0:
256,160,15675,1,8,0:0:0:0:
256,160,15876,1,8,0:0:0:0:
128,96,15976,1,8,0:0:0:0:
192,64,16077,1,8,0:0:0:0:
192,64,16279,1,0,0:0:0:0:
192,64,16480,1,8,0:0:0:0:
192,64,16681,1,8,0:0:0:0:
192,64,16782,1,0,0:0:0:0:
192,64,16883,1,8,0:0:0:0:
192,64,16983,1,8,0:0:0:0:
192,64,17084,1,0,0:0:0:0:
192,64,17185,1,0,0:0:0:0:
192,64,17285,1,8,0:0:0:0:
160,128,17487,1,0,0:0:0:0:
192,32,17587,1,0,0:0:0:0:
224,192,17687,1,8,0:0:0:0:
256,224,17755,1,8,0:0:0:0:
256,224,17822,1,8,0:0:0:0:
256,224,17889,1,0,0:0:0:0:
256,128,17989,1,8,0:0:0:0:
128,96,18090,1,0,0:0:0:0:
224,128,18191,1,0,0:0:0:0:
224,128,18291,1,8,0:0:0:0:
160,64,18392,1,8,0:0:0:0:
224,192,18493,1,0,0:0:0:0:
256,224,18561,1,8,0:0:0:0:
256,224,18628,1,8,0:0:0:0:
256,224,18695,1,0,0:0:0:0:
256,128,18795,1,8,0:0:0:0:
288,32,18895,1,0,0:0:0:0:
224,128,18997,1,0,0:0:0:0:
224,128,19097,1,8,0:0:0:0:
160,160,19197,1,0,0:0:0:0:
224,192,19298,1,8,0:0:0:0:
256,224,19348,1,8,0:0:0:0:
224,128,19399,1,8,0:0:0:0:
256,224,19449,1,8,0:0:0:0:
192,32,19499,1,0,0:0:0:0:
224,192,19701,1,8,0:0:0:0:
256,224,19751,1,8,0:0:0:0:
224,128,19801,1,8,0:0:0:0:
256,224,19852,1,8,0:0:0:0:
64,64,19902,1,0,0:0:0:0:
224,192,20104,1,8,0:0:0:0:
224,192,20154,1,8,0:0:0:0:
224,128,20204,1,8,0:0:0:0:
256,224,20255,1,8,0:0:0:0:
256,224,20305,1,0,0:0:0:0:
224,128,20355,1,0,0:0:0:0:
224,192,20406,1,0,0:0:0:0:
256,224,20456,1,0,0:0:0:0:
224,128,20506,1,8,0:0:0:0:
224,192,20557,1,8,0:0:0:0:
256,224,20607,1,8,0:0:0:0:
224,128,20657,1,8,0:0:0:0:
224,64,20708,1,8,0:0:0:0:
224,64,20758,1,8,0:0:0:0:
224,64,20808,1,8,0:0:0:0:
224,64,20859,1,8,0:0:0:0:
96,64,20909,1,0,0:0:0:0:
160,96,21010,1,8,0:0:0:0:
160,96,21110,1,0,0:0:0:0:
128,96,21161,1,8,0:0:0:0:
160,96,21211,1,8,0:0:0:0:
128,96,21261,1,8,0:0:0:0:
160,96,21312,1,0,0:0:0:0:
160,96,21412,1,0,0:0:0:0:
192,160,21463,1,0,0:0:0:0:
160,96,21513,1,8,0:0:0:0:
192,128,21563,1,0,0:0:0:0:
256,224,21614,1,8,0:0:0:0:
192,160,21664,1,8,0:0:0:0:
160,96,21714,1,0,0:0:0:0:
160,96,21815,1,8,0:0:0:0:
160,96,21915,1,0,0:0:0:0:
192,64,21966,1,0,0:0:0:0:
160,96,22016,1,8,0:0:0:0:
192,64,22067,1,8,0:0:0:0:
160,96,22117,1,0,0:0:0:0:
160,96,22217,1,0,0:0:0:0:
160,64,22268,1,0,0:0:0:0:
160,96,22318,1,8,0:0:0:0:
160,64,22369,1,8,0:0:0:0:
256,224,22419,1,8,0:0:0:0:
160,64,22469,1,8,0:0:0:0:
160,96,22520,1,0,0:0:0:0:
160,96,22621,1,8,0:0:0:0:
160,96,22721,1,0,0:0:0:0:
160,96,22771,1,0,0:0:0:0:
160,96,22822,1,0,0:0:0:0:
160,96,22872,1,0,0:0:0:0:
160,96,22923,1,8,0:0:0:0:
160,96,23023,1,0,0:0:0:0:
160,96,23124,1,8,0:0:0:0:
160,96,23174,1,0,0:0:0:0:
160,64,23224,1,8,0:0:0:0:
256,224,23275,1,8,0:0:0:0:
0,160,23325,1,0,0:0:0:0:
160,96,23426,1,8,0:0:0:0:
160,96,23526,1,0,0:0:0:0:
160,96,23577,1,0,0:0:0:0:
160,96,23627,1,8,0:0:0:0:
160,96,23677,1,8,0:0:0:0:
160,96,23728,1,8,0:0:0:0:
160,96,23828,1,0,0:0:0:0:
160,96,23929,1,8,0:0:0:0:
192,32,23979,1,8,0:0:0:0:
160,96,24030,1,8,0:0:0:0:
256,224,24130,1,0,0:0:0:0:
160,96,24231,1,8,0:0:0:0:
160,96,24331,1,0,0:0:0:0:
160,96,24382,1,8,0:0:0:0:
160,96,24432,1,8,0:0:0:0:
160,96,24483,1,8,0:0:0:0:
160,96,24533,1,0,0:0:0:0:
160,96,24633,1,0,0:0:0:0:
160,96,24734,1,8,0:0:0:0:
160,96,24785,1,0,0:0:0:0:
160,96,24835,1,8,0:0:0:0:
160,64,24885,1,8,0:0:0:0:
256,224,24936,1,0,0:0:0:0:
160,96,25037,1,0,0:0:0:0:
160,96,25087,1,0,0:0:0:0:
160,96,25137,1,8,0:0:0:0:
160,96,25238,1,0,0:0:0:0:
160,96,25339,1,8,0:0:0:0:
160,96,25389,1,0,0:0:0:0:
160,96,25439,1,0,0:0:0:0:
192,32,25489,1,0,0:0:0:0:
160,96,25540,1,8,0:0:0:0:
160,96,25590,1,8,0:0:0:0:
160,96,25641,1,8,0:0:0:0:
160,96,25691,1,8,0:0:0:0:
256,224,25741,1,0,0:0:0:0:
192,32,25842,1,0,0:0:0:0:
160,96,25942,1,8,0:0:0:0:
192,64,25993,1,0,0:0:0:0:
160,96,26043,1,8,0:0:0:0:
160,96,26093,1,8,0:0:0:0:
192,64,26144,1,0,0:0:0:0:
160,96,26244,1,0,0:0:0:0:
160,96,26345,1,8,0:0:0:0:
192,96,26395,1,0,0:0:0:0:
192,96,26446,1,8,0:0:0:0:
256,224,26546,1,0,0:0:0:0:
160,96,26647,1,8,0:0:0:0:
160,96,26747,1,0,0:0:0:0:
160,96,26815,1,0,0:0:0:0:
96,128,26882,1,0,0:0:0:0:
160,96,26949,1,8,0:0:0:0:
160,96,27049,1,0,0:0:0:0:
160,96,27150,1,8,0:0:0:0:
128,128,27201,1,0,0:0:0:0:
160,96,27251,1,8,0:0:0:0:
160,128,27301,1,8,0:0:0:0:
96,64,27352,1,0,0:0:0:0:
160,96,27453,1,8,0:0:0:0:
160,96,27553,1,0,0:0:0:0:
128,96,27604,1,8,0:0:0:0:
160,96,27654,1,8,0:0:0:0:
128,96,27704,1,8,0:0:0:0:
160,96,27755,1,0,0:0:0:0:
160,96,27855,1,0,0:0:0:0:
192,160,27906,1,0,0:0:0:0:
160,96,27956,1,8,0:0:0:0:
192,128,28006,1,0,0:0:0:0:
256,224,28057,1,8,0:0:0:0:
192,160,28107,1,8,0:0:0:0:
160,96,28157,1,0,0:0:0:0:
160,96,28258,1,8,0:0:0:0:
160,96,28358,1,0,0:0:0:0:
192,64,28409,1,0,0:0:0:0:
160,96,28459,1,8,0:0:0:0:
192,64,28510,1,8,0:0:0:0:
160,96,28560,1,0,0:0:0:0:
160,96,28660,1,0,0:0:0:0:
160,64,28711,1,0,0:0:0:0:
160,96,28761,1,8,0:0:0:0:
160,64,28812,1,8,0:0:0:0:
256,224,28862,1,8,0:0:0:0:
160,64,28912,1,8,0:0:0:0:
160,96,28963,1,0,0:0:0:0:
160,96,29064,1,8,0:0:0:0:
160,96,29164,1,0,0:0:0:0:
160,96,29214,1,0,0:0:0:0:
160,96,29265,1,8,0:0:0:0:
160,96,29316,1,0,0:0:0:0:
160,96,29366,1,0,0:0:0:0:
160,96,29466,1,0,0:0:0:0:
160,96,29567,1,8,0:0:0:0:
160,96,29617,1,0,0:0:0:0:
160,64,29667,1,8,0:0:0:0:
256,224,29718,1,8,0:0:0:0:
0,160,29768,1,0,0:0:0:0:
160,96,29869,1,8,0:0:0:0:
160,96,29969,1,0,0:0:0:0:
160,96,30020,1,0,0:0:0:0:
160,96,30070,1,8,0:0:0:0:
160,96,30120,1,8,0:0:0:0:
160,96,30171,1,8,0:0:0:0:
256,96,30221,1,8,0:0:0:0:
160,96,30271,1,0,0:0:0:0:
160,96,30372,1,8,0:0:0:0:
160,96,30473,1,8,0:0:0:0:
192,64,30523,1,8,0:0:0:0:
256,224,30573,1,0,0:0:0:0:
160,96,30674,1,8,0:0:0:0:
160,96,30774,1,0,0:0:0:0:
160,96,30825,1,8,0:0:0:0:
160,96,30875,1,8,0:0:0:0:
160,96,30926,1,8,0:0:0:0:
160,96,30976,1,0,0:0:0:0:
160,96,31076,1,0,0:0:0:0:
160,96,31177,1,8,0:0:0:0:
160,96,31228,1,0,0:0:0:0:
160,96,31278,1,8,0:0:0:0:
160,64,31328,1,8,0:0:0:0:
256,224,31379,1,0,0:0:0:0:
160,96,31480,1,8,0:0:0:0:
160,96,31530,1,0,0:0:0:0:
160,96,31580,1,8,0:0:0:0:
160,96,31681,1,0,0:0:0:0:
160,96,31782,1,8,0:0:0:0:
160,96,31832,1,0,0:0:0:0:
160,96,31882,1,0,0:0:0:0:
192,32,31932,1,0,0:0:0:0:
160,96,31983,1,8,0:0:0:0:
160,96,32084,1,0,0:0:0:0:
256,224,32184,1,0,0:0:0:0:
192,32,32285,1,8,0:0:0:0:
160,96,32335,1,0,0:0:0:0:
160,96,32385,1,8,0:0:0:0:
160,96,32436,1,8,0:0:0:0:
192,64,32486,1,0,0:0:0:0:
192,64,32536,1,0,0:0:0:0:
160,96,32587,1,8,0:0:0:0:
160,96,32687,1,0,0:0:0:0:
160,96,32738,1,0,0:0:0:0:
160,96,32788,1,8,0:0:0:0:
192,96,32838,5,8,0:0:0:0:
192,96,32889,1,8,0:0:0:0:
256,224,32989,1,0,0:0:0:0:
160,96,33040,1,0,0:0:0:0:
160,96,33090,1,8,0:0:0:0:
224,96,33140,1,0,0:0:0:0:
160,96,33191,1,8,0:0:0:0:
192,128,33241,1,8,0:0:0:0:
96,128,33291,1,0,0:0:0:0:
192,128,33342,1,0,0:0:0:0:
160,96,33392,1,8,0:0:0:0:
224,96,33442,1,0,0:0:0:0:
160,96,33492,1,8,0:0:0:0:
224,96,33543,1,0,0:0:0:0:
160,96,33593,1,8,0:0:0:0:
224,96,33644,1,8,0:0:0:0:
160,96,33694,1,8,0:0:0:0:
224,96,33744,1,8,0:0:0:0:
96,160,33795,1,0,0:0:0:0:
192,128,33996,5,0,0:0:0:0:
192,128,34097,1,0,0:0:0:0:
192,128,34197,1,8,0:0:0:0:
192,128,34298,1,8,0:0:0:0:
192,128,34399,1,0,0:0:0:0:
160,128,34499,1,8,0:0:0:0:
160,128,34600,1,0,0:0:0:0:
192,128,34801,1,0,0:0:0:0:
192,128,34902,1,0,0:0:0:0:
192,128,35003,1,8,0:0:0:0:
224,128,35104,1,0,0:0:0:0:
224,64,35204,1,0,0:0:0:0:
224,64,35406,1,8,0:0:0:0:
224,64,35506,1,0,0:0:0:0:
192,128,35607,1,0,0:0:0:0:
288,96,35708,1,0,0:0:0:0:
288,96,35808,1,8,0:0:0:0:
288,96,36010,1,0,0:0:0:0:
224,160,36110,1,8,0:0:0:0:
288,96,36211,1,0,0:0:0:0:
288,96,36312,1,8,0:0:0:0:
256,160,36362,1,8,0:0:0:0:
256,160,36412,1,8,0:0:0:0:
288,96,36513,1,0,0:0:0:0:
288,96,36614,1,8,0:0:0:0:
288,96,36815,1,0,0:0:0:0:
288,96,36916,1,0,0:0:0:0:
320,128,37016,1,0,0:0:0:0:
192,128,37217,1,8,0:0:0:0:
192,128,37318,1,0,0:0:0:0:
192,128,37418,1,8,0:0:0:0:
192,128,37520,1,8,0:0:0:0:
192,128,37620,1,0,0:0:0:0:
160,128,37720,1,8,0:0:0:0:
160,128,37821,1,0,0:0:0:0:
192,128,38022,1,0,0:0:0:0:
192,128,38123,1,0,0:0:0:0:
192,128,38224,1,8,0:0:0:0:
192,96,38325,1,8,0:0:0:0:
224,64,38425,1,0,0:0:0:0:
224,64,38627,1,8,0:0:0:0:
192,128,38727,1,8,0:0:0:0:
224,64,38828,1,0,0:0:0:0:
288,96,38929,1,0,0:0:0:0:
288,96,39029,1,8,0:0:0:0:
288,96,39231,1,0,0:0:0:0:
288,96,39432,1,0,0:0:0:0:
288,96,39533,1,8,0:0:0:0:
224,128,39583,1,8,0:0:0:0:
224,128,39634,1,8,0:0:0:0:
288,96,39734,1,0,0:0:0:0:
288,96,39835,1,8,0:0:0:0:
224,128,39936,1,0,0:0:0:0:
32,128,39986,1,0,0:0:0:0:
288,96,40036,1,8,0:0:0:0:
288,96,40137,1,8,0:0:0:0:
160,96,40238,1,0,0:0:0:0:
160,96,40338,1,8,0:0:0:0:
224,128,40439,1,0,0:0:0:0:
192,64,40540,1,0,0:0:0:0:
192,64,40640,1,8,0:0:0:0:
160,96,40842,1,8,0:0:0:0:
160,96,40942,1,0,0:0:0:0:
160,96,41043,1,8,0:0:0:0:
224,64,41144,1,8,0:0:0:0:
224,64,41244,1,0,0:0:0:0:
224,64,41345,1,8,0:0:0:0:
224,64,41446,1,8,0:0:0:0:
224,128,41647,1,8,0:0:0:0:
256,128,41747,1,8,0:0:0:0:
256,128,41848,1,0,0:0:0:0:
192,192,41949,1,8,0:0:0:0:
192,192,42050,1,8,0:0:0:0:
192,192,42150,1,0,0:0:0:0:
192,192,42251,1,8,0:0:0:0:
192,192,42453,1,0,0:0:0:0:
192,128,42553,1,8,0:0:0:0:
192,160,42654,1,0,0:0:0:0:
192,160,42855,1,8,0:0:0:0:
192,160,42956,1,0,0:0:0:0:
192,160,43057,1,8,0:0:0:0:
160,160,43157,1,8,0:0:0:0:
192,160,43258,1,0,0:0:0:0:
192,160,43359,1,8,0:0:0:0:
192,160,43459,1,0,0:0:0:0:
224,96,43661,1,8,0:0:0:0:
224,64,43761,1,0,0:0:0:0:
224,64,43862,1,8,0:0:0:0:
192,192,43963,1,0,0:0:0:0:
224,96,44063,1,8,0:0:0:0:
224,96,44164,1,8,0:0:0:0:
224,96,44265,1,0,0:0:0:0:
160,160,44466,1,0,0:0:0:0:
160,160,44667,1,8,0:0:0:0:
160,160,44869,1,0,0:0:0:0:
224,128,44969,1,8,0:0:0:0:
160,96,45070,1,0,0:0:0:0:
160,160,45171,1,0,0:0:0:0:
160,96,45271,1,8,0:0:0:0:
160,160,45372,1,0,0:0:0:0:
160,96,45473,1,8,0:0:0:0:
160,96,45573,1,0,0:0:0:0:
192,128,45674,1,8,0:0:0:0:
160,96,45775,1,8,0:0:0:0:
160,96,45875,1,0,0:0:0:0:
160,96,45976,1,8,0:0:0:0:
224,32,46077,1,0,0:0:0:0:
192,128,46177,1,0,0:0:0:0:
224,32,46278,1,8,0:0:0:0:
192,160,46379,1,0,0:0:0:0:
224,32,46479,1,8,0:0:0:0:
224,32,46580,1,8,0:0:0:0:
224,32,46681,1,0,0:0:0:0:
256,128,46882,1,0,0:0:0:0:
256,128,46983,1,0,0:0:0:0:
256,128,47083,1,8,0:0:0:0:
256,128,47285,1,0,0:0:0:0:
256,128,47385,1,8,0:0:0:0:
256,128,47436,1,8,0:0:0:0:
256,128,47486,1,0,0:0:0:0:
192,96,47587,1,8,0:0:0:0:
192,96,47637,1,0,0:0:0:0:
192,96,47687,1,8,0:0:0:0:
192,96,47738,1,8,0:0:0:0:
192,96,47788,1,0,0:0:0:0:
192,96,47838,1,0,0:0:0:0:
192,96,47889,1,8,0:0:0:0:
224,64,47989,1,0,0:0:0:0:
224,32,48090,1,8,0:0:0:0:
224,64,48140,1,8,0:0:0:0:
160,32,48191,1,8,0:0:0:0:
160,32,48241,1,8,0:0:0:0:
192,96,48291,1,0,0:0:0:0:
224,64,48392,1,8,0:0:0:0:
384,128,48493,1,0,0:0:0:0:
224,64,48543,1,8,0:0:0:0:
288,128,48593,1,8,0:0:0:0:
288,128,48644,1,8,0:0:0:0:
160,160,48694,1,0,0:0:0:0:
256,64,48795,1,0,0:0:0:0:
256,64,48895,1,8,0:0:0:0:
256,64,48946,1,8,0:0:0:0:
256,64,48996,1,8,0:0:0:0:
224,128,49097,1,0,0:0:0:0:
224,128,49197,1,8,0:0:0:0:
224,128,49248,1,8,0:0:0:0:
192,192,49298,1,8,0:0:0:0:
192,192,49399,1,0,0:0:0:0:
192,192,49499,1,8,0:0:0:0:
224,192,49701,1,8,0:0:0:0:
224,192,49801,1,8,0:0:0:0:
224,32,49902,1,0,0:0:0:0:
256,128,50103,1,8,0:0:0:0:
256,128,50204,1,0,0:0:0:0:
256,128,50304,1,8,0:0:0:0:
256,128,50506,1,0,0:0:0:0:
256,128,50606,1,8,0:0:0:0:
256,128,50657,1,8,0:0:0:0:
256,128,50707,1,0,0:0:0:0:
192,96,50808,1,8,0:0:0:0:
192,96,50858,1,8,0:0:0:0:
192,96,50908,1,8,0:0:0:0:
192,96,50959,1,8,0:0:0:0:
192,96,51010,1,8,0:0:0:0:
192,96,51060,1,8,0:0:0:0:
192,96,51110,1,0,0:0:0:0:
224,64,51210,1,0,0:0:0:0:
224,32,51311,1,8,0:0:0:0:
224,64,51361,1,8,0:0:0:0:
160,32,51412,1,8,0:0:0:0:
192,96,51512,1,0,0:0:0:0:
224,64,51613,1,8,0:0:0:0:
384,128,51714,1,0,0:0:0:0:
224,64,51764,1,8,0:0:0:0:
288,128,51814,1,8,0:0:0:0:
288,128,51865,1,8,0:0:0:0:
160,160,51915,1,0,0:0:0:0:
256,64,52016,1,0,0:0:0:0:
256,64,52116,1,0,0:0:0:0:
256,64,52167,1,8,0:0:0:0:
256,64,52217,1,8,0:0:0:0:
224,128,52318,1,0,0:0:0:0:
224,128,52418,1,8,0:0:0:0:
224,128,52469,1,8,0:0:0:0:
192,192,52519,1,8,0:0:0:0:
192,192,52620,1,0,0:0:0:0:
192,192,52720,1,8,0:0:0:0:
224,192,52922,1,8,0:0:0:0:
224,192,53022,1,8,0:0:0:0:
224,32,53124,1,0,0:0:0:0:
224,128,53174,1,8,0:0:0:0:
256,128,53224,1,8,0:0:0:0:
224,192,53274,1,8,0:0:0:0:
224,192,53325,1,0,0:0:0:0:
256,128,53425,1,8,0:0:0:0:
224,192,53476,1,8,0:0:0:0:
256,128,53526,1,0,0:0:0:0:
160,128,53627,1,0,0:0:0:0:
256,128,53728,1,8,0:0:0:0:
256,128,53828,1,8,0:0:0:0:
256,128,53929,1,0,0:0:0:0:
256,192,53979,1,0,0:0:0:0:
256,224,54030,1,8,0:0:0:0:
192,96,54080,1,0,0:0:0:0:
192,96,54130,1,8,0:0:0:0:
192,96,54181,1,8,0:0:0:0:
192,96,54231,1,0,0:0:0:0:
192,96,54332,1,8,0:0:0:0:
192,96,54382,1,0,0:0:0:0:
224,64,54432,1,8,0:0:0:0:
192,128,54483,1,0,0:0:0:0:
224,32,54533,1,8,0:0:0:0:
224,64,54583,1,8,0:0:0:0:
160,32,54634,1,8,0:0:0:0:
160,32,54684,1,8,0:0:0:0:
192,96,54734,1,0,0:0:0:0:
224,64,54835,1,8,0:0:0:0:
224,128,54885,1,8,0:0:0:0:
384,128,54936,1,8,0:0:0:0:
224,64,54986,1,8,0:0:0:0:
288,128,55036,1,0,0:0:0:0:
288,128,55087,1,0,0:0:0:0:
160,160,55137,1,0,0:0:0:0:
256,64,55238,1,8,0:0:0:0:
160,64,55288,1,0,0:0:0:0:
256,64,55338,1,8,0:0:0:0:
256,64,55439,1,8,0:0:0:0:
224,128,55540,1,0,0:0:0:0:
256,96,55590,1,0,0:0:0:0:
224,128,55640,1,8,0:0:0:0:
224,128,55691,1,8,0:0:0:0:
192,192,55741,1,0,0:0:0:0:
192,192,55842,1,0,0:0:0:0:
192,192,55942,1,8,0:0:0:0:
160,96,55993,1,8,0:0:0:0:
160,128,56043,1,0,0:0:0:0:
224,192,56144,1,8,0:0:0:0:
160,96,56194,1,8,0:0:0:0:
224,192,56244,1,8,0:0:0:0:
160,96,56295,1,8,0:0:0:0:
224,32,56345,1,0,0:0:0:0:
256,128,56445,1,8,0:0:0:0:
224,192,56546,1,0,0:0:0:0:
256,128,56646,1,8,0:0:0:0:
224,192,56697,1,8,0:0:0:0:
256,128,56747,1,0,0:0:0:0:
160,128,56848,1,0,0:0:0:0:
256,128,56949,1,8,0:0:0:0:
256,128,57050,1,0,0:0:0:0:
256,128,57150,1,8,0:0:0:0:
256,192,57200,1,8,0:0:0:0:
256,224,57251,1,8,0:0:0:0:
192,96,57301,1,8,0:0:0:0:
192,96,57351,1,0,0:0:0:0:
192,96,57402,1,0,0:0:0:0:
192,96,57452,1,0,0:0:0:0:
192,96,57553,1,8,0:0:0:0:
192,96,57603,1,0,0:0:0:0:
224,64,57653,1,8,0:0:0:0:
192,128,57704,1,0,0:0:0:0:
224,32,57754,1,8,0:0:0:0:
224,64,57804,1,8,0:0:0:0:
160,32,57855,1,0,0:0:0:0:
192,96,57905,1,0,0:0:0:0:
160,32,57955,1,8,0:0:0:0:
224,64,58056,1,0,0:0:0:0:
224,128,58106,1,0,0:0:0:0:
384,128,58157,1,8,0:0:0:0:
224,64,58207,1,8,0:0:0:0:
288,128,58257,1,0,0:0:0:0:
288,128,58308,1,0,0:0:0:0:
160,160,58358,1,8,0:0:0:0:
256,64,58459,1,0,0:0:0:0:
256,64,58559,1,8,0:0:0:0:
160,64,58610,1,0,0:0:0:0:
256,64,58660,1,8,0:0:0:0:
224,128,58761,1,0,0:0:0:0:
256,96,58812,1,0,0:0:0:0:
224,128,58861,1,8,0:0:0:0:
192,192,58962,1,0,0:0:0:0:
224,128,59013,1,0,0:0:0:0:
192,192,59063,1,0,0:0:0:0:
224,64,59114,1,0,0:0:0:0:
192,192,59163,1,8,0:0:0:0:
160,128,59214,1,0,0:0:0:0:
160,96,59264,1,8,0:0:0:0:
352,64,59315,1,0,0:0:0:0:
224,192,59365,1,8,0:0:0:0:
160,96,59415,1,8,0:0:0:0:
224,192,59465,1,8,0:0:0:0:
160,96,59516,1,8,0:0:0:0:
192,224,59567,1,0,0:0:0:0:
160,96,59768,1,0,0:0:0:0:
160,96,59869,1,8,0:0:0:0:
160,96,59969,1,0,0:0:0:0:
160,128,60070,1,0,0:0:0:0:
160,128,60171,1,8,0:0:0:0:
160,128,60271,1,0,0:0:0:0:
160,128,60372,1,8,0:0:0:0:
192,96,60573,1,8,0:0:0:0:
192,96,60674,1,8,0:0:0:0:
192,96,60775,1,0,0:0:0:0:
192,96,60875,1,8,0:0:0:0:
192,96,60976,1,0,0:0:0:0:
192,96,61026,1,8,0:0:0:0:
192,96,61077,1,8,0:0:0:0:
192,96,61127,1,8,0:0:0:0:
192,224,61177,1,0,0:0:0:0:
160,96,61378,1,0,0:0:0:0:
160,96,61479,1,8,0:0:0:0:
160,96,61579,1,0,0:0:0:0:
160,128,61680,1,0,0:0:0:0:
160,128,61781,1,8,0:0:0:0:
160,128,61882,1,8,0:0:0:0:
160,128,61982,1,8,0:0:0:0:
192,96,62183,1,8,0:0:0:0:
224,64,62251,1,8,0:0:0:0:
192,96,62318,1,8,0:0:0:0:
192,96,62385,1,0,0:0:0:0:
192,96,62485,1,8,0:0:0:0:
192,96,62586,1,0,0:0:0:0:
192,96,62687,1,8,0:0:0:0:
192,96,62737,1,8,0:0:0:0:
192,224,62788,1,0,0:0:0:0:
160,96,62989,1,0,0:0:0:0:
160,96,63090,1,8,0:0:0:0:
160,96,63190,1,0,0:0:0:0:
160,128,63291,1,0,0:0:0:0:
160,128,63392,1,8,0:0:0:0:
160,128,63493,1,8,0:0:0:0:
160,128,63593,1,0,0:0:0:0:
192,96,63795,1,8,0:0:0:0:
192,96,63895,1,8,0:0:0:0:
192,96,63996,1,0,0:0:0:0:
192,96,64096,1,8,0:0:0:0:
192,96,64197,1,0,0:0:0:0:
192,224,64398,1,0,0:0:0:0:
160,96,64599,1,8,0:0:0:0:
160,96,64667,1,8,0:0:0:0:
192,128,64734,1,8,0:0:0:0:
160,128,64800,1,0,0:0:0:0:
160,96,64901,1,8,0:0:0:0:
160,128,65002,1,8,0:0:0:0:
160,128,65104,1,8,0:0:0:0:
160,128,65204,1,0,0:0:0:0:
224,64,65305,1,8,0:0:0:0:
192,96,65404,1,8,0:0:0:0:
192,96,65505,1,0,0:0:0:0:
192,96,65607,1,8,0:0:0:0:
192,96,65706,1,0,0:0:0:0:
192,96,65807,1,8,0:0:0:0:
192,96,65908,1,8,0:0:0:0:
192,224,66010,1,0,0:0:0:0:
160,96,66211,1,0,0:0:0:0:
160,96,66312,1,8,0:0:0:0:
160,96,66412,1,0,0:0:0:0:
160,128,66513,1,0,0:0:0:0:
160,128,66614,1,8,0:0:0:0:
160,128,66714,1,0,0:0:0:0:
160,128,66815,1,8,0:0:0:0:
192,96,67016,1,8,0:0:0:0:
192,96,67117,1,8,0:0:0:0:
192,96,67218,1,8,0:0:0:0:
192,96,67318,1,0,0:0:0:0:
192,96,67419,1,8,0:0:0:0:
192,96,67520,1,8,0:0:0:0:
192,224,67620,1,0,0:0:0:0:
160,96,67821,1,0,0:0:0:0:
160,96,67922,1,8,0:0:0:0:
160,96,68022,1,0,0:0:0:0:
160,128,68123,1,0,0:0:0:0:
160,128,68224,1,8,0:0:0:0:
160,128,68325,1,8,0:0:0:0:
160,128,68426,1,0,0:0:0:0:
192,96,68626,1,8,0:0:0:0:
224,64,68694,1,8,0:0:0:0:
192,96,68761,1,8,0:0:0:0:
192,96,68828,1,0,0:0:0:0:
192,96,68928,1,8,0:0:0:0:
192,96,69029,1,8,0:0:0:0:
192,96,69130,1,8,0:0:0:0:
192,224,69231,1,4,0:0:0:0:
160,96,69432,1,0,0:0:0:0:
160,96,69533,1,8,0:0:0:0:
160,96,69633,1,0,0:0:0:0:
160,128,69734,1,0,0:0:0:0:
160,128,69835,1,8,0:0:0:0:
160,128,69936,1,8,0:0:0:0:
160,128,70036,1,4,0:0:0:0:
192,96,70238,1,8,0:0:0:0:
192,96,70338,1,0,0:0:0:0:
192,96,70439,1,8,0:0:0:0:
192,96,70539,1,8,0:0:0:0:
192,96,70640,1,0,0:0:0:0:
160,96,70741,1,8,0:0:0:0:
192,224,70841,1,4,0:0:0:0:
160,96,71042,1,8,0:0:0:0:
160,96,71110,1,8,0:0:0:0:
192,128,71177,1,8,0:0:0:0:
160,128,71243,1,0,0:0:0:0:
160,96,71344,1,8,0:0:0:0:
160,128,71445,1,8,0:0:0:0:
160,128,71547,1,8,0:0:0:0:
160,128,71647,1,0,0:0:0:0:
224,64,71748,1,8,0:0:0:0:
192,96,71847,1,8,0:0:0:0:
192,96,71948,1,0,0:0:0:0:
192,96,72050,1,8,0:0:0:0:
192,96,72149,1,0,0:0:0:0:
192,96,72250,1,8,0:0:0:0:
192,96,72351,1,8,0:0:0:0:
160,160,72453,1,0,0:0:0:0:
160,160,72503,1,0,0:0:0:0:
160,160,72553,1,8,0:0:0:0:
160,160,72604,1,0,0:0:0:0:
160,160,72654,1,8,0:0:0:0:
160,160,72704,1,8,0:0:0:0:
160,160,72754,1,0,0:0:0:0:
160,160,72805,1,0,0:0:0:0:
160,160,72855,1,8,0:0:0:0:
160,160,72905,1,0,0:0:0:0:
160,160,72955,1,8,0:0:0:0:
160,160,73006,1,0,0:0:0:0:
160,160,73056,1,8,0:0:0:0:
160,160,73106,1,8,0:0:0:0:
160,160,73156,1,0,0:0:0:0:
160,160,73207,1,8,0:0:0:0:
160,160,73258,1,0,0:0:0:0:
160,160,73308,1,0,0:0:0:0:
160,160,73358,1,8,0:0:0:0:
160,160,73409,1,0,0:0:0:0:
160,160,73459,1,8,0:0:0:0:
160,160,73509,1,8,0:0:0:0:
160,160,73559,1,0,0:0:0:0:
160,160,73610,1,0,0:0:0:0:
160,160,73660,1,8,0:0:0:0:
160,160,73710,1,0,0:0:0:0:
160,160,73760,1,8,0:0:0:0:
160,160,73811,1,0,0:0:0:0:
160,160,73861,1,8,0:0:0:0:
160,160,73911,1,8,0:0:0:0:
160,160,73961,1,0,0:0:0:0:
160,160,74012,1,8,0:0:0:0:
64,128,74063,1,0,0:0:0:0:
192,128,74164,1,0,0:0:0:0:
192,128,74214,1,0,0:0:0:0:
192,128,74265,1,8,0:0:0:0:
160,64,74365,1,8,0:0:0:0:
160,96,74466,1,0,0:0:0:0:
160,64,74516,1,0,0:0:0:0:
160,64,74567,1,0,0:0:0:0:
160,64,74617,1,0,0:0:0:0:
160,96,74667,1,8,0:0:0:0:
160,64,74717,1,8,0:0:0:0:
160,64,74768,1,8,0:0:0:0:
160,64,74818,1,8,0:0:0:0:
224,160,74869,1,0,0:0:0:0:
224,160,74969,1,0,0:0:0:0:
224,128,75020,1,0,0:0:0:0:
224,128,75070,1,0,0:0:0:0:
64,128,75171,1,8,0:0:0:0:
160,96,75271,1,0,0:0:0:0:
160,64,75321,1,0,0:0:0:0:
160,64,75372,1,0,0:0:0:0:
160,64,75422,1,0,0:0:0:0:
160,96,75472,1,8,0:0:0:0:
160,64,75522,1,8,0:0:0:0:
160,64,75573,1,0,0:0:0:0:
160,64,75623,1,8,0:0:0:0:
224,160,75674,1,0,0:0:0:0:
128,128,75775,1,0,0:0:0:0:
128,128,75825,1,0,0:0:0:0:
160,96,75875,1,8,0:0:0:0:
160,64,75925,1,8,0:0:0:0:
160,64,75976,1,8,0:0:0:0:
160,64,76026,1,8,0:0:0:0:
160,96,76076,1,0,0:0:0:0:
160,64,76126,1,0,0:0:0:0:
160,64,76177,1,0,0:0:0:0:
160,64,76227,1,0,0:0:0:0:
224,160,76278,1,8,0:0:0:0:
96,96,76328,1,0,0:0:0:0:
128,128,76379,1,8,0:0:0:0:
128,96,76429,1,8,0:0:0:0:
128,96,76479,1,0,0:0:0:0:
192,160,76580,1,8,0:0:0:0:
192,160,76681,1,0,0:0:0:0:
192,160,76731,1,0,0:0:0:0:
192,160,76781,1,0,0:0:0:0:
160,160,76832,1,0,0:0:0:0:
160,160,76882,1,8,0:0:0:0:
192,160,76983,1,0,0:0:0:0:
192,160,77083,1,8,0:0:0:0:
192,160,77134,1,8,0:0:0:0:
192,160,77184,1,8,0:0:0:0:
192,128,77285,5,0,0:0:0:0:
192,128,77386,1,0,0:0:0:0:
192,128,77436,1,0,0:0:0:0:
192,128,77487,1,8,0:0:0:0:
128,160,77536,1,0,0:0:0:0:
160,64,77587,1,8,0:0:0:0:
160,160,77637,1,8,0:0:0:0:
160,96,77688,1,0,0:0:0:0:
160,64,77738,1,0,0:0:0:0:
160,64,77789,1,0,0:0:0:0:
160,64,77839,1,0,0:0:0:0:
160,96,77889,1,8,0:0:0:0:
160,64,77939,1,8,0:0:0:0:
160,64,77990,1,8,0:0:0:0:
160,64,78040,1,8,0:0:0:0:
224,160,78091,1,0,0:0:0:0:
224,160,78191,1,0,0:0:0:0:
224,128,78242,1,0,0:0:0:0:
224,128,78292,1,0,0:0:0:0:
64,128,78393,1,8,0:0:0:0:
160,96,78493,1,0,0:0:0:0:
160,64,78543,1,0,0:0:0:0:
160,64,78594,1,0,0:0:0:0:
160,64,78644,1,0,0:0:0:0:
160,96,78694,1,8,0:0:0:0:
160,64,78744,1,8,0:0:0:0:
160,64,78795,1,0,0:0:0:0:
160,64,78845,1,8,0:0:0:0:
224,160,78896,1,0,0:0:0:0:
128,128,78997,1,0,0:0:0:0:
128,128,79047,1,0,0:0:0:0:
160,96,79097,1,8,0:0:0:0:
160,64,79147,1,8,0:0:0:0:
160,64,79198,1,8,0:0:0:0:
160,64,79248,1,8,0:0:0:0:
160,96,79298,1,0,0:0:0:0:
160,64,79348,1,0,0:0:0:0:
160,64,79399,1,0,0:0:0:0:
160,64,79449,1,0,0:0:0:0:
224,160,79500,1,8,0:0:0:0:
96,96,79550,1,0,0:0:0:0:
128,128,79601,1,8,0:0:0:0:
128,96,79651,1,8,0:0:0:0:
128,96,79701,1,0,0:0:0:0:
192,160,79802,1,8,0:0:0:0:
192,160,79903,1,0,0:0:0:0:
32,128,79953,1,8,0:0:0:0:
192,160,80003,1,0,0:0:0:0:
192,160,80053,1,0,0:0:0:0:
160,160,80104,1,8,0:0:0:0:
192,160,80205,1,0,0:0:0:0:
192,160,80305,1,8,0:0:0:0:
192,160,80356,1,8,0:0:0:0:
192,160,80406,1,8,0:0:0:0:
192,128,80506,5,0,0:0:0:0:
192,128,80607,1,0,0:0:0:0:
192,128,80657,1,0,0:0:0:0:
192,128,80708,1,8,0:0:0:0:
160,64,80808,1,8,0:0:0:0:
160,96,80909,1,0,0:0:0:0:
160,64,80959,1,0,0:0:0:0:
160,64,81010,1,0,0:0:0:0:
160,64,81060,1,0,0:0:0:0:
160,96,81110,1,8,0:0:0:0:
160,64,81160,1,8,0:0:0:0:
160,64,81211,1,8,0:0:0:0:
160,64,81261,1,8,0:0:0:0:
224,160,81312,1,0,0:0:0:0:
224,160,81412,1,0,0:0:0:0:
224,128,81463,1,0,0:0:0:0:
224,128,81513,1,0,0:0:0:0:
64,128,81614,1,8,0:0:0:0:
160,96,81714,1,0,0:0:0:0:
160,64,81764,1,0,0:0:0:0:
160,64,81815,1,8,0:0:0:0:
160,64,81865,1,0,0:0:0:0:
160,96,81915,1,8,0:0:0:0:
160,64,81965,1,8,0:0:0:0:
160,64,82016,1,0,0:0:0:0:
160,64,82066,1,8,0:0:0:0:
224,160,82117,1,0,0:0:0:0:
128,128,82218,1,0,0:0:0:0:
128,128,82268,1,0,0:0:0:0:
160,96,82318,1,8,0:0:0:0:
160,64,82368,1,0,0:0:0:0:
160,64,82419,1,8,0:0:0:0:
160,64,82469,1,8,0:0:0:0:
160,96,82519,1,8,0:0:0:0:
160,64,82569,1,8,0:0:0:0:
160,64,82620,1,0,0:0:0:0:
160,64,82670,1,0,0:0:0:0:
224,160,82721,1,8,0:0:0:0:
96,96,82771,1,0,0:0:0:0:
128,128,82822,1,8,0:0:0:0:
128,96,82872,1,8,0:0:0:0:
128,96,82922,1,0,0:0:0:0:
192,160,83023,1,8,0:0:0:0:
192,160,83124,1,0,0:0:0:0:
192,160,83174,1,0,0:0:0:0:
192,160,83224,1,0,0:0:0:0:
160,160,83275,1,0,0:0:0:0:
160,160,83325,1,8,0:0:0:0:
192,160,83426,1,0,0:0:0:0:
192,160,83526,1,8,0:0:0:0:
192,160,83577,1,8,0:0:0:0:
192,160,83627,1,8,0:0:0:0:
192,128,83728,5,0,0:0:0:0:
192,128,83829,1,0,0:0:0:0:
192,128,83879,1,0,0:0:0:0:
192,128,83930,1,8,0:0:0:0:
128,160,83979,1,8,0:0:0:0:
160,64,84030,1,8,0:0:0:0:
160,160,84080,1,8,0:0:0:0:
160,96,84131,1,0,0:0:0:0:
160,64,84232,1,0,0:0:0:0:
160,96,84332,1,8,0:0:0:0:
160,64,84382,1,8,0:0:0:0:
160,64,84433,1,8,0:0:0:0:
160,64,84483,1,8,0:0:0:0:
224,160,84534,1,0,0:0:0:0:
224,160,84634,1,0,0:0:0:0:
224,128,84685,1,0,0:0:0:0:
64,128,84735,1,8,0:0:0:0:
224,128,84836,1,0,0:0:0:0:
160,96,84936,1,8,0:0:0:0:
160,64,84986,1,0,0:0:0:0:
160,64,85037,1,0,0:0:0:0:
160,64,85087,1,0,0:0:0:0:
160,96,85137,1,8,0:0:0:0:
160,64,85187,1,8,0:0:0:0:
160,64,85238,1,0,0:0:0:0:
224,192,85338,1,12,0:0:0:0:
192,192,85439,1,12,0:0:0:0:
192,160,85540,1,12,0:0:0:0:
224,192,85741,1,12,0:0:0:0:
192,192,85842,1,12,0:0:0:0:
192,160,85943,1,12,0:0:0:0:
224,192,86144,1,12,0:0:0:0:
192,192,86245,1,12,0:0:0:0:
192,160,86346,1,12,0:0:0:0:
96,96,86446,1,12,0:0:0:0:
224,192,86546,1,12,0:0:0:0:
192,192,86647,1,12,0:0:0:0:
192,160,86748,1,12,0:0:0:0:
96,96,86848,1,12,0:0:0:0:
192,128,86949,5,0,0:0:0:0:
192,128,87050,1,0,0:0:0:0:
192,128,87100,1,0,0:0:0:0:
192,128,87151,1,8,0:0:0:0:
160,64,87251,1,8,0:0:0:0:
224,64,87301,1,8,0:0:0:0:
160,96,87352,1,0,0:0:0:0:
160,64,87402,1,0,0:0:0:0:
160,64,87453,1,0,0:0:0:0:
160,64,87503,1,0,0:0:0:0:
160,96,87553,1,8,0:0:0:0:
160,64,87603,1,8,0:0:0:0:
160,64,87654,1,8,0:0:0:0:
224,160,87755,1,0,0:0:0:0:
224,160,87855,1,0,0:0:0:0:
224,128,87906,1,0,0:0:0:0:
224,128,87956,1,0,0:0:0:0:
64,128,88057,1,8,0:0:0:0:
160,96,88157,1,0,0:0:0:0:
160,64,88207,1,0,0:0:0:0:
160,64,88258,1,0,0:0:0:0:
160,64,88308,1,0,0:0:0:0:
160,96,88358,1,8,0:0:0:0:
160,64,88408,1,0,0:0:0:0:
160,64,88459,1,8,0:0:0:0:
160,64,88509,1,8,0:0:0:0:
224,160,88560,1,0,0:0:0:0:
128,128,88661,1,0,0:0:0:0:
128,128,88711,1,0,0:0:0:0:
160,96,88761,1,8,0:0:0:0:
160,64,88811,1,8,0:0:0:0:
160,64,88862,1,8,0:0:0:0:
160,64,88912,1,8,0:0:0:0:
160,96,88962,1,0,0:0:0:0:
160,64,89012,1,0,0:0:0:0:
160,64,89063,1,0,0:0:0:0:
160,64,89113,1,0,0:0:0:0:
224,160,89164,1,8,0:0:0:0:
96,96,89214,1,0,0:0:0:0:
128,128,89265,1,8,0:0:0:0:
128,96,89315,1,8,0:0:0:0:
128,96,89365,1,0,0:0:0:0:
192,160,89466,1,8,0:0:0:0:
192,160,89567,1,0,0:0:0:0:
192,160,89617,1,0,0:0:0:0:
192,160,89667,1,0,0:0:0:0:
160,160,89718,1,0,0:0:0:0:
160,160,89768,1,8,0:0:0:0:
192,160,89869,1,0,0:0:0:0:
192,160,89969,1,8,0:0:0:0:
192,160,90020,1,8,0:0:0:0:
192,160,90070,1,8,0:0:0:0:
192,128,90171,5,0,0:0:0:0:
192,128,90272,1,0,0:0:0:0:
192,128,90322,1,0,0:0:0:0:
192,128,90373,1,8,0:0:0:0:
128,160,90422,1,0,0:0:0:0:
160,64,90473,1,8,0:0:0:0:
160,160,90523,1,8,0:0:0:0:
160,96,90574,1,0,0:0:0:0:
160,64,90624,1,8,0:0:0:0:
160,64,90675,1,0,0:0:0:0:
160,64,90725,1,0,0:0:0:0:
160,96,90775,1,8,0:0:0:0:
160,64,90825,1,8,0:0:0:0:
160,64,90876,1,8,0:0:0:0:
160,64,90926,1,8,0:0:0:0:
224,160,90977,1,0,0:0:0:0:
224,160,91077,1,0,0:0:0:0:
224,128,91128,1,0,0:0:0:0:
224,128,91178,1,0,0:0:0:0:
64,128,91279,1,8,0:0:0:0:
160,96,91379,1,0,0:0:0:0:
160,64,91429,1,0,0:0:0:0:
160,64,91480,1,0,0:0:0:0:
160,64,91530,1,0,0:0:0:0:
160,96,91580,1,8,0:0:0:0:
160,64,91630,1,8,0:0:0:0:
160,64,91681,1,0,0:0:0:0:
160,64,91731,1,8,0:0:0:0:
224,160,91782,1,0,0:0:0:0:
128,128,91883,1,0,0:0:0:0:
128,128,91933,1,0,0:0:0:0:
160,96,91983,1,8,0:0:0:0:
160,64,92033,1,8,0:0:0:0:
160,64,92084,1,8,0:0:0:0:
160,64,92134,1,8,0:0:0:0:
160,96,92184,1,0,0:0:0:0:
160,64,92234,1,0,0:0:0:0:
160,64,92285,1,0,0:0:0:0:
160,64,92335,1,0,0:0:0:0:
224,160,92386,1,8,0:0:0:0:
96,96,92436,1,0,0:0:0:0:
128,128,92487,1,8,0:0:0:0:
128,96,92537,1,8,0:0:0:0:
128,96,92587,1,0,0:0:0:0:
192,160,92688,1,8,0:0:0:0:
192,160,92789,1,0,0:0:0:0:
32,160,92838,1,8,0:0:0:0:
192,160,92889,1,0,0:0:0:0:
192,160,92939,1,0,0:0:0:0:
160,160,92990,1,8,0:0:0:0:
192,160,93091,1,0,0:0:0:0:
192,160,93191,1,8,0:0:0:0:
192,160,93242,1,8,0:0:0:0:
192,160,93292,1,8,0:0:0:0:
192,128,93392,5,0,0:0:0:0:
192,128,93493,1,0,0:0:0:0:
192,128,93543,1,0,0:0:0:0:
192,128,93594,1,8,0:0:0:0:
160,64,93694,1,8,0:0:0:0:
160,96,93795,1,0,0:0:0:0:
160,64,93845,1,0,0:0:0:0:
160,64,93896,1,0,0:0:0:0:
160,64,93946,1,0,0:0:0:0:
160,96,93996,1,8,0:0:0:0:
160,64,94046,1,8,0:0:0:0:
160,64,94097,1,8,0:0:0:0:
160,64,94147,1,8,0:0:0:0:
224,160,94198,1,0,0:0:0:0:
224,160,94298,1,0,0:0:0:0:
224,128,94349,1,0,0:0:0:0:
224,128,94399,1,0,0:0:0:0:
64,128,94500,1,8,0:0:0:0:
160,96,94600,1,0,0:0:0:0:
160,64,94650,1,0,0:0:0:0:
160,64,94701,1,8,0:0:0:0:
160,64,94751,1,0,0:0:0:0:
160,96,94801,1,8,0:0:0:0:
160,64,94851,1,8,0:0:0:0:
160,64,94902,1,0,0:0:0:0:
160,64,94952,1,8,0:0:0:0:
224,160,95003,1,0,0:0:0:0:
128,128,95104,1,0,0:0:0:0:
128,128,95154,1,0,0:0:0:0:
160,96,95204,1,8,0:0:0:0:
160,64,95254,1,0,0:0:0:0:
160,64,95305,1,8,0:0:0:0:
160,64,95355,1,8,0:0:0:0:
160,96,95405,1,8,0:0:0:0:
160,64,95455,1,8,0:0:0:0:
160,64,95506,1,0,0:0:0:0:
160,64,95556,1,0,0:0:0:0:
224,160,95607,1,8,0:0:0:0:
96,96,95657,1,0,0:0:0:0:
128,128,95708,1,8,0:0:0:0:
128,96,95758,1,8,0:0:0:0:
128,96,95808,1,0,0:0:0:0:
192,160,95909,1,8,0:0:0:0:
192,160,96010,1,0,0:0:0:0:
192,160,96060,1,0,0:0:0:0:
192,160,96110,1,0,0:0:0:0:
160,160,96161,1,0,0:0:0:0:
160,160,96211,1,8,0:0:0:0:
192,160,96312,1,0,0:0:0:0:
192,160,96412,1,8,0:0:0:0:
192,160,96463,1,8,0:0:0:0:
192,160,96513,1,8,0:0:0:0:
192,128,96614,5,0,0:0:0:0:
192,128,96715,1,0,0:0:0:0:
192,128,96765,1,0,0:0:0:0:
192,128,96816,1,8,0:0:0:0:
128,160,96865,1,8,0:0:0:0:
160,64,96916,1,8,0:0:0:0:
160,160,96966,1,8,0:0:0:0:
160,96,97017,1,0,0:0:0:0:
160,64,97118,1,0,0:0:0:0:
160,96,97218,1,8,0:0:0:0:
160,64,97268,1,8,0:0:0:0:
160,64,97319,1,8,0:0:0:0:
160,64,97369,1,8,0:0:0:0:
224,160,97420,1,0,0:0:0:0:
224,160,97520,1,0,0:0:0:0:
224,128,97571,1,0,0:0:0:0:
64,128,97621,1,8,0:0:0:0:
224,128,97722,1,0,0:0:0:0:
160,96,97822,1,8,0:0:0:0:
160,64,97872,1,0,0:0:0:0:
160,64,97923,1,0,0:0:0:0:
160,64,97973,1,0,0:0:0:0:
160,96,98023,1,8,0:0:0:0:
160,64,98073,1,8,0:0:0:0:
160,64,98124,1,0,0:0:0:0:
224,192,98224,1,12,0:0:0:0:
192,192,98325,1,12,0:0:0:0:
192,160,98426,1,12,0:0:0:0:
224,192,98627,1,12,0:0:0:0:
192,192,98728,1,12,0:0:0:0:
192,160,98829,1,12,0:0:0:0:
224,192,99030,1,12,0:0:0:0:
192,192,99131,1,12,0:0:0:0:
192,160,99232,1,12,0:0:0:0:
96,96,99332,1,12,0:0:0:0:
224,192,99432,1,12,0:0:0:0:
192,192,99533,1,12,0:0:0:0:
192,160,99634,1,12,0:0:0:0:
96,96,99734,1,12,0:0:0:0:
224,128,99835,1,0,0:0:0:0:
224,128,99885,1,0,0:0:0:0:
224,128,99936,1,0,0:0:0:0:
224,128,99986,1,0,0:0:0:0:
224,128,100036,1,0,0:0:0:0:
224,128,100087,1,0,0:0:0:0:
224,128,100137,1,0,0:0:0:0:
224,128,100187,1,0,0:0:0:0:
224,128,100238,1,8,0:0:0:0:
160,96,100338,1,0,0:0:0:0:
192,96,100439,1,8,0:0:0:0:
192,96,100489,1,8,0:0:0:0:
160,96,100540,1,8,0:0:0:0:
224,128,100640,1,0,0:0:0:0:
224,128,100690,1,0,0:0:0:0:
224,128,100741,1,0,0:0:0:0:
224,128,100791,1,0,0:0:0:0:
224,128,100841,1,8,0:0:0:0:
224,128,100892,1,8,0:0:0:0:
224,128,100942,1,0,0:0:0:0:
224,128,100992,1,0,0:0:0:0:
224,128,101043,1,8,0:0:0:0:
160,96,101143,1,0,0:0:0:0:
192,96,101244,1,8,0:0:0:0:
192,96,101294,1,8,0:0:0:0:
160,96,101345,1,0,0:0:0:0:
160,64,101446,1,8,0:0:0:0:
96,64,103057,1,0,0:0:0:0:
160,96,103158,1,8,0:0:0:0:
160,96,103258,1,0,0:0:0:0:
128,96,103309,1,8,0:0:0:0:
160,96,103359,1,8,0:0:0:0:
128,96,103409,1,8,0:0:0:0:
160,96,103460,1,0,0:0:0:0:
160,96,103560,1,0,0:0:0:0:
192,160,103611,1,0,0:0:0:0:
160,96,103661,1,8,0:0:0:0:
192,128,103711,1,0,0:0:0:0:
256,224,103762,1,8,0:0:0:0:
192,160,103812,1,8,0:0:0:0:
160,96,103862,1,0,0:0:0:0:
160,96,103963,1,8,0:0:0:0:
160,96,104063,1,0,0:0:0:0:
192,64,104114,1,0,0:0:0:0:
160,96,104164,1,8,0:0:0:0:
192,64,104215,1,8,0:0:0:0:
160,96,104265,1,0,0:0:0:0:
160,96,104365,1,0,0:0:0:0:
160,64,104416,1,0,0:0:0:0:
160,96,104466,1,8,0:0:0:0:
160,64,104517,1,8,0:0:0:0:
256,224,104567,1,8,0:0:0:0:
160,64,104617,1,8,0:0:0:0:
160,96,104668,1,0,0:0:0:0:
160,96,104769,1,8,0:0:0:0:
160,96,104869,1,0,0:0:0:0:
160,96,104919,1,0,0:0:0:0:
160,96,104970,1,0,0:0:0:0:
160,96,105020,1,0,0:0:0:0:
160,96,105071,1,8,0:0:0:0:
160,96,105171,1,0,0:0:0:0:
160,96,105272,1,8,0:0:0:0:
160,96,105322,1,0,0:0:0:0:
160,64,105372,1,8,0:0:0:0:
256,224,105423,1,8,0:0:0:0:
0,160,105473,1,0,0:0:0:0:
160,96,105574,1,8,0:0:0:0:
160,96,105674,1,0,0:0:0:0:
160,96,105725,1,0,0:0:0:0:
160,96,105775,1,8,0:0:0:0:
160,96,105825,1,8,0:0:0:0:
160,96,105876,1,8,0:0:0:0:
160,96,105976,1,0,0:0:0:0:
160,96,106077,1,8,0:0:0:0:
192,32,106127,1,8,0:0:0:0:
160,96,106178,1,8,0:0:0:0:
256,224,106278,1,0,0:0:0:0:
160,96,106379,1,8,0:0:0:0:
160,96,106479,1,0,0:0:0:0:
160,96,106530,1,8,0:0:0:0:
160,96,106580,1,8,0:0:0:0:
160,96,106631,1,8,0:0:0:0:
160,96,106681,1,0,0:0:0:0:
160,96,106781,1,0,0:0:0:0:
160,96,106882,1,8,0:0:0:0:
160,96,106933,1,0,0:0:0:0:
160,96,106983,1,8,0:0:0:0:
160,64,107033,1,8,0:0:0:0:
256,224,107084,1,0,0:0:0:0:
160,96,107185,1,0,0:0:0:0:
160,96,107235,1,0,0:0:0:0:
160,96,107285,1,8,0:0:0:0:
160,96,107386,1,0,0:0:0:0:
160,96,107487,1,8,0:0:0:0:
160,96,107537,1,0,0:0:0:0:
160,96,107587,1,0,0:0:0:0:
192,32,107637,1,0,0:0:0:0:
160,96,107688,1,8,0:0:0:0:
160,96,107738,1,8,0:0:0:0:
160,96,107789,1,8,0:0:0:0:
160,96,107839,1,8,0:0:0:0:
256,224,107889,1,0,0:0:0:0:
192,32,107990,1,0,0:0:0:0:
160,96,108090,1,8,0:0:0:0:
192,64,108141,1,0,0:0:0:0:
160,96,108191,1,8,0:0:0:0:
160,96,108241,1,8,0:0:0:0:
192,64,108292,1,0,0:0:0:0:
160,96,108392,1,0,0:0:0:0:
160,96,108493,1,8,0:0:0:0:
192,96,108543,1,0,0:0:0:0:
192,96,108594,1,8,0:0:0:0:
256,224,108694,1,0,0:0:0:0:
160,96,108795,1,8,0:0:0:0:
160,96,108895,1,0,0:0:0:0:
160,96,108963,1,0,0:0:0:0:
96,128,109030,1,0,0:0:0:0:
160,96,109097,1,8,0:0:0:0:
160,96,109197,1,0,0:0:0:0:
160,96,109298,1,8,0:0:0:0:
128,128,109349,1,0,0:0:0:0:
160,96,109399,1,8,0:0:0:0:
160,128,109449,1,8,0:0:0:0:
96,64,109500,1,0,0:0:0:0:
160,96,109601,1,8,0:0:0:0:
160,96,109701,1,0,0:0:0:0:
128,96,109752,1,8,0:0:0:0:
160,96,109802,1,8,0:0:0:0:
128,96,109852,1,8,0:0:0:0:
160,96,109903,1,0,0:0:0:0:
160,96,110003,1,0,0:0:0:0:
192,160,110054,1,0,0:0:0:0:
160,96,110104,1,8,0:0:0:0:
192,128,110154,1,0,0:0:0:0:
256,224,110205,1,8,0:0:0:0:
192,160,110255,1,8,0:0:0:0:
160,96,110305,1,0,0:0:0:0:
160,96,110406,1,8,0:0:0:0:
160,96,110506,1,0,0:0:0:0:
192,64,110557,1,0,0:0:0:0:
160,96,110607,1,8,0:0:0:0:
192,64,110658,1,8,0:0:0:0:
160,96,110708,1,0,0:0:0:0:
160,96,110808,1,0,0:0:0:0:
160,64,110859,1,0,0:0:0:0:
160,96,110909,1,8,0:0:0:0:
160,64,110960,1,8,0:0:0:0:
256,224,111010,1,8,0:0:0:0:
160,64,111060,1,8,0:0:0:0:
160,96,111111,1,0,0:0:0:0:
160,96,111212,1,8,0:0:0:0:
160,96,111312,1,0,0:0:0:0:
160,96,111362,1,0,0:0:0:0:
160,96,111413,1,8,0:0:0:0:
160,96,111464,1,0,0:0:0:0:
160,96,111514,1,0,0:0:0:0:
160,96,111614,1,0,0:0:0:0:
160,96,111715,1,8,0:0:0:0:
160,96,111765,1,0,0:0:0:0:
160,64,111815,1,8,0:0:0:0:
256,224,111866,1,8,0:0:0:0:
0,160,111916,1,0,0:0:0:0:
160,96,112017,1,8,0:0:0:0:
160,96,112117,1,0,0:0:0:0:
160,96,112168,1,0,0:0:0:0:
160,96,112218,1,8,0:0:0:0:
160,96,112268,1,8,0:0:0:0:
160,96,112319,1,8,0:0:0:0:
256,96,112369,1,8,0:0:0:0:
160,96,112419,1,0,0:0:0:0:
160,96,112520,1,8,0:0:0:0:
160,96,112621,1,8,0:0:0:0:
192,64,112671,1,8,0:0:0:0:
256,224,112721,1,0,0:0:0:0:
160,96,112822,1,8,0:0:0:0:
160,96,112922,1,0,0:0:0:0:
160,96,112973,1,8,0:0:0:0:
160,96,113023,1,8,0:0:0:0:
160,96,113074,1,8,0:0:0:0:
160,96,113124,1,0,0:0:0:0:
160,96,113224,1,0,0:0:0:0:
160,96,113325,1,8,0:0:0:0:
160,96,113376,1,0,0:0:0:0:
160,96,113426,1,8,0:0:0:0:
160,64,113476,1,8,0:0:0:0:
256,224,113527,1,0,0:0:0:0:
160,96,113628,1,8,0:0:0:0:
160,96,113678,1,0,0:0:0:0:
160,96,113728,1,8,0:0:0:0:
160,96,113829,1,0,0:0:0:0:
160,96,113930,1,8,0:0:0:0:
160,96,113980,1,0,0:0:0:0:
160,96,114030,1,0,0:0:0:0:
192,32,114080,1,0,0:0:0:0:
160,96,114131,1,8,0:0:0:0:
160,96,114232,1,0,0:0:0:0:
256,224,114332,1,0,0:0:0:0:
192,32,114433,1,8,0:0:0:0:
160,96,114483,1,0,0:0:0:0:
160,96,114533,1,8,0:0:0:0:
160,96,114584,1,8,0:0:0:0:
192,64,114634,1,0,0:0:0:0:
192,64,114684,1,0,0:0:0:0:
160,96,114735,1,8,0:0:0:0:
160,96,114835,1,0,0:0:0:0:
160,96,114886,1,0,0:0:0:0:
160,96,114936,1,8,0:0:0:0:
192,96,114986,5,8,0:0:0:0:
192,96,115037,1,8,0:0:0:0:
256,224,115137,1,0,0:0:0:0:
160,96,115188,1,0,0:0:0:0:
160,96,115238,1,8,0:0:0:0:
224,96,115288,1,0,0:0:0:0:
160,96,115339,1,8,0:0:0:0:
192,128,115389,1,8,0:0:0:0:
96,128,115439,1,0,0:0:0:0:
192,128,115490,1,0,0:0:0:0:
160,96,115540,1,8,0:0:0:0:
224,96,115590,1,0,0:0:0:0:
160,96,115640,1,8,0:0:0:0:
224,96,115691,1,0,0:0:0:0:
160,96,115741,1,8,0:0:0:0:
224,96,115792,1,8,0:0:0:0:
160,96,115842,1,8,0:0:0:0:
224,96,115892,1,8,0:0:0:0:
96,160,115943,1,0,0:0:0:0:
256,224,116043,1,0,0:0:0:0:
256,224,116144,1,8,0:0:0:0:
256,224,116194,1,8,0:0:0:0:
256,224,116244,1,8,0:0:0:0:
256,224,116295,1,8,0:0:0:0:
256,224,116345,1,0,0:0:0:0:
256,224,116446,1,8,0:0:0:0:
256,224,116546,1,0,0:0:0:0:
256,224,116597,1,8,0:0:0:0:
256,224,116647,1,8,0:0:0:0:
256,192,116697,1,8,0:0:0:0:
256,224,116748,1,0,0:0:0:0:
256,192,116848,1,8,0:0:0:0:
256,192,116899,1,8,0:0:0:0:
256,192,116949,1,0,0:0:0:0:
256,192,116999,1,0,0:0:0:0:
256,192,117050,1,0,0:0:0:0:
256,224,117150,1,12,0:0:0:0:
256,192,117251,1,12,0:0:0:0:
256,192,117352,1,12,0:0:0:0:
256,192,117453,1,12,0:0:0:0:
256,224,117654,1,12,0:0:0:0:
256,224,117755,1,4,0:0:0:0:
256,224,117855,1,4,0:0:0:0:
256,224,117956,1,12,0:0:0:0:
256,224,118057,1,12,0:0:0:0:
256,224,118157,1,12,0:0:0:0:
256,192,118258,1,12,0:0:0:0:
256,192,118359,1,4,0:0:0:0:
