osu file format v14

[General]
AudioFilename: audio.mp3
AudioLeadIn: 0
PreviewTime: 72453
Countdown: 0
SampleSet: Soft
StackLeniency: 0.7
Mode: 3
LetterboxInBreaks: 0
SpecialStyle: 0
WidescreenStoryboard: 0

[Editor]
Bookmarks: 4802,11245,17688,20909,27352,33795,46681,53124,59567,66010,70842,72453,74063,80506,85339,86949,93392,98225,99835,103057,109500,114332,115943,119164
DistanceSpacing: 1.1
BeatDivisor: 8
GridSize: 16
TimelineZoom: 2

[Metadata]
Title:ETERNAL DRAIN
TitleUnicode:ETERNAL DRAIN
Artist:Colorful Sounds Port
ArtistUnicode:カラフル・サウンズ・ポート
Creator:Wh1teh
Version:Hyper
Source:BMS
Tags:DELAYMASTER+ DELAYMASTER DELAY MASTER PLUS ANIME POP BOF2011 THE BOF OF FIGHTERS 2011
BeatmapID:1002503
BeatmapSetID:468353

[Difficulty]
HPDrainRate:7.5
CircleSize:4
OverallDifficulty:7.5
ApproachRate:5
SliderMultiplier:1.4
SliderTickRate:1

[Events]
//Background and Video events
0,0,"eternal_title_v2.jpg",0,0
//Break Periods
//Storyboard Layer 0 (Background)
//Storyboard Layer 1 (Fail)
//Storyboard Layer 2 (Pass)
//Storyboard Layer 3 (Foreground)
//Storyboard Sound Samples

[TimingPoints]
-30,402.684563758389,4,2,1,50,1,0
11245,-100,4,2,1,60,0,0
17688,-100,4,2,1,70,0,0
19298,-100,4,2,1,45,0,0
20104,-100,4,2,1,40,0,0
20204,-100,4,2,1,45,0,0
20305,-100,4,2,1,50,0,0
20406,-100,4,2,1,55,0,0
20506,-100,4,2,1,60,0,0
20607,-100,4,2,1,65,0,0
20708,-100,4,2,1,70,0,0
20808,-100,4,2,1,75,0,0
20909,-100,4,2,1,80,0,0
33795,-100,4,2,1,60,0,0
51513,-100,4,2,1,65,0,0
51916,-100,4,2,1,70,0,0
52318,-100,4,2,1,75,0,0
53124,-100,4,2,1,80,0,0
59567,-100,4,2,1,70,0,0
74063,-100,4,2,1,80,0,1
85339,-100,4,2,1,60,0,1
86949,-100,4,2,1,80,0,1
98225,-100,4,2,1,60,0,1
99835,-100,4,2,1,70,0,1
101446,-100,4,2,1,60,0,0
101547,-100,4,2,1,30,0,0
101647,-100,4,2,1,35,0,0
101849,-100,4,2,1,40,0,0
102050,-100,4,2,1,45,0,0
102251,-100,4,2,1,50,0,0
102453,-100,4,2,1,55,0,0
102654,-100,4,2,1,60,0,0
102855,-100,4,2,1,65,0,0
103057,-100,4,2,1,70,0,0
117151,-100,4,2,1,80,0,0

[HitObjects]
64,192,4802,5,0,0:0:0:0:
192,192,4802,1,2,3:0:0:0:
320,192,4802,1,4,3:0:0:0:
448,192,4902,1,0,0:0:0:0:
192,192,5003,1,0,0:0:0:0:
320,192,5104,1,0,0:0:0:0:
448,192,5204,1,0,0:0:0:0:
320,192,5305,1,0,0:0:0:0:
192,192,5406,1,0,0:0:0:0:
64,192,5506,1,0,0:0:0:0:
448,192,5607,1,0,0:0:0:0:
320,192,5607,1,0,0:0:0:0:
192,192,5708,1,0,0:0:0:0:
64,192,5808,1,0,0:0:0:0:
320,192,5909,1,0,0:0:0:0:
192,192,6010,1,0,0:0:0:0:
320,192,6110,1,0,0:0:0:0:
448,192,6211,1,0,0:0:0:0:
192,192,6312,1,0,0:0:0:0:
320,192,6412,1,0,0:0:0:0:
64,192,6412,1,0,0:0:0:0:
448,192,6513,1,0,0:0:0:0:
192,192,6614,1,0,0:0:0:0:
320,192,6714,1,0,0:0:0:0:
192,192,6815,1,0,0:0:0:0:
64,192,6916,1,0,0:0:0:0:
320,192,7016,1,0,0:0:0:0:
192,192,7117,1,0,0:0:0:0:
448,192,7218,1,0,0:0:0:0:
64,192,7218,1,0,0:0:0:0:
320,192,7318,1,0,0:0:0:0:
192,192,7419,1,0,0:0:0:0:
64,192,7520,1,0,0:0:0:0:
192,192,7621,1,0,0:0:0:0:
320,192,7721,1,0,0:0:0:0:
448,192,7822,1,0,0:0:0:0:
192,192,7923,1,0,0:0:0:0:
64,192,8023,1,0,0:0:0:0:
320,192,8023,1,0,0:0:0:0:
448,192,8124,1,0,0:0:0:0:
192,192,8225,1,0,0:0:0:0:
320,192,8325,1,0,0:0:0:0:
64,192,8426,1,0,0:0:0:0:
192,192,8527,1,0,0:0:0:0:
320,192,8627,1,0,0:0:0:0:
448,192,8728,1,0,0:0:0:0:
192,192,8829,1,0,0:0:0:0:
64,192,8829,1,0,0:0:0:0:
320,192,8929,1,0,0:0:0:0:
192,192,9030,1,0,0:0:0:0:
64,192,9131,1,0,0:0:0:0:
320,192,9231,1,0,0:0:0:0:
448,192,9332,1,0,0:0:0:0:
192,192,9433,1,0,0:0:0:0:
320,192,9533,1,0,0:0:0:0:
448,192,9634,1,0,0:0:0:0:
64,192,9634,1,0,0:0:0:0:
192,192,9735,1,0,0:0:0:0:
320,192,9835,1,0,0:0:0:0:
448,192,9936,1,0,0:0:0:0:
64,192,10037,1,0,0:0:0:0:
192,192,10137,1,0,0:0:0:0:
320,192,10238,1,0,0:0:0:0:
448,192,10238,1,0,0:0:0:0:
64,192,10339,1,0,0:0:0:0:
192,192,10339,1,0,0:0:0:0:
448,192,10439,1,0,0:0:0:0:
320,192,10439,1,0,0:0:0:0:
192,192,10540,1,0,0:0:0:0:
64,192,10641,1,0,0:0:0:0:
320,192,10741,1,0,0:0:0:0:
192,192,10842,1,0,0:0:0:0:
448,192,10943,1,0,0:0:0:0:
320,192,11043,1,0,0:0:0:0:
192,192,11144,1,0,0:0:0:0:
448,192,11245,5,2,3:0:0:0:
64,192,11245,1,0,0:0:0:0:
320,192,11245,1,4,3:0:0:0:
192,192,11345,1,0,0:0:0:0:
448,192,11446,1,0,3:0:0:0:
320,192,11547,1,0,0:0:0:0:
64,192,11647,1,0,0:0:0:0:
192,192,11647,1,8,3:0:0:0:
320,192,11748,1,0,0:0:0:0:
448,192,11849,1,2,0:0:0:0:
192,192,11949,1,8,3:0:0:0:
320,192,12050,1,2,0:0:0:0:
192,192,12151,1,8,3:0:0:0:
64,192,12251,1,0,3:0:0:0:
448,192,12251,1,2,0:0:0:0:
320,192,12352,1,0,0:0:0:0:
64,192,12453,1,0,0:0:0:0:
192,192,12453,1,8,3:0:0:0:
448,192,12553,1,0,0:0:0:0:
320,192,12654,1,2,0:0:0:0:
192,192,12755,1,8,3:0:0:0:
320,192,12855,1,0,3:0:0:0:
64,192,12855,1,0,0:0:0:0:
448,192,12956,1,0,0:0:0:0:
192,192,13057,1,0,3:0:0:0:
320,192,13157,1,0,0:0:0:0:
64,192,13258,1,0,0:0:0:0:
448,192,13258,1,8,3:0:0:0:
192,192,13359,1,0,0:0:0:0:
320,192,13459,1,2,0:0:0:0:
192,192,13560,1,8,3:0:0:0:
448,192,13661,1,2,0:0:0:0:
320,192,13761,1,8,3:0:0:0:
192,192,13862,1,0,3:0:0:0:
64,192,13862,1,2,0:0:0:0:
320,192,13963,1,0,0:0:0:0:
448,192,14063,1,8,3:0:0:0:
64,192,14063,1,0,0:0:0:0:
192,192,14164,1,0,0:0:0:0:
320,192,14265,1,2,0:0:0:0:
64,192,14365,1,8,3:0:0:0:
192,192,14466,1,0,3:0:0:0:
448,192,14466,1,0,0:0:0:0:
320,192,14567,1,0,0:0:0:0:
64,192,14667,1,0,3:0:0:0:
192,192,14768,1,0,0:0:0:0:
320,192,14869,1,8,3:0:0:0:
448,192,14869,1,0,0:0:0:0:
64,192,14969,1,0,0:0:0:0:
192,192,15070,1,2,0:0:0:0:
320,192,15171,1,8,3:0:0:0:
448,192,15272,1,2,0:0:0:0:
320,192,15372,1,8,3:0:0:0:
192,192,15473,1,0,3:0:0:0:
64,192,15473,1,2,0:0:0:0:
448,192,15574,1,0,0:0:0:0:
320,192,15674,1,0,0:0:0:0:
64,192,15674,1,8,3:0:0:0:
192,192,15775,1,0,0:0:0:0:
320,192,15876,1,2,0:0:0:0:
448,192,15876,1,0,0:0:0:0:
192,192,15976,1,0,0:0:0:0:
64,192,15976,1,8,3:0:0:0:
448,192,16077,1,0,0:0:0:0:
320,192,16077,1,0,3:0:0:0:
64,192,16178,1,0,0:0:0:0:
192,192,16278,1,0,3:0:0:0:
320,192,16379,1,0,0:0:0:0:
448,192,16480,1,8,3:0:0:0:
64,192,16480,1,0,0:0:0:0:
192,192,16580,1,0,0:0:0:0:
320,192,16681,1,2,0:0:0:0:
192,192,16782,1,8,3:0:0:0:
448,192,16882,1,2,0:0:0:0:
320,192,16983,1,8,3:0:0:0:
192,192,17084,1,0,3:0:0:0:
64,192,17084,1,2,0:0:0:0:
320,192,17184,1,0,0:0:0:0:
448,192,17285,1,8,3:0:0:0:
64,192,17285,1,0,0:0:0:0:
192,192,17386,1,0,0:0:0:0:
320,192,17486,1,8,3:0:0:0:
192,192,17587,1,8,3:0:0:0:
64,192,17688,1,2,3:0:0:0:
448,192,17688,1,4,3:0:0:0:
320,192,17688,1,0,3:0:0:0:
320,192,17990,1,0,3:0:0:0:
64,192,17990,1,0,0:0:0:0:
448,192,18292,1,0,0:0:0:0:
320,192,18292,1,0,3:0:0:0:
64,192,18493,1,0,3:0:0:0:
448,192,18493,1,0,0:0:0:0:
192,192,18493,1,4,3:0:0:0:
64,192,18795,1,0,3:0:0:0:
320,192,18795,1,0,0:0:0:0:
448,192,19097,1,0,3:0:0:0:
320,192,19097,1,0,0:0:0:0:
64,192,19298,1,8,3:0:0:0:
192,192,19349,1,8,3:0:0:0:
320,192,19399,1,8,3:0:0:0:
448,192,19449,1,8,3:0:0:0:
64,192,19500,1,8,3:0:0:0:
448,192,19701,1,8,3:0:0:0:
320,192,19751,1,8,3:0:0:0:
192,192,19802,1,8,3:0:0:0:
64,192,19852,1,8,3:0:0:0:
448,192,19902,1,8,3:0:0:0:
64,192,20104,1,8,3:0:0:0:
192,192,20154,1,8,3:0:0:0:
320,192,20204,1,8,3:0:0:0:
448,192,20255,1,8,3:0:0:0:
64,192,20305,1,8,3:0:0:0:
192,192,20355,1,8,3:0:0:0:
320,192,20406,1,8,3:0:0:0:
448,192,20456,1,8,3:0:0:0:
64,192,20506,1,8,3:0:0:0:
192,192,20557,1,8,3:0:0:0:
320,192,20607,1,8,3:0:0:0:
448,192,20657,1,8,3:0:0:0:
64,192,20708,1,8,3:0:0:0:
192,192,20758,1,8,3:0:0:0:
320,192,20808,1,8,3:0:0:0:
192,192,20909,1,2,3:0:0:0:
448,192,20909,1,4,3:0:0:0:
64,192,21010,1,0,0:0:0:0:
320,192,21110,1,2,0:0:0:0:
448,192,21211,1,0,0:0:0:0:
192,192,21312,1,0,3:0:0:0:
64,192,21312,1,8,3:0:0:0:
320,192,21412,1,0,0:0:0:0:
448,192,21513,1,2,0:0:0:0:
192,192,21614,1,0,0:0:0:0:
448,192,21714,1,0,3:0:0:0:
320,192,21714,1,0,0:0:0:0:
64,192,21815,1,0,0:0:0:0:
320,192,21916,1,2,0:0:0:0:
192,192,22016,1,0,0:0:0:0:
448,192,22117,1,0,3:0:0:0:
64,192,22117,1,8,3:0:0:0:
320,192,22218,1,0,0:0:0:0:
192,192,22318,1,2,0:0:0:0:
448,192,22419,1,0,0:0:0:0:
192,192,22520,1,0,3:0:0:0:
64,192,22520,1,0,0:0:0:0:
320,192,22621,1,0,0:0:0:0:
64,192,22721,1,2,0:0:0:0:
192,192,22822,1,0,0:0:0:0:
320,192,22923,1,0,3:0:0:0:
448,192,22923,1,8,3:0:0:0:
192,192,23023,1,0,0:0:0:0:
64,192,23124,1,2,0:0:0:0:
320,192,23225,1,0,0:0:0:0:
64,192,23325,1,0,3:0:0:0:
448,192,23325,1,0,0:0:0:0:
320,192,23426,1,0,0:0:0:0:
192,192,23527,1,2,0:0:0:0:
448,192,23627,1,0,0:0:0:0:
64,192,23728,1,8,3:0:0:0:
320,192,23728,1,0,3:0:0:0:
192,192,23829,1,0,0:0:0:0:
320,192,23929,1,2,0:0:0:0:
448,192,24030,1,0,0:0:0:0:
64,192,24131,1,0,0:0:0:0:
192,192,24131,1,0,3:0:0:0:
320,192,24231,1,0,0:0:0:0:
448,192,24332,1,2,0:0:0:0:
192,192,24433,1,0,0:0:0:0:
64,192,24533,1,8,3:0:0:0:
448,192,24533,1,0,3:0:0:0:
320,192,24634,1,0,0:0:0:0:
192,192,24735,1,2,0:0:0:0:
64,192,24835,1,0,0:0:0:0:
448,192,24936,1,0,3:0:0:0:
192,192,24936,1,0,0:0:0:0:
320,192,25037,1,0,0:0:0:0:
64,192,25137,1,2,0:0:0:0:
192,192,25238,1,0,0:0:0:0:
320,192,25339,1,0,3:0:0:0:
448,192,25339,1,8,3:0:0:0:
192,192,25439,1,0,0:0:0:0:
64,192,25540,1,2,0:0:0:0:
320,192,25641,1,0,0:0:0:0:
192,192,25741,1,0,3:0:0:0:
448,192,25741,1,0,0:0:0:0:
64,192,25842,1,0,0:0:0:0:
448,192,25943,1,2,0:0:0:0:
320,192,26043,1,0,0:0:0:0:
64,192,26144,1,8,3:0:0:0:
192,192,26144,1,0,3:0:0:0:
320,192,26245,1,2,0:0:0:0:
448,192,26345,1,2,0:0:0:0:
64,192,26446,1,8,3:0:0:0:
192,192,26446,1,0,0:0:0:0:
320,192,26547,1,0,3:0:0:0:
448,192,26547,1,0,0:0:0:0:
64,192,26647,1,8,3:0:0:0:
192,192,26647,1,0,0:0:0:0:
448,192,26748,1,0,3:0:0:0:
320,192,26815,1,0,3:0:0:0:
192,192,26882,1,0,3:0:0:0:
448,192,26949,1,4,3:0:0:0:
64,192,26949,1,0,0:0:0:0:
320,192,27050,1,2,0:0:0:0:
192,192,27151,1,8,3:0:0:0:
64,192,27151,1,0,0:0:0:0:
448,192,27251,1,0,0:0:0:0:
320,192,27251,1,8,3:0:0:0:
192,192,27352,1,4,3:0:0:0:
64,192,27352,1,2,3:0:0:0:
320,192,27453,1,0,0:0:0:0:
448,192,27553,1,2,0:0:0:0:
192,192,27654,1,0,0:0:0:0:
320,192,27755,1,0,3:0:0:0:
64,192,27755,1,8,3:0:0:0:
448,192,27855,1,0,0:0:0:0:
192,192,27956,1,2,0:0:0:0:
320,192,28057,1,0,0:0:0:0:
192,192,28157,1,0,0:0:0:0:
448,192,28157,1,0,3:0:0:0:
64,192,28258,1,0,0:0:0:0:
448,192,28359,1,2,0:0:0:0:
320,192,28459,1,0,0:0:0:0:
192,192,28560,1,0,3:0:0:0:
64,192,28560,1,8,3:0:0:0:
320,192,28661,1,0,0:0:0:0:
448,192,28761,1,2,0:0:0:0:
64,192,28862,1,0,0:0:0:0:
192,192,28963,1,0,3:0:0:0:
448,192,28963,1,0,0:0:0:0:
320,192,29063,1,0,0:0:0:0:
64,192,29164,1,2,0:0:0:0:
192,192,29265,1,0,0:0:0:0:
320,192,29365,1,0,3:0:0:0:
448,192,29365,1,8,3:0:0:0:
64,192,29466,1,0,0:0:0:0:
320,192,29567,1,2,0:0:0:0:
192,192,29667,1,0,0:0:0:0:
64,192,29768,1,0,3:0:0:0:
448,192,29768,1,0,0:0:0:0:
320,192,29869,1,0,0:0:0:0:
192,192,29969,1,2,0:0:0:0:
320,192,30070,1,0,0:0:0:0:
448,192,30171,1,0,3:0:0:0:
64,192,30171,1,8,3:0:0:0:
192,192,30272,1,0,0:0:0:0:
320,192,30372,1,2,0:0:0:0:
64,192,30473,1,0,0:0:0:0:
192,192,30574,1,0,0:0:0:0:
448,192,30574,1,4,3:0:0:0:
320,192,30674,1,0,0:0:0:0:
64,192,30775,1,0,3:0:0:0:
448,192,30842,1,0,3:0:0:0:
320,192,30909,1,0,3:0:0:0:
192,192,30976,1,4,3:0:0:0:
64,192,30976,1,8,3:0:0:0:
448,192,31077,1,0,3:0:0:0:
192,192,31178,1,0,3:0:0:0:
320,192,31278,1,0,3:0:0:0:
192,192,31379,1,4,3:0:0:0:
64,192,31379,1,0,0:0:0:0:
448,192,31480,1,0,3:0:0:0:
64,192,31580,1,0,3:0:0:0:
320,192,31681,1,0,3:0:0:0:
64,192,31782,1,0,3:0:0:0:
192,192,31782,1,8,3:0:0:0:
448,192,31882,1,0,3:0:0:0:
320,192,31983,1,0,3:0:0:0:
192,192,32084,1,0,3:0:0:0:
320,192,32184,1,8,3:0:0:0:
448,192,32184,1,4,3:0:0:0:
64,192,32285,1,8,3:0:0:0:
192,192,32285,1,0,0:0:0:0:
448,192,32386,1,2,3:0:0:0:
320,192,32386,1,8,3:0:0:0:
192,192,32587,1,8,3:0:0:0:
64,192,32587,1,4,3:0:0:0:
448,192,32688,1,8,3:0:0:0:
320,192,32688,1,0,0:0:0:0:
192,192,32788,1,8,3:0:0:0:
64,192,32788,1,2,3:0:0:0:
320,192,32990,1,6,3:0:0:0:
448,192,32990,1,8,3:0:0:0:
64,192,33090,1,8,3:0:0:0:
192,192,33090,1,0,0:0:0:0:
320,192,33191,1,2,3:0:0:0:
448,192,33191,1,8,3:0:0:0:
192,192,33292,1,0,0:0:0:0:
64,192,33292,1,8,3:0:0:0:
320,192,33392,1,10,3:0:0:0:
448,192,33392,1,0,3:0:0:0:
192,192,33493,1,8,3:0:0:0:
64,192,33493,1,0,0:0:0:0:
320,192,33594,1,8,3:0:0:0:
448,192,33594,1,2,3:0:0:0:
64,192,33694,1,0,0:0:0:0:
192,192,33694,1,8,3:0:0:0:
448,192,33795,1,4,3:0:0:0:
320,192,33795,1,2,0:0:0:0:
192,192,33996,1,2,0:0:0:0:
320,192,34097,1,0,0:0:0:0:
448,192,34198,1,8,3:0:0:0:
64,192,34198,1,0,3:0:0:0:
320,192,34399,1,2,0:0:0:0:
448,192,34500,1,0,0:0:0:0:
192,192,34600,1,0,0:0:0:0:
64,192,34600,1,0,3:0:0:0:
320,192,34802,1,2,0:0:0:0:
192,192,34902,1,0,0:0:0:0:
448,192,35003,1,8,3:0:0:0:
64,192,35003,1,0,3:0:0:0:
192,192,35204,1,2,0:0:0:0:
64,192,35305,1,0,0:0:0:0:
320,192,35406,1,0,3:0:0:0:
448,192,35406,1,0,0:0:0:0:
192,192,35607,1,2,0:0:0:0:
320,192,35708,1,0,0:0:0:0:
448,192,35808,1,8,3:0:0:0:
64,192,35808,1,0,3:0:0:0:
448,192,36010,1,2,0:0:0:0:
320,192,36110,1,0,0:0:0:0:
192,192,36211,1,0,3:0:0:0:
64,192,36211,1,0,0:0:0:0:
448,192,36312,1,0,0:0:0:0:
320,192,36312,1,8,3:0:0:0:
64,192,36412,1,2,0:0:0:0:
192,192,36513,1,0,0:0:0:0:
448,192,36614,1,8,3:0:0:0:
320,192,36614,1,0,3:0:0:0:
192,192,36815,1,2,0:0:0:0:
320,192,36916,1,0,0:0:0:0:
448,192,37016,1,0,0:0:0:0:
64,192,37016,1,0,3:0:0:0:
448,192,37218,1,2,0:0:0:0:
320,192,37318,1,0,0:0:0:0:
192,192,37419,1,0,3:0:0:0:
64,192,37419,1,8,3:0:0:0:
320,192,37621,1,2,0:0:0:0:
192,192,37721,1,0,0:0:0:0:
64,192,37822,1,0,0:0:0:0:
448,192,37822,1,0,3:0:0:0:
192,192,38023,1,2,0:0:0:0:
320,192,38124,1,0,0:0:0:0:
64,192,38225,1,0,3:0:0:0:
448,192,38225,1,8,3:0:0:0:
192,192,38426,1,2,0:0:0:0:
64,192,38527,1,0,0:0:0:0:
448,192,38627,1,0,0:0:0:0:
320,192,38627,1,0,3:0:0:0:
192,192,38829,1,2,0:0:0:0:
320,192,38929,1,0,0:0:0:0:
448,192,39030,1,0,3:0:0:0:
64,192,39030,1,8,3:0:0:0:
448,192,39231,1,2,0:0:0:0:
320,192,39332,1,0,0:0:0:0:
192,192,39433,1,0,3:0:0:0:
64,192,39433,1,0,0:0:0:0:
448,192,39533,1,0,0:0:0:0:
320,192,39533,1,8,3:0:0:0:
192,192,39634,1,2,0:0:0:0:
64,192,39735,1,0,0:0:0:0:
448,192,39835,1,8,3:0:0:0:
320,192,39835,1,0,3:0:0:0:
320,192,40037,1,8,3:0:0:0:
448,192,40037,1,0,0:0:0:0:
64,192,40137,1,0,0:0:0:0:
192,192,40137,1,8,3:0:0:0:
320,192,40238,1,4,3:0:0:0:
448,192,40238,1,0,0:0:0:0:
64,192,40439,1,2,0:0:0:0:
192,192,40540,1,0,0:0:0:0:
448,192,40641,1,8,3:0:0:0:
320,192,40641,1,0,3:0:0:0:
192,192,40842,1,2,0:0:0:0:
320,192,40943,1,0,0:0:0:0:
64,192,41043,1,0,3:0:0:0:
448,192,41043,1,0,0:0:0:0:
320,192,41245,1,2,0:0:0:0:
448,192,41345,1,0,0:0:0:0:
192,192,41446,1,0,3:0:0:0:
64,192,41446,1,8,3:0:0:0:
64,192,41647,1,2,0:0:0:0:
192,192,41748,1,0,0:0:0:0:
320,192,41849,1,0,3:0:0:0:
448,192,41849,1,0,0:0:0:0:
192,192,42050,1,2,0:0:0:0:
320,192,42151,1,0,0:0:0:0:
448,192,42251,1,8,3:0:0:0:
64,192,42251,1,0,3:0:0:0:
320,192,42453,1,2,0:0:0:0:
192,192,42553,1,0,0:0:0:0:
64,192,42654,1,0,3:0:0:0:
448,192,42654,1,0,0:0:0:0:
64,192,42855,1,2,0:0:0:0:
192,192,42956,1,0,0:0:0:0:
448,192,43057,1,8,3:0:0:0:
320,192,43057,1,0,3:0:0:0:
64,192,43258,1,2,0:0:0:0:
320,192,43359,1,8,3:0:0:0:
448,192,43359,1,0,0:0:0:0:
64,192,43459,1,0,3:0:0:0:
192,192,43459,1,0,0:0:0:0:
64,192,43661,1,2,0:0:0:0:
192,192,43761,1,0,0:0:0:0:
448,192,43862,1,8,3:0:0:0:
320,192,43862,1,0,3:0:0:0:
192,192,44063,1,2,0:0:0:0:
320,192,44164,1,0,0:0:0:0:
448,192,44265,1,0,0:0:0:0:
64,192,44265,1,0,3:0:0:0:
320,192,44466,1,2,0:0:0:0:
192,192,44567,1,0,0:0:0:0:
448,192,44667,1,8,3:0:0:0:
320,192,44667,1,0,3:0:0:0:
448,192,44869,1,2,0:0:0:0:
320,192,44969,1,0,0:0:0:0:
192,192,45070,1,0,3:0:0:0:
64,192,45070,1,0,0:0:0:0:
320,192,45272,1,8,3:0:0:0:
64,192,45272,1,0,0:0:0:0:
320,192,45473,1,0,3:0:0:0:
64,192,45473,1,8,3:0:0:0:
192,192,45674,1,2,0:0:0:0:
448,192,45775,1,0,0:0:0:0:
320,192,45775,1,8,3:0:0:0:
192,192,45876,1,0,3:0:0:0:
64,192,45876,1,0,0:0:0:0:
448,192,45976,1,0,0:0:0:0:
320,192,45976,1,8,3:0:0:0:
192,192,46077,1,2,0:0:0:0:
64,192,46178,5,0,0:0:0:0:
448,192,46278,1,0,3:0:0:0:
320,192,46278,1,8,3:0:0:0:
320,192,46480,1,8,3:0:0:0:
448,192,46480,1,0,0:0:0:0:
64,192,46580,1,0,0:0:0:0:
192,192,46580,1,8,3:0:0:0:
448,192,46681,1,2,3:0:0:0:
320,192,46681,1,4,3:0:0:0:
448,192,46882,1,2,0:0:0:0:
320,192,46983,1,0,0:0:0:0:
192,192,47084,1,0,3:0:0:0:
64,192,47084,1,8,3:0:0:0:
192,192,47285,5,2,0:0:0:0:
320,192,47386,1,0,0:0:0:0:
448,192,47486,1,0,3:0:0:0:
64,192,47486,1,0,0:0:0:0:
320,192,47587,1,0,0:0:0:0:
192,192,47688,1,2,0:0:0:0:
64,192,47788,1,0,0:0:0:0:
320,192,47889,1,0,3:0:0:0:
448,192,47889,1,8,3:0:0:0:
192,192,47990,1,0,0:0:0:0:
64,192,48090,1,0,0:0:0:0:
320,192,48090,1,2,0:0:0:0:
448,192,48191,1,0,0:0:0:0:
192,192,48292,1,0,3:0:0:0:
64,192,48292,1,0,0:0:0:0:
320,192,48493,1,2,0:0:0:0:
192,192,48594,1,0,0:0:0:0:
320,192,48694,1,0,3:0:0:0:
448,192,48694,1,8,3:0:0:0:
64,192,48896,1,2,0:0:0:0:
192,192,48996,1,0,0:0:0:0:
320,192,49097,1,0,3:0:0:0:
448,192,49097,1,0,0:0:0:0:
192,192,49198,1,8,3:0:0:0:
64,192,49198,1,0,0:0:0:0:
320,192,49298,1,2,0:0:0:0:
448,192,49399,1,0,0:0:0:0:
192,192,49500,1,0,3:0:0:0:
64,192,49500,1,8,3:0:0:0:
192,192,49701,1,2,0:0:0:0:
320,192,49802,1,0,0:0:0:0:
64,192,49902,1,0,0:0:0:0:
448,192,49902,1,0,3:0:0:0:
192,192,50104,1,2,0:0:0:0:
64,192,50204,1,0,0:0:0:0:
448,192,50305,1,8,3:0:0:0:
320,192,50305,1,0,3:0:0:0:
320,192,50506,1,2,0:0:0:0:
192,192,50607,1,0,0:0:0:0:
448,192,50708,1,0,0:0:0:0:
64,192,50708,1,0,3:0:0:0:
192,192,50808,1,0,0:0:0:0:
320,192,50909,1,2,0:0:0:0:
448,192,51010,1,0,0:0:0:0:
192,192,51110,1,0,3:0:0:0:
64,192,51110,1,8,3:0:0:0:
320,192,51211,1,0,0:0:0:0:
448,192,51312,1,2,0:0:0:0:
64,192,51312,1,0,0:0:0:0:
192,192,51412,1,0,0:0:0:0:
320,192,51513,1,0,3:0:0:0:
448,192,51513,1,0,0:0:0:0:
192,192,51714,1,2,0:0:0:0:
320,192,51815,1,0,0:0:0:0:
64,192,51916,1,0,3:0:0:0:
448,192,51916,1,8,3:0:0:0:
64,192,52117,1,2,0:0:0:0:
192,192,52218,1,0,0:0:0:0:
320,192,52318,1,0,3:0:0:0:
448,192,52318,1,0,0:0:0:0:
192,192,52419,1,8,3:0:0:0:
64,192,52419,1,0,0:0:0:0:
320,192,52520,1,2,0:0:0:0:
448,192,52621,1,0,0:0:0:0:
192,192,52721,1,0,3:0:0:0:
64,192,52721,1,8,3:0:0:0:
448,192,52923,1,8,3:0:0:0:
320,192,52923,1,0,0:0:0:0:
64,192,53023,1,8,3:0:0:0:
192,192,53023,1,0,0:0:0:0:
320,192,53124,1,4,3:0:0:0:
448,192,53124,1,0,0:0:0:0:
192,192,53225,1,0,0:0:0:0:
64,192,53325,1,2,0:0:0:0:
320,192,53426,1,0,0:0:0:0:
192,192,53527,1,8,3:0:0:0:
448,192,53527,1,0,3:0:0:0:
64,192,53627,1,0,0:0:0:0:
320,192,53728,1,2,0:0:0:0:
192,192,53829,1,0,0:0:0:0:
320,192,53929,1,0,3:0:0:0:
64,192,53929,1,0,0:0:0:0:
448,192,54030,1,0,0:0:0:0:
64,192,54131,1,2,0:0:0:0:
192,192,54231,1,0,0:0:0:0:
320,192,54332,1,0,3:0:0:0:
448,192,54332,1,8,3:0:0:0:
192,192,54433,1,0,0:0:0:0:
64,192,54533,1,2,0:0:0:0:
320,192,54634,1,0,0:0:0:0:
64,192,54735,1,0,0:0:0:0:
448,192,54735,1,0,3:0:0:0:
192,192,54835,1,0,0:0:0:0:
320,192,54936,1,2,0:0:0:0:
192,192,55037,1,0,0:0:0:0:
448,192,55137,1,0,3:0:0:0:
64,192,55137,1,8,3:0:0:0:
320,192,55238,1,0,0:0:0:0:
192,192,55339,1,2,0:0:0:0:
448,192,55439,1,0,0:0:0:0:
64,192,55540,1,0,0:0:0:0:
320,192,55540,1,0,3:0:0:0:
192,192,55641,1,0,0:0:0:0:
448,192,55741,1,2,0:0:0:0:
320,192,55842,1,0,0:0:0:0:
192,192,55943,1,0,3:0:0:0:
64,192,55943,1,8,3:0:0:0:
320,192,56043,1,0,0:0:0:0:
448,192,56144,1,2,0:0:0:0:
192,192,56245,1,0,0:0:0:0:
64,192,56245,1,8,3:0:0:0:
320,192,56345,1,0,0:0:0:0:
448,192,56345,1,0,3:0:0:0:
192,192,56446,1,0,0:0:0:0:
64,192,56547,1,2,0:0:0:0:
320,192,56647,1,0,0:0:0:0:
192,192,56748,1,0,3:0:0:0:
448,192,56748,1,8,3:0:0:0:
64,192,56849,1,0,0:0:0:0:
320,192,56949,1,2,0:0:0:0:
448,192,57050,1,0,0:0:0:0:
64,192,57151,1,0,0:0:0:0:
192,192,57151,1,0,3:0:0:0:
320,192,57251,1,0,0:0:0:0:
448,192,57352,1,2,0:0:0:0:
64,192,57453,1,0,0:0:0:0:
320,192,57553,1,8,3:0:0:0:
192,192,57553,1,0,3:0:0:0:
448,192,57654,1,0,0:0:0:0:
192,192,57755,1,2,0:0:0:0:
320,192,57855,1,0,0:0:0:0:
64,192,57956,1,0,0:0:0:0:
448,192,57956,1,0,3:0:0:0:
320,192,58057,1,0,0:0:0:0:
64,192,58157,1,0,0:0:0:0:
192,192,58157,1,10,3:0:0:0:
448,192,58258,1,0,0:0:0:0:
64,192,58359,1,0,0:0:0:0:
320,192,58359,1,6,3:0:0:0:
192,192,58459,1,0,0:0:0:0:
320,192,58560,1,10,3:0:0:0:
448,192,58560,1,0,0:0:0:0:
192,192,58661,1,8,3:0:0:0:
64,192,58661,1,0,0:0:0:0:
448,192,58761,1,0,0:0:0:0:
320,192,58761,1,6,3:0:0:0:
192,192,58862,1,10,3:0:0:0:
64,192,58862,1,0,0:0:0:0:
320,192,58963,1,2,3:0:0:0:
448,192,59063,1,0,0:0:0:0:
192,192,59164,1,0,3:0:0:0:
64,192,59164,1,10,3:0:0:0:
448,192,59265,1,8,3:0:0:0:
320,192,59265,1,0,0:0:0:0:
64,192,59365,1,0,0:0:0:0:
192,192,59365,1,10,3:0:0:0:
448,192,59466,1,0,0:0:0:0:
320,192,59466,1,8,3:0:0:0:
64,192,59567,1,2,0:0:0:0:
192,192,59567,1,0,3:0:0:0:
320,192,59768,1,2,0:0:0:0:
448,192,59869,1,0,0:0:0:0:
64,192,59969,1,8,3:0:0:0:
192,192,59969,1,0,3:0:0:0:
192,192,60171,1,2,0:0:0:0:
320,192,60272,1,0,0:0:0:0:
64,192,60372,1,0,3:0:0:0:
448,192,60372,1,0,0:0:0:0:
64,192,60574,1,0,3:0:0:0:
192,192,60574,1,2,0:0:0:0:
448,192,60674,1,0,3:0:0:0:
320,192,60674,1,0,0:0:0:0:
192,192,60775,1,0,3:0:0:0:
64,192,60775,1,8,3:0:0:0:
320,192,60876,1,0,0:0:0:0:
448,192,60976,1,2,0:0:0:0:
192,192,61077,1,0,0:0:0:0:
448,192,61178,1,0,0:0:0:0:
320,192,61178,1,0,3:0:0:0:
64,192,61379,1,2,0:0:0:0:
192,192,61480,1,0,0:0:0:0:
448,192,61580,1,8,3:0:0:0:
320,192,61580,1,0,3:0:0:0:
192,192,61782,1,2,0:0:0:0:
320,192,61882,1,0,0:0:0:0:
192,192,61983,1,0,3:0:0:0:
448,192,61983,1,0,0:0:0:0:
64,192,62184,1,0,3:0:0:0:
192,192,62251,1,0,3:0:0:0:
320,192,62318,1,0,3:0:0:0:
64,192,62386,1,8,3:0:0:0:
448,192,62386,1,0,3:0:0:0:
192,192,62486,1,0,0:0:0:0:
320,192,62587,1,2,0:0:0:0:
192,192,62688,1,0,0:0:0:0:
448,192,62788,1,0,3:0:0:0:
64,192,62788,1,0,0:0:0:0:
320,192,62990,1,2,0:0:0:0:
192,192,63090,1,0,0:0:0:0:
448,192,63191,1,0,3:0:0:0:
64,192,63191,1,8,3:0:0:0:
320,192,63392,1,2,0:0:0:0:
192,192,63493,1,0,0:0:0:0:
448,192,63594,1,0,0:0:0:0:
320,192,63594,1,0,3:0:0:0:
64,192,63795,1,2,0:0:0:0:
192,192,63896,1,0,0:0:0:0:
320,192,63996,1,0,3:0:0:0:
448,192,63996,1,8,3:0:0:0:
192,192,64198,1,2,0:0:0:0:
320,192,64298,1,0,0:0:0:0:
64,192,64399,1,0,3:0:0:0:
448,192,64399,1,0,0:0:0:0:
320,192,64600,1,8,3:0:0:0:
192,192,64667,1,8,3:0:0:0:
64,192,64735,1,8,3:0:0:0:
448,192,64802,1,4,3:0:0:0:
320,192,64802,1,8,3:0:0:0:
192,192,64902,1,8,3:0:0:0:
448,192,65003,1,8,3:0:0:0:
320,192,65104,1,8,3:0:0:0:
192,192,65204,1,4,3:0:0:0:
64,192,65204,1,0,0:0:0:0:
320,192,65305,1,8,3:0:0:0:
64,192,65406,1,8,3:0:0:0:
192,192,65506,1,8,3:0:0:0:
320,192,65607,1,4,3:0:0:0:
448,192,65607,1,0,0:0:0:0:
192,192,65708,1,0,3:0:0:0:
64,192,65708,1,0,0:0:0:0:
448,192,65808,1,0,0:0:0:0:
320,192,65808,1,8,3:0:0:0:
192,192,65909,1,0,3:0:0:0:
64,192,65909,1,0,0:0:0:0:
448,192,66010,1,2,3:0:0:0:
320,192,66010,1,4,3:0:0:0:
64,192,66211,1,2,0:0:0:0:
192,192,66312,1,0,0:0:0:0:
320,192,66412,1,0,3:0:0:0:
448,192,66412,1,8,3:0:0:0:
320,192,66614,1,2,0:0:0:0:
192,192,66714,1,0,0:0:0:0:
64,192,66815,1,0,0:0:0:0:
448,192,66815,1,0,3:0:0:0:
448,192,67016,1,0,3:0:0:0:
320,192,67016,1,2,0:0:0:0:
64,192,67117,1,0,3:0:0:0:
192,192,67117,1,0,0:0:0:0:
320,192,67218,1,0,3:0:0:0:
448,192,67218,1,8,3:0:0:0:
192,192,67318,1,0,0:0:0:0:
64,192,67419,1,2,0:0:0:0:
320,192,67520,1,0,0:0:0:0:
192,192,67621,1,0,3:0:0:0:
448,192,67621,1,0,0:0:0:0:
320,192,67822,1,2,0:0:0:0:
192,192,67923,1,0,0:0:0:0:
320,192,68023,1,0,3:0:0:0:
448,192,68023,1,8,3:0:0:0:
192,192,68225,1,2,0:0:0:0:
320,192,68325,1,0,0:0:0:0:
192,192,68426,1,0,3:0:0:0:
448,192,68426,1,0,0:0:0:0:
320,192,68627,1,0,3:0:0:0:
192,192,68694,1,0,3:0:0:0:
64,192,68761,1,0,3:0:0:0:
448,192,68829,1,8,3:0:0:0:
320,192,68829,1,0,3:0:0:0:
192,192,68929,1,0,0:0:0:0:
320,192,69030,1,8,3:0:0:0:
448,192,69030,1,0,0:0:0:0:
64,192,69131,1,0,0:0:0:0:
192,192,69131,1,8,3:0:0:0:
320,192,69231,1,4,3:0:0:0:
448,192,69231,1,2,3:0:0:0:
192,192,69433,1,2,0:0:0:0:
320,192,69533,1,0,0:0:0:0:
448,192,69634,1,8,3:0:0:0:
64,192,69634,1,0,3:0:0:0:
320,192,69735,1,0,0:0:0:0:
192,192,69835,1,2,0:0:0:0:
64,192,69936,1,0,0:0:0:0:
320,192,70037,1,0,3:0:0:0:
448,192,70037,1,2,3:0:0:0:
192,192,70238,1,2,0:0:0:0:
320,192,70339,1,0,0:0:0:0:
448,192,70439,1,8,3:0:0:0:
64,192,70439,1,0,3:0:0:0:
192,192,70540,1,0,0:0:0:0:
320,192,70641,1,2,0:0:0:0:
192,192,70741,1,0,0:0:0:0:
448,192,70842,1,0,3:0:0:0:
64,192,70842,1,2,3:0:0:0:
192,192,71043,1,8,3:0:0:0:
320,192,71110,1,8,3:0:0:0:
448,192,71178,1,8,3:0:0:0:
64,192,71245,1,4,3:0:0:0:
192,192,71245,1,10,3:0:0:0:
320,192,71345,5,8,3:0:0:0:
64,192,71446,1,8,3:0:0:0:
448,192,71547,1,8,3:0:0:0:
64,192,71647,1,4,3:0:0:0:
192,192,71647,1,0,0:0:0:0:
320,192,71748,1,8,3:0:0:0:
192,192,71849,1,8,3:0:0:0:
448,192,71949,1,8,3:0:0:0:
192,192,72050,1,4,3:0:0:0:
64,192,72050,1,0,0:0:0:0:
320,192,72151,1,8,3:0:0:0:
64,192,72251,1,8,3:0:0:0:
192,192,72352,1,8,3:0:0:0:
320,192,72453,5,8,3:0:0:0:
448,192,72453,1,6,3:0:0:0:
64,192,72553,1,0,0:0:0:0:
192,192,72553,1,8,3:0:0:0:
320,192,72654,1,8,3:0:0:0:
448,192,72654,1,0,0:0:0:0:
192,192,72755,1,0,0:0:0:0:
320,192,72855,1,8,3:0:0:0:
448,192,72855,1,0,3:0:0:0:
64,192,72956,5,0,0:0:0:0:
192,192,72956,1,8,3:0:0:0:
448,192,73057,1,0,0:0:0:0:
320,192,73057,1,8,3:0:0:0:
64,192,73157,1,0,0:0:0:0:
448,192,73258,1,2,3:0:0:0:
320,192,73258,1,4,3:0:0:0:
192,192,73359,1,8,3:0:0:0:
320,192,73459,1,10,3:0:0:0:
448,192,73560,1,8,3:0:0:0:
64,192,73661,1,2,3:0:0:0:
192,192,73661,1,4,3:0:0:0:
448,192,73761,1,8,3:0:0:0:
320,192,73761,1,0,0:0:0:0:
192,192,73862,1,10,3:0:0:0:
64,192,73862,1,0,0:0:0:0:
448,192,73963,1,8,3:0:0:0:
320,192,73963,1,0,0:0:0:0:
64,192,74063,5,0,0:0:0:0:
192,192,74063,1,4,3:0:0:0:
448,192,74164,1,0,0:0:0:0:
320,192,74265,1,2,0:0:0:0:
64,192,74365,1,0,0:0:0:0:
192,192,74365,1,0,0:0:0:0:
320,192,74466,1,0,3:0:0:0:
448,192,74466,1,8,3:0:0:0:
64,192,74567,1,0,0:0:0:0:
448,192,74667,1,0,0:0:0:0:
192,192,74667,1,2,0:0:0:0:
320,192,74768,1,0,0:0:0:0:
64,192,74869,1,0,0:0:0:0:
192,192,74869,1,0,3:0:0:0:
320,192,74969,1,0,0:0:0:0:
448,192,75070,1,2,0:0:0:0:
64,192,75171,1,0,0:0:0:0:
192,192,75171,1,0,0:0:0:0:
320,192,75272,1,0,3:0:0:0:
448,192,75272,1,8,3:0:0:0:
192,192,75372,1,0,0:0:0:0:
320,192,75473,1,2,0:0:0:0:
64,192,75473,1,0,0:0:0:0:
448,192,75574,1,0,0:0:0:0:
64,192,75674,1,0,0:0:0:0:
192,192,75674,1,0,3:0:0:0:
448,192,75775,1,0,0:0:0:0:
320,192,75876,1,2,0:0:0:0:
64,192,75976,1,0,0:0:0:0:
192,192,75976,1,0,0:0:0:0:
448,192,76077,1,0,3:0:0:0:
320,192,76077,1,8,3:0:0:0:
64,192,76178,1,0,0:0:0:0:
192,192,76278,1,0,0:0:0:0:
448,192,76278,1,2,0:0:0:0:
320,192,76379,1,0,0:0:0:0:
448,192,76480,1,0,0:0:0:0:
64,192,76480,1,0,3:0:0:0:
192,192,76580,1,0,0:0:0:0:
320,192,76681,1,2,0:0:0:0:
192,192,76782,1,0,0:0:0:0:
64,192,76782,1,0,0:0:0:0:
320,192,76882,1,0,3:0:0:0:
448,192,76882,1,8,3:0:0:0:
64,192,76983,1,0,0:0:0:0:
448,192,77084,1,2,0:0:0:0:
192,192,77084,1,0,0:0:0:0:
320,192,77184,1,0,0:0:0:0:
192,192,77285,1,0,3:0:0:0:
64,192,77285,1,0,0:0:0:0:
320,192,77386,1,0,0:0:0:0:
448,192,77486,1,2,0:0:0:0:
192,192,77587,1,0,0:0:0:0:
64,192,77587,1,0,0:0:0:0:
320,192,77688,1,8,3:0:0:0:
448,192,77688,1,0,3:0:0:0:
64,192,77788,1,0,0:0:0:0:
448,192,77889,1,2,0:0:0:0:
192,192,77889,1,0,0:0:0:0:
320,192,77990,1,0,0:0:0:0:
64,192,78090,1,0,3:0:0:0:
192,192,78090,1,0,0:0:0:0:
320,192,78191,1,0,0:0:0:0:
448,192,78292,1,2,0:0:0:0:
192,192,78392,1,0,0:0:0:0:
64,192,78392,1,0,0:0:0:0:
320,192,78493,1,0,3:0:0:0:
448,192,78493,1,8,3:0:0:0:
192,192,78594,1,0,0:0:0:0:
448,192,78694,1,2,0:0:0:0:
64,192,78694,1,0,0:0:0:0:
192,192,78795,1,0,0:0:0:0:
320,192,78896,1,0,3:0:0:0:
448,192,78896,1,0,0:0:0:0:
64,192,78996,1,0,0:0:0:0:
192,192,79097,1,2,0:0:0:0:
320,192,79198,1,0,0:0:0:0:
64,192,79298,1,8,3:0:0:0:
448,192,79298,1,0,3:0:0:0:
320,192,79399,1,0,0:0:0:0:
192,192,79500,1,0,0:0:0:0:
64,192,79500,1,2,0:0:0:0:
320,192,79600,1,0,0:0:0:0:
448,192,79600,1,8,3:0:0:0:
192,192,79701,1,0,3:0:0:0:
64,192,79701,1,8,3:0:0:0:
320,192,79802,1,8,3:0:0:0:
448,192,79902,1,8,3:0:0:0:
64,192,80003,1,0,3:0:0:0:
320,192,80053,1,0,3:0:0:0:
448,192,80104,1,4,3:0:0:0:
192,192,80204,1,0,0:0:0:0:
320,192,80305,1,8,3:0:0:0:
448,192,80305,1,2,0:0:0:0:
192,192,80406,1,8,3:0:0:0:
64,192,80406,1,0,0:0:0:0:
448,192,80506,1,2,3:0:0:0:
320,192,80506,1,4,3:0:0:0:
64,192,80607,1,0,0:0:0:0:
192,192,80708,1,2,0:0:0:0:
320,192,80808,1,0,0:0:0:0:
448,192,80808,1,0,0:0:0:0:
64,192,80909,1,0,3:0:0:0:
192,192,80909,1,8,3:0:0:0:
448,192,81010,1,0,0:0:0:0:
192,192,81110,1,0,0:0:0:0:
320,192,81110,1,2,0:0:0:0:
64,192,81211,1,0,0:0:0:0:
320,192,81312,1,0,3:0:0:0:
448,192,81312,1,0,0:0:0:0:
64,192,81412,1,0,0:0:0:0:
192,192,81513,1,2,0:0:0:0:
448,192,81614,1,0,0:0:0:0:
320,192,81614,1,0,0:0:0:0:
192,192,81714,1,0,3:0:0:0:
64,192,81714,1,8,3:0:0:0:
448,192,81815,1,0,0:0:0:0:
320,192,81916,1,2,0:0:0:0:
64,192,81916,1,0,0:0:0:0:
192,192,82016,1,0,0:0:0:0:
64,192,82117,1,0,0:0:0:0:
448,192,82117,1,0,3:0:0:0:
320,192,82218,1,0,0:0:0:0:
192,192,82318,1,2,0:0:0:0:
320,192,82419,1,0,0:0:0:0:
448,192,82419,1,0,0:0:0:0:
192,192,82520,1,0,3:0:0:0:
64,192,82520,1,8,3:0:0:0:
320,192,82621,1,0,0:0:0:0:
448,192,82721,1,2,0:0:0:0:
64,192,82721,1,0,0:0:0:0:
192,192,82822,1,0,0:0:0:0:
320,192,82923,1,0,3:0:0:0:
448,192,82923,1,0,0:0:0:0:
192,192,83023,1,0,0:0:0:0:
64,192,83124,1,2,0:0:0:0:
320,192,83225,1,0,0:0:0:0:
448,192,83225,1,0,0:0:0:0:
64,192,83325,1,8,3:0:0:0:
192,192,83325,1,0,3:0:0:0:
320,192,83426,1,0,0:0:0:0:
448,192,83527,1,0,0:0:0:0:
192,192,83527,1,2,0:0:0:0:
64,192,83627,1,0,0:0:0:0:
320,192,83728,1,0,0:0:0:0:
448,192,83728,1,4,3:0:0:0:
64,192,83829,1,0,0:0:0:0:
448,192,83929,1,0,3:0:0:0:
320,192,83996,1,0,3:0:0:0:
192,192,84063,1,0,3:0:0:0:
320,192,84131,1,0,3:0:0:0:
448,192,84131,1,8,3:0:0:0:
64,192,84231,1,8,3:0:0:0:
448,192,84332,1,8,3:0:0:0:
192,192,84433,1,8,3:0:0:0:
448,192,84533,1,4,3:0:0:0:
320,192,84533,1,8,3:0:0:0:
64,192,84634,1,8,3:0:0:0:
320,192,84735,1,8,3:0:0:0:
192,192,84835,1,8,3:0:0:0:
320,192,84936,1,8,3:0:0:0:
448,192,84936,1,4,3:0:0:0:
64,192,85037,1,8,3:0:0:0:
192,192,85137,1,8,3:0:0:0:
320,192,85238,1,8,3:0:0:0:
192,192,85339,1,8,3:0:0:0:
64,192,85339,1,0,3:0:0:0:
320,192,85439,1,8,3:0:0:0:
448,192,85439,1,0,3:0:0:0:
64,192,85540,1,0,3:0:0:0:
192,192,85540,1,8,3:0:0:0:
320,192,85741,1,0,3:0:0:0:
448,192,85741,1,8,3:0:0:0:
192,192,85842,1,0,3:0:0:0:
64,192,85842,1,8,3:0:0:0:
448,192,85943,1,8,3:0:0:0:
320,192,85943,1,0,3:0:0:0:
192,192,86144,1,0,3:0:0:0:
64,192,86144,1,8,3:0:0:0:
320,192,86245,1,8,3:0:0:0:
448,192,86245,1,0,3:0:0:0:
192,192,86345,1,0,3:0:0:0:
64,192,86345,1,8,3:0:0:0:
320,192,86446,1,8,3:0:0:0:
448,192,86446,1,0,3:0:0:0:
192,192,86547,1,0,3:0:0:0:
64,192,86547,1,8,3:0:0:0:
320,192,86647,1,8,3:0:0:0:
448,192,86647,1,0,3:0:0:0:
192,192,86748,1,0,3:0:0:0:
64,192,86748,1,8,3:0:0:0:
320,192,86849,1,8,3:0:0:0:
448,192,86849,1,0,3:0:0:0:
192,192,86949,1,4,3:0:0:0:
64,192,86949,1,0,3:0:0:0:
320,192,87050,1,0,0:0:0:0:
448,192,87151,1,2,0:0:0:0:
192,192,87251,1,0,0:0:0:0:
64,192,87251,1,0,0:0:0:0:
320,192,87352,1,0,3:0:0:0:
448,192,87352,1,8,3:0:0:0:
64,192,87453,1,0,0:0:0:0:
192,192,87553,1,0,0:0:0:0:
448,192,87553,1,2,0:0:0:0:
320,192,87654,1,0,0:0:0:0:
192,192,87755,1,0,0:0:0:0:
64,192,87755,1,0,3:0:0:0:
320,192,87855,1,0,0:0:0:0:
64,192,87956,1,2,0:0:0:0:
320,192,88057,1,0,0:0:0:0:
448,192,88057,1,0,0:0:0:0:
192,192,88157,1,0,3:0:0:0:
64,192,88157,1,8,3:0:0:0:
448,192,88258,1,0,0:0:0:0:
64,192,88359,1,2,0:0:0:0:
320,192,88359,1,0,0:0:0:0:
192,192,88459,1,0,0:0:0:0:
320,192,88560,1,0,0:0:0:0:
448,192,88560,1,0,3:0:0:0:
192,192,88661,1,0,0:0:0:0:
64,192,88761,1,2,0:0:0:0:
320,192,88862,1,0,0:0:0:0:
448,192,88862,1,0,0:0:0:0:
192,192,88963,1,0,3:0:0:0:
64,192,88963,1,8,3:0:0:0:
448,192,89063,1,0,0:0:0:0:
320,192,89164,1,0,0:0:0:0:
64,192,89164,1,2,0:0:0:0:
192,192,89265,1,0,0:0:0:0:
448,192,89365,1,0,0:0:0:0:
64,192,89365,1,0,3:0:0:0:
320,192,89466,1,0,0:0:0:0:
192,192,89567,1,2,0:0:0:0:
320,192,89667,1,0,0:0:0:0:
448,192,89667,1,0,0:0:0:0:
192,192,89768,1,0,3:0:0:0:
64,192,89768,1,8,3:0:0:0:
320,192,89869,1,0,0:0:0:0:
64,192,89969,1,0,0:0:0:0:
448,192,89969,1,2,0:0:0:0:
192,192,90070,1,0,0:0:0:0:
320,192,90171,1,0,3:0:0:0:
448,192,90171,1,0,0:0:0:0:
192,192,90272,1,0,0:0:0:0:
64,192,90372,1,2,0:0:0:0:
320,192,90473,1,0,0:0:0:0:
448,192,90473,1,0,0:0:0:0:
64,192,90574,1,8,3:0:0:0:
192,192,90574,1,0,3:0:0:0:
448,192,90674,1,0,0:0:0:0:
64,192,90775,1,2,0:0:0:0:
320,192,90775,1,0,0:0:0:0:
192,192,90876,1,0,0:0:0:0:
320,192,90976,1,0,3:0:0:0:
448,192,90976,1,0,0:0:0:0:
192,192,91077,1,0,0:0:0:0:
64,192,91178,1,2,0:0:0:0:
320,192,91278,1,0,0:0:0:0:
448,192,91278,1,0,0:0:0:0:
192,192,91379,1,0,3:0:0:0:
64,192,91379,1,8,3:0:0:0:
320,192,91480,1,0,0:0:0:0:
192,192,91580,1,2,0:0:0:0:
448,192,91580,1,0,0:0:0:0:
64,192,91681,1,0,0:0:0:0:
320,192,91782,1,4,3:0:0:0:
448,192,91782,1,0,0:0:0:0:
192,192,91882,1,0,0:0:0:0:
320,192,91983,1,2,0:0:0:0:
192,192,92084,1,0,0:0:0:0:
448,192,92184,1,8,3:0:0:0:
64,192,92184,1,0,3:0:0:0:
320,192,92285,1,0,0:0:0:0:
192,192,92386,1,2,0:0:0:0:
64,192,92386,1,0,0:0:0:0:
448,192,92486,1,0,0:0:0:0:
320,192,92486,1,8,3:0:0:0:
192,192,92587,1,8,3:0:0:0:
64,192,92587,1,0,3:0:0:0:
448,192,92688,1,8,3:0:0:0:
64,192,92788,1,0,3:0:0:0:
192,192,92855,1,0,3:0:0:0:
320,192,92923,1,0,3:0:0:0:
448,192,92990,1,8,3:0:0:0:
64,192,92990,1,0,3:0:0:0:
192,192,93090,1,0,0:0:0:0:
320,192,93191,1,8,3:0:0:0:
448,192,93191,1,0,0:0:0:0:
192,192,93292,1,8,3:0:0:0:
64,192,93292,1,0,0:0:0:0:
448,192,93392,1,2,3:0:0:0:
320,192,93392,1,4,3:0:0:0:
192,192,93493,1,0,0:0:0:0:
64,192,93594,1,2,0:0:0:0:
448,192,93694,1,0,0:0:0:0:
320,192,93694,1,0,0:0:0:0:
192,192,93795,1,0,3:0:0:0:
64,192,93795,1,8,3:0:0:0:
320,192,93896,1,0,0:0:0:0:
192,192,93996,1,0,0:0:0:0:
448,192,93996,1,2,0:0:0:0:
320,192,94097,1,0,0:0:0:0:
64,192,94198,1,0,3:0:0:0:
192,192,94198,1,0,0:0:0:0:
448,192,94298,1,0,0:0:0:0:
320,192,94399,1,2,0:0:0:0:
64,192,94500,1,0,0:0:0:0:
192,192,94500,1,0,0:0:0:0:
320,192,94600,1,0,3:0:0:0:
448,192,94600,1,8,3:0:0:0:
192,192,94701,1,0,0:0:0:0:
448,192,94802,1,2,0:0:0:0:
64,192,94802,1,0,0:0:0:0:
320,192,94902,1,0,0:0:0:0:
192,192,95003,1,0,3:0:0:0:
64,192,95003,1,0,0:0:0:0:
320,192,95104,1,0,0:0:0:0:
448,192,95204,1,2,0:0:0:0:
192,192,95305,1,0,0:0:0:0:
64,192,95305,1,0,0:0:0:0:
320,192,95406,1,0,3:0:0:0:
448,192,95406,1,8,3:0:0:0:
64,192,95506,1,0,0:0:0:0:
448,192,95607,1,2,0:0:0:0:
192,192,95607,1,0,0:0:0:0:
320,192,95708,1,0,0:0:0:0:
448,192,95808,1,0,3:0:0:0:
64,192,95808,1,0,0:0:0:0:
192,192,95909,1,0,0:0:0:0:
320,192,96010,1,2,0:0:0:0:
64,192,96110,1,0,0:0:0:0:
192,192,96110,1,0,0:0:0:0:
448,192,96211,1,8,3:0:0:0:
320,192,96211,1,0,3:0:0:0:
192,192,96312,1,0,0:0:0:0:
64,192,96412,1,0,0:0:0:0:
320,192,96412,1,2,0:0:0:0:
448,192,96513,1,0,0:0:0:0:
192,192,96614,1,0,0:0:0:0:
64,192,96614,1,0,3:0:0:0:
320,192,96714,1,0,0:0:0:0:
64,192,96815,1,8,3:0:0:0:
192,192,96882,1,8,3:0:0:0:
320,192,96949,1,8,3:0:0:0:
192,192,97016,1,8,3:0:0:0:
64,192,97016,1,4,3:0:0:0:
448,192,97117,1,8,3:0:0:0:
64,192,97218,1,8,3:0:0:0:
320,192,97318,1,8,3:0:0:0:
64,192,97419,1,4,3:0:0:0:
192,192,97419,1,8,3:0:0:0:
448,192,97520,1,8,3:0:0:0:
192,192,97621,1,8,3:0:0:0:
320,192,97721,1,8,3:0:0:0:
192,192,97822,1,0,3:0:0:0:
64,192,97822,1,4,3:0:0:0:
448,192,97923,1,0,3:0:0:0:
320,192,98023,1,0,3:0:0:0:
192,192,98124,1,0,3:0:0:0:
320,192,98225,1,0,3:0:0:0:
448,192,98225,1,8,3:0:0:0:
64,192,98325,1,8,3:0:0:0:
192,192,98325,1,0,3:0:0:0:
320,192,98426,1,0,3:0:0:0:
448,192,98426,1,8,3:0:0:0:
192,192,98627,1,0,3:0:0:0:
64,192,98627,1,8,3:0:0:0:
448,192,98728,1,0,3:0:0:0:
320,192,98728,1,8,3:0:0:0:
64,192,98829,1,8,3:0:0:0:
192,192,98829,1,0,3:0:0:0:
448,192,99030,1,0,3:0:0:0:
320,192,99030,1,8,3:0:0:0:
64,192,99131,1,8,3:0:0:0:
192,192,99131,1,0,3:0:0:0:
448,192,99231,1,0,3:0:0:0:
320,192,99231,1,8,3:0:0:0:
64,192,99332,1,8,3:0:0:0:
192,192,99332,1,0,3:0:0:0:
448,192,99433,1,0,3:0:0:0:
320,192,99433,1,8,3:0:0:0:
64,192,99533,1,8,3:0:0:0:
192,192,99533,1,0,3:0:0:0:
448,192,99634,1,0,3:0:0:0:
320,192,99634,1,8,3:0:0:0:
64,192,99735,1,8,3:0:0:0:
192,192,99735,1,0,3:0:0:0:
320,192,99835,1,0,3:0:0:0:
448,192,99835,1,4,3:0:0:0:
192,192,99936,1,0,0:0:0:0:
448,192,100037,1,8,3:0:0:0:
320,192,100104,1,8,3:0:0:0:
192,192,100171,1,8,3:0:0:0:
64,192,100238,1,4,3:0:0:0:
320,192,100238,1,8,3:0:0:0:
448,192,100339,1,8,3:0:0:0:
192,192,100439,1,8,3:0:0:0:
320,192,100540,1,8,3:0:0:0:
192,192,100641,1,8,3:0:0:0:
64,192,100641,1,4,3:0:0:0:
448,192,100741,1,8,3:0:0:0:
64,192,100842,1,0,3:0:0:0:
320,192,100943,1,0,3:0:0:0:
192,192,101043,1,0,3:0:0:0:
64,192,101043,1,4,3:0:0:0:
448,192,101144,1,0,3:0:0:0:
320,192,101245,1,0,3:0:0:0:
192,192,101345,1,0,3:0:0:0:
64,192,101446,1,0,0:0:0:0:
320,192,101446,1,4,3:0:0:0:
448,192,101446,1,2,3:0:0:0:
192,192,101547,1,0,0:0:0:0:
320,192,101647,1,0,0:0:0:0:
192,192,101748,1,0,0:0:0:0:
64,192,101849,1,0,0:0:0:0:
320,192,101949,1,0,0:0:0:0:
192,192,102050,1,0,0:0:0:0:
320,192,102151,1,0,0:0:0:0:
448,192,102251,1,0,0:0:0:0:
64,192,102352,1,0,0:0:0:0:
320,192,102453,1,0,0:0:0:0:
192,192,102553,1,0,0:0:0:0:
448,192,102654,1,0,0:0:0:0:
192,192,102755,1,0,0:0:0:0:
320,192,102855,1,0,0:0:0:0:
448,192,102956,1,0,0:0:0:0:
192,192,103057,1,2,3:0:0:0:
64,192,103057,1,4,3:0:0:0:
448,192,103157,1,0,0:0:0:0:
192,192,103258,1,2,0:0:0:0:
64,192,103359,1,0,0:0:0:0:
320,192,103459,1,0,3:0:0:0:
448,192,103459,1,8,3:0:0:0:
192,192,103560,1,0,0:0:0:0:
64,192,103661,1,2,0:0:0:0:
320,192,103761,1,0,0:0:0:0:
64,192,103862,1,0,3:0:0:0:
192,192,103862,1,0,0:0:0:0:
448,192,103963,1,0,0:0:0:0:
192,192,104063,1,2,0:0:0:0:
320,192,104164,1,0,0:0:0:0:
64,192,104265,1,0,3:0:0:0:
448,192,104265,1,8,3:0:0:0:
192,192,104365,1,0,0:0:0:0:
320,192,104466,1,2,0:0:0:0:
64,192,104567,1,0,0:0:0:0:
320,192,104667,1,0,3:0:0:0:
448,192,104667,1,0,0:0:0:0:
192,192,104768,1,0,0:0:0:0:
448,192,104869,1,2,0:0:0:0:
320,192,104969,1,0,0:0:0:0:
192,192,105070,1,0,3:0:0:0:
64,192,105070,1,8,3:0:0:0:
320,192,105171,1,0,0:0:0:0:
448,192,105272,1,2,0:0:0:0:
192,192,105372,1,0,0:0:0:0:
448,192,105473,1,0,3:0:0:0:
64,192,105473,1,0,0:0:0:0:
192,192,105574,1,0,0:0:0:0:
320,192,105674,1,2,0:0:0:0:
64,192,105775,1,0,0:0:0:0:
448,192,105876,1,8,3:0:0:0:
192,192,105876,1,0,3:0:0:0:
320,192,105976,1,0,0:0:0:0:
192,192,106077,1,2,0:0:0:0:
64,192,106178,1,0,0:0:0:0:
448,192,106278,1,0,0:0:0:0:
320,192,106278,1,0,3:0:0:0:
192,192,106379,1,0,0:0:0:0:
64,192,106480,1,2,0:0:0:0:
320,192,106580,1,0,0:0:0:0:
448,192,106681,1,8,3:0:0:0:
64,192,106681,1,0,3:0:0:0:
192,192,106782,1,0,0:0:0:0:
320,192,106882,1,2,0:0:0:0:
448,192,106983,1,0,0:0:0:0:
64,192,107084,1,0,3:0:0:0:
320,192,107084,1,0,0:0:0:0:
192,192,107184,1,0,0:0:0:0:
448,192,107285,1,2,0:0:0:0:
320,192,107386,1,0,0:0:0:0:
192,192,107486,1,0,3:0:0:0:
64,192,107486,1,8,3:0:0:0:
320,192,107587,1,0,0:0:0:0:
448,192,107688,1,2,0:0:0:0:
192,192,107788,1,0,0:0:0:0:
320,192,107889,1,0,3:0:0:0:
64,192,107889,1,0,0:0:0:0:
448,192,107990,1,0,0:0:0:0:
64,192,108090,1,2,0:0:0:0:
192,192,108191,1,0,0:0:0:0:
448,192,108292,1,8,3:0:0:0:
320,192,108292,1,0,3:0:0:0:
192,192,108392,1,2,0:0:0:0:
64,192,108493,1,2,0:0:0:0:
448,192,108594,1,8,3:0:0:0:
320,192,108594,1,0,0:0:0:0:
192,192,108694,1,0,3:0:0:0:
64,192,108694,1,0,0:0:0:0:
448,192,108795,1,8,3:0:0:0:
320,192,108795,1,0,0:0:0:0:
64,192,108896,1,0,3:0:0:0:
192,192,108963,1,0,3:0:0:0:
320,192,109030,1,0,3:0:0:0:
192,192,109097,1,4,3:0:0:0:
448,192,109097,1,0,0:0:0:0:
64,192,109198,1,2,0:0:0:0:
320,192,109298,1,8,3:0:0:0:
448,192,109298,1,0,0:0:0:0:
64,192,109399,1,0,0:0:0:0:
192,192,109399,1,8,3:0:0:0:
320,192,109500,1,4,3:0:0:0:
448,192,109500,1,2,3:0:0:0:
192,192,109600,1,0,0:0:0:0:
64,192,109701,1,2,0:0:0:0:
320,192,109802,1,0,0:0:0:0:
192,192,109902,1,0,3:0:0:0:
448,192,109902,1,8,3:0:0:0:
64,192,110003,1,0,0:0:0:0:
320,192,110104,1,2,0:0:0:0:
192,192,110204,1,0,0:0:0:0:
320,192,110305,1,0,0:0:0:0:
64,192,110305,1,0,3:0:0:0:
448,192,110406,1,0,0:0:0:0:
64,192,110506,1,2,0:0:0:0:
192,192,110607,1,0,0:0:0:0:
320,192,110708,1,0,3:0:0:0:
448,192,110708,1,8,3:0:0:0:
192,192,110808,1,0,0:0:0:0:
64,192,110909,1,2,0:0:0:0:
448,192,111010,1,0,0:0:0:0:
320,192,111110,1,0,3:0:0:0:
64,192,111110,1,0,0:0:0:0:
192,192,111211,1,0,0:0:0:0:
448,192,111312,1,2,0:0:0:0:
320,192,111412,1,0,0:0:0:0:
192,192,111513,1,0,3:0:0:0:
64,192,111513,1,8,3:0:0:0:
448,192,111614,1,0,0:0:0:0:
192,192,111714,1,2,0:0:0:0:
320,192,111815,1,0,0:0:0:0:
448,192,111916,1,0,3:0:0:0:
64,192,111916,1,0,0:0:0:0:
192,192,112016,1,0,0:0:0:0:
320,192,112117,1,2,0:0:0:0:
192,192,112218,1,0,0:0:0:0:
64,192,112318,1,0,3:0:0:0:
448,192,112318,1,8,3:0:0:0:
320,192,112419,1,0,0:0:0:0:
192,192,112520,1,2,0:0:0:0:
64,192,112621,1,0,0:0:0:0:
320,192,112721,1,0,0:0:0:0:
448,192,112721,1,0,3:0:0:0:
192,192,112822,1,0,0:0:0:0:
64,192,112923,1,8,3:0:0:0:
448,192,112990,1,8,3:0:0:0:
320,192,113057,1,8,3:0:0:0:
192,192,113124,1,0,3:0:0:0:
64,192,113124,1,4,3:0:0:0:
448,192,113225,1,0,3:0:0:0:
192,192,113325,1,0,3:0:0:0:
320,192,113426,1,0,3:0:0:0:
192,192,113527,1,0,3:0:0:0:
64,192,113527,1,4,3:0:0:0:
448,192,113627,1,0,3:0:0:0:
64,192,113728,1,0,3:0:0:0:
192,192,113829,1,0,3:0:0:0:
448,192,113929,1,0,3:0:0:0:
320,192,113929,1,4,3:0:0:0:
192,192,114030,1,0,3:0:0:0:
320,192,114131,1,0,3:0:0:0:
192,192,114231,1,0,3:0:0:0:
320,192,114332,1,8,3:0:0:0:
448,192,114332,1,4,3:0:0:0:
192,192,114433,1,8,3:0:0:0:
64,192,114433,1,0,0:0:0:0:
320,192,114533,1,8,3:0:0:0:
448,192,114533,1,0,0:0:0:0:
64,192,114634,1,0,0:0:0:0:
320,192,114735,1,8,3:0:0:0:
448,192,114735,1,4,3:0:0:0:
64,192,114835,1,0,0:0:0:0:
192,192,114835,1,8,3:0:0:0:
320,192,114936,1,0,0:0:0:0:
448,192,114936,1,8,3:0:0:0:
64,192,115037,1,0,0:0:0:0:
448,192,115137,1,8,3:0:0:0:
192,192,115137,1,4,3:0:0:0:
320,192,115238,1,8,3:0:0:0:
192,192,115339,1,8,3:0:0:0:
448,192,115439,1,8,3:0:0:0:
64,192,115540,1,8,3:0:0:0:
192,192,115540,1,4,3:0:0:0:
320,192,115641,1,8,3:0:0:0:
64,192,115741,1,8,3:0:0:0:
320,192,115842,1,8,3:0:0:0:
192,192,115943,1,0,3:0:0:0:
448,192,115943,1,4,3:0:0:0:
64,192,116043,1,0,0:0:0:0:
320,192,116144,1,8,3:0:0:0:
192,192,116211,1,8,3:0:0:0:
64,192,116278,1,8,3:0:0:0:
320,192,116345,1,8,3:0:0:0:
448,192,116345,1,4,3:0:0:0:
192,192,116446,1,8,3:0:0:0:
448,192,116547,1,8,3:0:0:0:
64,192,116647,1,8,3:0:0:0:
320,192,116748,1,0,3:0:0:0:
448,192,116748,1,4,3:0:0:0:
192,192,116849,1,0,3:0:0:0:
320,192,116949,1,0,3:0:0:0:
448,192,117050,1,0,3:0:0:0:
64,192,117151,1,8,3:0:0:0:
192,192,117151,1,0,3:0:0:0:
320,192,117251,5,0,3:0:0:0:
448,192,117251,1,8,3:0:0:0:
64,192,117352,1,8,3:0:0:0:
192,192,117352,1,0,3:0:0:0:
448,192,117453,1,4,3:0:0:0:
320,192,117453,1,8,3:0:0:0:
448,192,117654,1,8,3:0:0:0:
64,192,117654,1,4,3:0:0:0:
320,192,117755,1,12,3:0:0:0:
192,192,117855,1,12,3:0:0:0:
320,192,117956,1,8,3:0:0:0:
448,192,117956,1,4,3:0:0:0:
64,192,118057,1,12,3:0:0:0:
320,192,118157,1,12,3:0:0:0:
192,192,118258,1,12,3:0:0:0:
448,192,118359,128,2,119164:3:0:0:0:
320,192,118359,128,4,119164:3:0:0:0:
64,192,118359,128,8,119164:3:0:0:0:
