osu file format v14

[General]
AudioFilename: audio.mp3
AudioLeadIn: 0
PreviewTime: 72453
Countdown: 0
SampleSet: Soft
StackLeniency: 0.7
Mode: 3
LetterboxInBreaks: 0
SpecialStyle: 0
WidescreenStoryboard: 0

[Editor]
Bookmarks: 4802,11245,17688,20909,27352,33795,46681,53124,59567,66010,70842,72453,74063,80506,85339,86949,93392,98225,99835,103057,109500,114332,115943,119164
DistanceSpacing: 1.1
BeatDivisor: 8
GridSize: 16
TimelineZoom: 2

[Metadata]
Title:ETERNAL DRAIN
TitleUnicode:ETERNAL DRAIN
Artist:Colorful Sounds Port
ArtistUnicode:カラフル・サウンズ・ポート
Creator:Wh1teh
Version:Beginner
Source:BMS
Tags:DELAYMASTER+ DELAYMASTER DELAY MASTER PLUS ANIME POP BOF2011 THE BOF OF FIGHTERS 2011
BeatmapID:1002540
BeatmapSetID:468353

[Difficulty]
HPDrainRate:6.5
CircleSize:4
OverallDifficulty:6.5
ApproachRate:5
SliderMultiplier:1.4
SliderTickRate:1

[Events]
//Background and Video events
0,0,"eternal_title_v2.jpg",0,0
//Break Periods
//Storyboard Layer 0 (Background)
//Storyboard Layer 1 (Fail)
//Storyboard Layer 2 (Pass)
//Storyboard Layer 3 (Foreground)
//Storyboard Sound Samples

[TimingPoints]
-30,402.684563758389,4,2,1,55,1,0
74063,-100,4,2,1,70,0,1
101446,-100,4,2,1,55,0,0

[HitObjects]
64,192,4802,5,0,0:0:0:0:
448,192,4802,1,6,3:0:0:0:
320,192,5607,1,0,0:0:0:0:
192,192,6412,1,0,0:0:0:0:
448,192,7218,1,0,0:0:0:0:
192,192,8023,1,0,0:0:0:0:
64,192,8829,1,0,0:0:0:0:
448,192,9634,1,0,0:0:0:0:
320,192,10238,1,0,0:0:0:0:
64,192,10439,1,0,0:0:0:0:
448,192,11245,1,6,3:0:0:0:
192,192,11245,1,0,0:0:0:0:
320,192,11647,1,8,3:0:0:0:
192,192,12251,1,2,0:0:0:0:
448,192,12453,1,8,3:0:0:0:
64,192,12855,1,0,3:0:0:0:
448,192,13258,1,8,3:0:0:0:
192,192,13862,1,2,0:0:0:0:
448,192,14063,1,8,3:0:0:0:
192,192,14466,1,0,3:0:0:0:
320,192,14869,1,8,3:0:0:0:
320,192,15473,1,2,0:0:0:0:
64,192,15674,1,8,3:0:0:0:
320,192,15876,1,2,0:0:0:0:
448,192,16077,1,0,3:0:0:0:
320,192,16480,1,8,3:0:0:0:
192,192,16882,1,2,0:0:0:0:
64,192,17285,1,8,3:0:0:0:
192,192,17486,1,8,3:0:0:0:
320,192,17688,1,2,3:0:0:0:
448,192,17688,1,4,3:0:0:0:
448,192,18493,1,0,0:0:0:0:
64,192,18493,1,4,3:0:0:0:
448,192,19298,128,8,19500:3:0:0:0:
64,192,19701,128,8,19902:3:0:0:0:
320,192,20104,128,8,20909:3:0:0:0:
64,192,20909,1,6,3:0:0:0:
448,192,21513,1,2,0:0:0:0:
192,192,21714,1,0,3:0:0:0:
64,192,22318,1,2,0:0:0:0:
320,192,22520,1,0,3:0:0:0:
320,192,23124,1,2,0:0:0:0:
192,192,23325,1,0,3:0:0:0:
64,192,23728,1,8,3:0:0:0:
448,192,24131,1,0,3:0:0:0:
320,192,24735,1,2,0:0:0:0:
192,192,24936,1,0,0:0:0:0:
64,192,25137,1,2,0:0:0:0:
192,192,25339,1,8,3:0:0:0:
320,192,25540,1,2,0:0:0:0:
448,192,25741,1,0,3:0:0:0:
64,192,26144,1,8,3:0:0:0:
192,192,26547,1,0,3:0:0:0:
448,192,26949,1,4,3:0:0:0:
64,192,27352,1,6,3:0:0:0:
192,192,27352,1,0,0:0:0:0:
320,192,27956,1,2,0:0:0:0:
192,192,28157,1,0,3:0:0:0:
448,192,28761,1,2,0:0:0:0:
64,192,28963,1,0,3:0:0:0:
448,192,29567,1,2,0:0:0:0:
320,192,29768,1,0,3:0:0:0:
192,192,29969,1,2,0:0:0:0:
64,192,30171,1,8,3:0:0:0:
448,192,30372,1,2,0:0:0:0:
64,192,30574,1,4,3:0:0:0:
448,192,30976,1,12,3:0:0:0:
320,192,31379,1,4,3:0:0:0:
192,192,31782,1,8,3:0:0:0:
64,192,32184,128,12,32386:3:0:0:0:
192,192,32587,128,12,32788:3:0:0:0:
320,192,32990,128,14,33191:3:0:0:0:
448,192,33392,128,10,33795:3:0:0:0:
192,192,33795,1,4,3:0:0:0:
448,192,34198,1,8,3:0:0:0:
64,192,34600,1,0,3:0:0:0:
320,192,35003,1,8,3:0:0:0:
64,192,35406,1,0,3:0:0:0:
192,192,35808,1,8,3:0:0:0:
448,192,36211,1,0,3:0:0:0:
448,192,36614,1,8,3:0:0:0:
64,192,37016,1,0,3:0:0:0:
192,192,37419,1,8,3:0:0:0:
320,192,37822,1,0,3:0:0:0:
64,192,38225,1,8,3:0:0:0:
448,192,38627,1,0,3:0:0:0:
192,192,39030,1,8,3:0:0:0:
320,192,39433,1,0,3:0:0:0:
320,192,39835,1,8,3:0:0:0:
64,192,40037,1,8,3:0:0:0:
192,192,40238,1,4,3:0:0:0:
448,192,40641,1,8,3:0:0:0:
192,192,41043,1,0,3:0:0:0:
320,192,41446,1,8,3:0:0:0:
64,192,41849,1,0,3:0:0:0:
320,192,42251,1,8,3:0:0:0:
192,192,42654,1,0,3:0:0:0:
448,192,43057,1,8,3:0:0:0:
320,192,43459,1,0,3:0:0:0:
448,192,43862,1,8,3:0:0:0:
64,192,44265,1,0,3:0:0:0:
320,192,44667,1,8,3:0:0:0:
64,192,45070,1,0,3:0:0:0:
320,192,45272,1,8,3:0:0:0:
320,192,45473,1,8,3:0:0:0:
192,192,45876,1,0,3:0:0:0:
448,192,46278,1,8,3:0:0:0:
320,192,46480,1,8,3:0:0:0:
64,192,46681,1,2,3:0:0:0:
192,192,46681,1,4,3:0:0:0:
320,192,47084,1,8,3:0:0:0:
64,192,47285,5,2,0:0:0:0:
192,192,47486,1,0,3:0:0:0:
320,192,47688,1,2,0:0:0:0:
448,192,47889,1,8,3:0:0:0:
192,192,48090,1,2,0:0:0:0:
320,192,48292,1,0,3:0:0:0:
448,192,48694,1,8,3:0:0:0:
64,192,49097,1,0,3:0:0:0:
64,192,49500,1,8,3:0:0:0:
320,192,49902,1,0,3:0:0:0:
192,192,50305,1,8,3:0:0:0:
448,192,50506,1,2,0:0:0:0:
320,192,50708,1,0,3:0:0:0:
64,192,50909,1,2,0:0:0:0:
192,192,51110,1,8,3:0:0:0:
320,192,51312,1,2,0:0:0:0:
448,192,51513,1,0,3:0:0:0:
192,192,51916,1,8,3:0:0:0:
320,192,52318,1,0,3:0:0:0:
320,192,52721,1,8,3:0:0:0:
64,192,52923,1,8,3:0:0:0:
192,192,53124,1,4,3:0:0:0:
448,192,53124,1,0,0:0:0:0:
320,192,53527,1,8,3:0:0:0:
320,192,53929,1,0,3:0:0:0:
64,192,53929,1,0,0:0:0:0:
448,192,54332,1,8,3:0:0:0:
192,192,54735,1,0,3:0:0:0:
448,192,54735,1,0,0:0:0:0:
64,192,55137,1,8,3:0:0:0:
64,192,55540,1,0,3:0:0:0:
320,192,55540,1,0,0:0:0:0:
448,192,55943,1,8,3:0:0:0:
192,192,56144,1,2,0:0:0:0:
320,192,56345,1,0,3:0:0:0:
448,192,56748,1,8,3:0:0:0:
64,192,57151,1,0,3:0:0:0:
320,192,57553,1,8,3:0:0:0:
64,192,57956,1,0,3:0:0:0:
448,192,58157,1,10,3:0:0:0:
192,192,58359,1,6,3:0:0:0:
320,192,58761,1,6,3:0:0:0:
64,192,58761,1,0,0:0:0:0:
192,192,59164,1,12,3:0:0:0:
448,192,59164,1,0,0:0:0:0:
64,192,59567,1,0,3:0:0:0:
320,192,59969,1,8,3:0:0:0:
192,192,60372,1,0,3:0:0:0:
320,192,60574,1,2,0:0:0:0:
448,192,60775,1,8,3:0:0:0:
320,192,60976,1,2,0:0:0:0:
192,192,61178,1,0,3:0:0:0:
448,192,61580,1,8,3:0:0:0:
320,192,61983,1,0,3:0:0:0:
192,192,62184,1,0,3:0:0:0:
64,192,62386,1,8,3:0:0:0:
192,192,62587,1,2,0:0:0:0:
320,192,62788,1,0,3:0:0:0:
64,192,63191,1,8,3:0:0:0:
192,192,63594,1,0,3:0:0:0:
320,192,63996,1,8,3:0:0:0:
448,192,64399,1,0,3:0:0:0:
192,192,64600,1,8,3:0:0:0:
320,192,64802,1,12,3:0:0:0:
192,192,65204,1,4,3:0:0:0:
64,192,65607,1,4,3:0:0:0:
448,192,66010,1,2,3:0:0:0:
320,192,66010,1,4,3:0:0:0:
192,192,66412,1,8,3:0:0:0:
448,192,66815,1,0,3:0:0:0:
64,192,67016,1,0,3:0:0:0:
192,192,67218,1,8,3:0:0:0:
320,192,67419,1,2,0:0:0:0:
448,192,67621,1,0,3:0:0:0:
192,192,68023,1,8,3:0:0:0:
448,192,68426,1,0,3:0:0:0:
320,192,68627,1,2,0:0:0:0:
192,192,68829,1,8,3:0:0:0:
64,192,69030,1,8,3:0:0:0:
448,192,69231,1,2,3:0:0:0:
320,192,69231,1,4,3:0:0:0:
64,192,69634,1,8,3:0:0:0:
448,192,70037,1,2,3:0:0:0:
192,192,70037,1,0,3:0:0:0:
320,192,70439,1,8,3:0:0:0:
64,192,70842,1,2,3:0:0:0:
192,192,70842,1,0,3:0:0:0:
448,192,71043,1,0,3:0:0:0:
64,192,71245,1,14,3:0:0:0:
320,192,71647,1,4,3:0:0:0:
192,192,72050,1,4,3:0:0:0:
64,192,72453,1,14,3:0:0:0:
192,192,72654,1,8,3:0:0:0:
320,192,72855,1,8,3:0:0:0:
448,192,73057,1,8,3:0:0:0:
64,192,73258,1,6,3:0:0:0:
192,192,73459,1,8,3:0:0:0:
320,192,73661,1,6,3:0:0:0:
448,192,73862,1,8,3:0:0:0:
192,192,74063,1,4,3:0:0:0:
448,192,74466,128,8,74869:3:0:0:0:
64,192,74869,1,0,3:0:0:0:
192,192,75272,128,8,75674:3:0:0:0:
448,192,75674,1,0,3:0:0:0:
64,192,76077,128,8,76480:3:0:0:0:
448,192,76480,1,0,3:0:0:0:
320,192,76882,128,8,77285:3:0:0:0:
64,192,77285,1,0,3:0:0:0:
448,192,77688,128,8,78090:3:0:0:0:
192,192,78090,1,0,3:0:0:0:
64,192,78493,128,8,78896:3:0:0:0:
448,192,78896,1,0,3:0:0:0:
192,192,79298,1,8,3:0:0:0:
448,192,79701,1,0,3:0:0:0:
320,192,79902,1,8,3:0:0:0:
192,192,80104,1,4,3:0:0:0:
64,192,80305,1,8,3:0:0:0:
448,192,80506,1,6,3:0:0:0:
320,192,80909,128,8,81312:3:0:0:0:
64,192,81312,1,0,3:0:0:0:
192,192,81714,128,8,82117:3:0:0:0:
320,192,82117,1,0,3:0:0:0:
64,192,82520,128,8,82923:3:0:0:0:
448,192,82923,1,0,3:0:0:0:
320,192,83325,128,8,83728:3:0:0:0:
64,192,83728,1,4,3:0:0:0:
320,192,84131,1,0,3:0:0:0:
448,192,84131,1,8,3:0:0:0:
320,192,84533,1,4,3:0:0:0:
192,192,84533,1,8,3:0:0:0:
192,192,84936,1,8,3:0:0:0:
64,192,84936,1,4,3:0:0:0:
448,192,85339,128,8,85540:3:0:0:0:
64,192,85741,128,8,85943:3:0:0:0:
192,192,86144,128,8,86949:3:0:0:0:
448,192,86949,1,4,3:0:0:0:
320,192,87352,128,8,87755:3:0:0:0:
64,192,87755,1,0,3:0:0:0:
192,192,88157,128,8,88560:3:0:0:0:
320,192,88560,1,0,3:0:0:0:
64,192,88963,128,8,89365:3:0:0:0:
448,192,89365,1,0,3:0:0:0:
320,192,89768,128,8,90171:3:0:0:0:
192,192,90171,1,0,3:0:0:0:
448,192,90574,128,8,90976:3:0:0:0:
64,192,90976,1,0,3:0:0:0:
192,192,91379,128,8,91782:3:0:0:0:
448,192,91782,1,4,3:0:0:0:
64,192,92184,1,0,0:0:0:0:
448,192,92587,1,8,3:0:0:0:
320,192,92788,1,0,3:0:0:0:
192,192,92990,1,8,3:0:0:0:
64,192,93191,1,8,3:0:0:0:
320,192,93392,1,6,3:0:0:0:
64,192,93795,128,8,94198:3:0:0:0:
448,192,94198,1,0,3:0:0:0:
192,192,94600,128,8,95003:3:0:0:0:
320,192,95003,1,0,3:0:0:0:
64,192,95406,128,8,95808:3:0:0:0:
448,192,95808,1,0,3:0:0:0:
320,192,96211,128,8,96614:3:0:0:0:
192,192,96614,1,0,3:0:0:0:
192,192,97016,1,8,3:0:0:0:
64,192,97016,1,4,3:0:0:0:
64,192,97419,1,4,3:0:0:0:
320,192,97419,1,8,3:0:0:0:
192,192,97822,1,0,3:0:0:0:
448,192,97822,1,4,3:0:0:0:
448,192,98225,128,8,98426:3:0:0:0:
64,192,98627,128,8,98829:3:0:0:0:
320,192,99030,128,8,99835:3:0:0:0:
448,192,99835,1,4,3:0:0:0:
192,192,100238,1,12,3:0:0:0:
320,192,100641,1,12,3:0:0:0:
192,192,101043,1,4,3:0:0:0:
448,192,101446,1,4,3:0:0:0:
64,192,101446,1,2,3:0:0:0:
64,192,103057,1,6,3:0:0:0:
320,192,103057,1,0,0:0:0:0:
448,192,103661,1,2,0:0:0:0:
192,192,103862,1,0,3:0:0:0:
64,192,104466,1,2,0:0:0:0:
320,192,104667,1,0,3:0:0:0:
320,192,105272,1,2,0:0:0:0:
192,192,105473,1,0,3:0:0:0:
64,192,105876,1,8,3:0:0:0:
448,192,106278,1,0,3:0:0:0:
64,192,106882,1,2,0:0:0:0:
192,192,107084,1,0,0:0:0:0:
320,192,107285,1,2,0:0:0:0:
448,192,107486,1,8,3:0:0:0:
192,192,107688,1,2,0:0:0:0:
320,192,107889,1,0,3:0:0:0:
64,192,108292,1,8,3:0:0:0:
192,192,108694,1,0,3:0:0:0:
448,192,109097,1,4,3:0:0:0:
192,192,109500,1,0,0:0:0:0:
64,192,109500,1,6,3:0:0:0:
320,192,110104,1,2,0:0:0:0:
192,192,110305,1,0,3:0:0:0:
448,192,110909,1,2,0:0:0:0:
64,192,111110,1,0,3:0:0:0:
448,192,111714,1,2,0:0:0:0:
320,192,111916,1,0,3:0:0:0:
192,192,112117,1,2,0:0:0:0:
64,192,112318,1,8,3:0:0:0:
320,192,112520,1,2,0:0:0:0:
192,192,112721,1,4,3:0:0:0:
448,192,113124,1,4,3:0:0:0:
320,192,113527,1,4,3:0:0:0:
192,192,113929,1,8,3:0:0:0:
64,192,114332,128,12,114936:3:0:0:0:
320,192,114936,128,8,115540:3:0:0:0:
448,192,115540,128,12,115943:3:0:0:0:
64,192,115943,128,4,117151:3:0:0:0:
320,192,116345,1,12,3:0:0:0:
448,192,116748,1,4,3:0:0:0:
320,192,117151,128,12,117352:3:0:0:0:
192,192,117352,128,12,117553:3:0:0:0:
320,192,117654,128,12,118359:3:0:0:0:
448,192,118359,128,2,119164:3:0:0:0:
64,192,118359,128,12,119164:3:0:0:0:
