osu file format v14

[General]
AudioFilename: ngisep abadi.mp3
AudioLeadIn: 0
PreviewTime: 72458
Countdown: 0
SampleSet: Normal
StackLeniency: 0.7
Mode: 1
LetterboxInBreaks: 0
WidescreenStoryboard: 1

[Editor]
Bookmarks: 4806,17692,20914,33800,46686,59572,74068,86954,103062
DistanceSpacing: 1.3
BeatDivisor: 8
GridSize: 32
TimelineZoom: 2.899999

[Metadata]
Title:ETERNAL DRAIN
TitleUnicode:ETERNAL DRAIN
Artist:Colorful Sounds Port
ArtistUnicode:カラフル・サウンズ・ポート
Creator:Shirai-
Version:Oni
Source:
Tags:
BeatmapID:1347518
BeatmapSetID:625899

[Difficulty]
HPDrainRate:5
CircleSize:5
OverallDifficulty:7
ApproachRate:5
SliderMultiplier:1.4
SliderTickRate:1

[Events]
//Background and Video events
0,0,"BG.jpg",0,0
//Break Periods
//Storyboard Layer 0 (Background)
//Storyboard Layer 1 (Fail)
//Storyboard Layer 2 (Pass)
//Storyboard Layer 3 (Foreground)
//Storyboard Layer 4 (Overlay)
//Storyboard Sound Samples

[TimingPoints]
4807,402.684563758389,4,1,0,80,1,0
19303,-66.6666666666667,4,1,0,80,0,0
20914,-66.6666666666667,4,1,0,80,0,1
34001,-100,4,1,0,80,0,0
72458,-66.6666666666667,4,1,0,80,0,0
74068,-66.6666666666667,4,1,0,80,0,1
101451,-66.6666666666667,4,1,0,80,0,0
103062,-66.6666666666667,4,1,0,80,0,1
117155,-37.593984962406,4,1,0,80,0,1
118364,-25,4,1,0,80,0,0

[HitObjects]
192,256,4806,5,4,0:0:0:0:
288,256,5008,1,0,0:0:0:0:
288,256,5109,1,8,0:0:0:0:
320,224,5311,1,0,0:0:0:0:
320,224,5411,1,8,0:0:0:0:
320,224,5512,1,8,0:0:0:0:
320,224,5612,1,0,0:0:0:0:
192,160,5813,1,0,0:0:0:0:
192,160,5914,1,8,0:0:0:0:
224,224,6115,1,0,0:0:0:0:
224,224,6216,1,8,0:0:0:0:
224,224,6317,1,0,0:0:0:0:
224,224,6417,1,0,0:0:0:0:
288,160,6619,1,0,0:0:0:0:
288,160,6719,1,8,0:0:0:0:
320,224,6921,1,0,0:0:0:0:
320,224,7021,1,8,0:0:0:0:
320,224,7122,1,8,0:0:0:0:
320,224,7223,1,0,0:0:0:0:
320,224,7424,1,0,0:0:0:0:
256,224,7525,1,8,0:0:0:0:
256,224,7625,1,0,0:0:0:0:
256,224,7726,1,0,0:0:0:0:
256,224,7827,1,8,0:0:0:0:
192,192,7927,1,8,0:0:0:0:
192,192,8028,1,0,0:0:0:0:
384,128,8229,1,0,0:0:0:0:
256,160,8330,1,8,0:0:0:0:
256,224,8531,1,0,0:0:0:0:
288,224,8632,1,8,0:0:0:0:
288,224,8733,1,8,0:0:0:0:
288,224,8833,1,0,0:0:0:0:
256,224,9035,1,0,0:0:0:0:
256,224,9135,1,8,0:0:0:0:
256,224,9337,1,0,0:0:0:0:
256,224,9437,1,8,0:0:0:0:
256,224,9538,1,0,0:0:0:0:
256,224,9639,1,8,0:0:0:0:
224,128,9840,1,0,0:0:0:0:
224,192,10041,1,8,0:0:0:0:
224,224,10243,1,0,0:0:0:0:
224,192,10343,1,8,0:0:0:0:
224,192,10444,1,8,0:0:0:0:
224,192,10545,1,0,0:0:0:0:
288,256,10645,1,0,0:0:0:0:
256,224,10746,1,0,0:0:0:0:
288,224,10847,1,8,0:0:0:0:
288,192,11048,1,8,0:0:0:0:
288,192,11149,1,8,0:0:0:0:
384,224,11249,1,4,0:0:0:0:
320,192,11451,1,0,0:0:0:0:
352,192,11652,1,8,0:0:0:0:
352,160,11853,1,8,0:0:0:0:
192,128,11954,1,0,0:0:0:0:
192,128,12055,1,8,0:0:0:0:
288,128,12155,1,8,0:0:0:0:
256,192,12256,1,0,0:0:0:0:
256,192,12357,1,0,0:0:0:0:
256,192,12458,1,8,0:0:0:0:
288,224,12659,1,8,0:0:0:0:
288,224,12760,1,8,0:0:0:0:
288,224,12860,1,0,0:0:0:0:
288,224,13062,1,0,0:0:0:0:
288,224,13162,1,0,0:0:0:0:
288,224,13263,1,8,0:0:0:0:
256,224,13464,1,0,0:0:0:0:
256,224,13565,1,8,0:0:0:0:
256,224,13666,1,0,0:0:0:0:
256,224,13766,1,8,0:0:0:0:
256,224,13867,1,0,0:0:0:0:
256,224,13968,1,0,0:0:0:0:
256,224,14068,1,8,0:0:0:0:
256,192,14270,1,8,0:0:0:0:
256,192,14370,1,8,0:0:0:0:
256,192,14471,1,0,0:0:0:0:
192,192,14672,1,0,0:0:0:0:
224,160,14874,1,8,0:0:0:0:
288,160,15075,1,0,0:0:0:0:
288,160,15176,1,8,0:0:0:0:
288,160,15276,1,0,0:0:0:0:
288,128,15377,1,0,0:0:0:0:
288,128,15478,1,0,0:0:0:0:
192,192,15679,1,8,0:0:0:0:
192,192,15880,1,8,0:0:0:0:
192,192,15981,1,8,0:0:0:0:
192,192,16082,1,0,0:0:0:0:
192,160,16283,1,0,0:0:0:0:
32,160,16484,1,8,0:0:0:0:
224,160,16585,1,0,0:0:0:0:
256,192,16686,1,8,0:0:0:0:
256,192,16787,1,8,0:0:0:0:
256,192,16887,1,0,0:0:0:0:
256,192,16988,1,8,0:0:0:0:
256,160,17089,1,0,0:0:0:0:
256,160,17189,1,0,0:0:0:0:
160,192,17290,1,8,0:0:0:0:
160,160,17491,1,8,0:0:0:0:
224,160,17592,1,0,0:0:0:0:
384,192,17692,1,0,0:0:0:0:
384,192,17760,1,0,0:0:0:0:
384,192,17827,1,0,0:0:0:0:
352,192,17894,1,0,0:0:0:0:
384,96,17994,1,0,0:0:0:0:
384,96,18095,1,8,0:0:0:0:
288,192,18162,1,0,0:0:0:0:
51,150,18229,1,0,0:0:0:0:
288,192,18296,1,8,0:0:0:0:
288,192,18397,1,8,0:0:0:0:
256,224,18498,1,0,0:0:0:0:
256,224,18565,1,0,0:0:0:0:
256,224,18632,1,0,0:0:0:0:
256,224,18699,1,0,0:0:0:0:
256,256,18800,1,0,0:0:0:0:
256,256,18900,1,8,0:0:0:0:
256,256,18968,1,0,0:0:0:0:
74,121,19035,1,0,0:0:0:0:
256,256,19102,1,8,0:0:0:0:
256,288,19202,1,8,0:0:0:0:
320,128,19303,1,0,0:0:0:0:
256,192,19353,1,0,0:0:0:0:
192,160,19404,1,0,0:0:0:0:
192,160,19454,1,0,0:0:0:0:
256,192,19504,1,0,0:0:0:0:
320,160,19706,1,0,0:0:0:0:
320,160,19756,1,0,0:0:0:0:
320,160,19806,1,0,0:0:0:0:
320,160,19857,1,0,0:0:0:0:
320,160,19907,1,0,0:0:0:0:
320,160,20109,1,0,0:0:0:0:
156,115,20159,1,0,0:0:0:0:
156,115,20209,1,0,0:0:0:0:
156,115,20260,1,0,0:0:0:0:
156,115,20310,1,8,0:0:0:0:
156,115,20360,1,0,0:0:0:0:
253,135,20411,1,8,0:0:0:0:
253,135,20461,1,8,0:0:0:0:
253,135,20511,1,0,0:0:0:0:
188,122,20562,1,0,0:0:0:0:
188,122,20612,1,8,0:0:0:0:
188,122,20662,1,0,0:0:0:0:
188,122,20713,1,8,0:0:0:0:
221,81,20763,1,8,0:0:0:0:
221,81,20813,1,0,0:0:0:0:
256,256,20914,1,4,0:0:0:0:
288,224,21015,1,0,0:0:0:0:
288,224,21115,1,8,0:0:0:0:
288,192,21182,1,0,0:0:0:0:
184,115,21249,1,0,0:0:0:0:
288,192,21317,1,8,0:0:0:0:
288,192,21417,1,0,0:0:0:0:
81,144,21468,1,0,0:0:0:0:
288,192,21518,1,8,0:0:0:0:
224,192,21619,1,8,0:0:0:0:
224,192,21719,1,0,0:0:0:0:
192,192,21786,1,0,0:0:0:0:
52,122,21853,1,0,0:0:0:0:
128,160,21921,1,8,0:0:0:0:
224,224,22021,1,0,0:0:0:0:
192,224,22122,1,8,0:0:0:0:
256,128,22172,1,8,0:0:0:0:
256,192,22223,1,8,0:0:0:0:
160,138,22273,1,8,0:0:0:0:
256,192,22323,1,0,0:0:0:0:
256,192,22424,1,8,0:0:0:0:
160,224,22525,1,0,0:0:0:0:
288,224,22592,1,0,0:0:0:0:
160,128,22659,1,0,0:0:0:0:
352,256,22726,1,8,0:0:0:0:
384,256,22827,1,0,0:0:0:0:
384,256,22927,1,8,0:0:0:0:
256,160,22978,1,8,0:0:0:0:
288,160,23028,1,8,0:0:0:0:
260,125,23078,1,8,0:0:0:0:
192,128,23129,1,0,0:0:0:0:
154,117,23196,1,0,0:0:0:0:
192,128,23263,1,0,0:0:0:0:
192,128,23330,1,8,0:0:0:0:
192,128,23431,1,8,0:0:0:0:
224,128,23531,1,0,0:0:0:0:
224,128,23598,1,0,0:0:0:0:
130,147,23666,1,0,0:0:0:0:
224,128,23733,1,8,0:0:0:0:
320,192,23783,1,8,0:0:0:0:
352,128,23833,1,0,0:0:0:0:
256,128,23934,1,8,0:0:0:0:
256,128,24035,1,8,0:0:0:0:
256,128,24135,1,0,0:0:0:0:
256,160,24202,1,0,0:0:0:0:
224,192,24270,1,0,0:0:0:0:
288,160,24337,1,8,0:0:0:0:
256,160,24437,1,0,0:0:0:0:
288,160,24538,1,8,0:0:0:0:
64,224,24588,1,8,0:0:0:0:
288,160,24639,1,0,0:0:0:0:
384,96,24689,1,0,0:0:0:0:
204,138,24739,1,8,0:0:0:0:
352,96,24840,1,8,0:0:0:0:
256,224,24941,1,0,0:0:0:0:
170,137,24991,1,0,0:0:0:0:
256,224,25041,1,8,0:0:0:0:
256,224,25142,1,0,0:0:0:0:
160,160,25209,1,0,0:0:0:0:
75,120,25276,1,0,0:0:0:0:
288,192,25343,1,8,0:0:0:0:
320,96,25394,1,8,0:0:0:0:
192,192,25444,1,0,0:0:0:0:
288,192,25545,1,8,0:0:0:0:
288,192,25645,1,8,0:0:0:0:
288,192,25746,1,8,0:0:0:0:
128,128,25796,1,8,0:0:0:0:
224,224,25847,1,8,0:0:0:0:
160,160,25897,1,8,0:0:0:0:
320,192,25947,1,0,0:0:0:0:
288,192,26048,1,0,0:0:0:0:
320,192,26149,1,8,0:0:0:0:
224,192,26216,1,8,0:0:0:0:
224,160,26283,1,8,0:0:0:0:
352,224,26350,1,0,0:0:0:0:
224,96,26400,1,0,0:0:0:0:
352,224,26451,1,8,0:0:0:0:
224,96,26501,1,8,0:0:0:0:
352,224,26551,1,0,0:0:0:0:
352,224,26619,1,0,0:0:0:0:
171,136,26686,1,0,0:0:0:0:
352,224,26753,1,8,0:0:0:0:
352,224,26803,1,8,0:0:0:0:
288,96,26853,1,0,0:0:0:0:
116,97,26904,1,8,0:0:0:0:
352,224,26954,1,0,0:0:0:0:
384,192,27055,1,0,0:0:0:0:
224,96,27105,1,0,0:0:0:0:
384,192,27155,1,8,0:0:0:0:
384,192,27256,1,8,0:0:0:0:
384,192,27357,1,4,0:0:0:0:
65,127,27458,1,0,0:0:0:0:
320,192,27558,1,8,0:0:0:0:
320,192,27625,1,8,0:0:0:0:
256,64,27692,1,8,0:0:0:0:
192,160,27760,1,0,0:0:0:0:
288,192,27860,1,0,0:0:0:0:
231,133,27911,1,0,0:0:0:0:
288,192,27961,1,8,0:0:0:0:
288,192,28062,1,8,0:0:0:0:
288,192,28162,1,0,0:0:0:0:
288,192,28229,1,0,0:0:0:0:
192,160,28296,1,0,0:0:0:0:
288,192,28364,1,8,0:0:0:0:
141,119,28414,1,8,0:0:0:0:
192,128,28464,1,0,0:0:0:0:
216,77,28515,1,0,0:0:0:0:
192,128,28565,1,8,0:0:0:0:
256,128,28632,1,0,0:0:0:0:
176,152,28699,1,0,0:0:0:0:
256,64,28766,1,8,0:0:0:0:
256,64,28867,1,0,0:0:0:0:
256,64,28968,1,8,0:0:0:0:
160,160,29018,1,8,0:0:0:0:
192,192,29068,1,0,0:0:0:0:
192,192,29169,1,0,0:0:0:0:
192,192,29270,1,8,0:0:0:0:
320,128,29320,1,8,0:0:0:0:
192,192,29370,1,0,0:0:0:0:
141,123,29437,1,0,0:0:0:0:
192,192,29504,1,0,0:0:0:0:
192,192,29572,1,8,0:0:0:0:
192,192,29672,1,8,0:0:0:0:
192,160,29773,1,0,0:0:0:0:
256,192,29823,1,0,0:0:0:0:
256,128,29874,1,0,0:0:0:0:
256,192,29924,1,0,0:0:0:0:
256,128,29974,1,8,0:0:0:0:
256,128,30041,1,0,0:0:0:0:
217,137,30109,1,0,0:0:0:0:
256,128,30176,1,8,0:0:0:0:
320,128,30226,1,8,0:0:0:0:
256,128,30276,1,0,0:0:0:0:
192,128,30377,1,8,0:0:0:0:
192,128,30478,1,8,0:0:0:0:
192,128,30578,1,0,0:0:0:0:
96,192,30629,1,0,0:0:0:0:
96,192,30679,1,0,0:0:0:0:
96,160,30729,1,0,0:0:0:0:
224,160,30780,1,8,0:0:0:0:
256,192,30847,1,0,0:0:0:0:
233,134,30914,1,0,0:0:0:0:
256,192,30981,1,8,0:0:0:0:
256,192,31031,1,8,0:0:0:0:
256,192,31082,1,8,0:0:0:0:
256,192,31132,1,8,0:0:0:0:
256,192,31182,1,0,0:0:0:0:
179,139,31283,1,0,0:0:0:0:
288,224,31384,1,8,0:0:0:0:
288,224,31434,1,0,0:0:0:0:
288,224,31484,1,8,0:0:0:0:
288,224,31535,1,8,0:0:0:0:
288,224,31585,1,0,0:0:0:0:
224,128,31635,1,0,0:0:0:0:
128,160,31686,1,0,0:0:0:0:
160,128,31736,1,0,0:0:0:0:
160,128,31786,1,8,0:0:0:0:
192,160,31853,1,0,0:0:0:0:
148,118,31921,1,0,0:0:0:0:
192,160,31988,1,8,0:0:0:0:
166,172,32088,1,8,0:0:0:0:
192,160,32189,1,0,0:0:0:0:
256,160,32239,1,0,0:0:0:0:
256,160,32290,1,0,0:0:0:0:
256,160,32340,1,0,0:0:0:0:
256,160,32390,1,8,0:0:0:0:
256,160,32491,1,0,0:0:0:0:
256,160,32592,1,8,0:0:0:0:
256,96,32642,1,8,0:0:0:0:
288,128,32692,1,8,0:0:0:0:
256,96,32743,1,8,0:0:0:0:
224,192,32793,1,0,0:0:0:0:
224,192,32860,1,8,0:0:0:0:
224,128,32927,1,8,0:0:0:0:
192,128,32994,1,0,0:0:0:0:
192,128,33045,1,0,0:0:0:0:
192,128,33095,1,8,0:0:0:0:
192,64,33145,1,0,0:0:0:0:
224,96,33196,1,8,0:0:0:0:
256,96,33263,1,0,0:0:0:0:
256,96,33330,1,0,0:0:0:0:
256,96,33397,1,8,0:0:0:0:
224,143,33498,1,0,0:0:0:0:
256,96,33548,1,0,0:0:0:0:
256,96,33598,1,8,0:0:0:0:
288,64,33649,1,0,0:0:0:0:
288,64,33699,1,8,0:0:0:0:
288,64,33749,1,8,0:0:0:0:
288,64,33800,1,0,0:0:0:0:
160,192,34001,1,0,0:0:0:0:
192,192,34102,1,0,0:0:0:0:
192,192,34202,1,8,0:0:0:0:
224,128,34404,1,8,0:0:0:0:
224,128,34504,1,0,0:0:0:0:
320,192,34706,1,0,0:0:0:0:
320,192,34806,1,0,0:0:0:0:
320,192,35008,1,8,0:0:0:0:
352,160,35209,1,8,0:0:0:0:
86,145,35310,1,8,0:0:0:0:
352,160,35411,1,0,0:0:0:0:
352,160,35612,1,0,0:0:0:0:
352,160,35813,1,8,0:0:0:0:
224,128,36015,1,0,0:0:0:0:
224,128,36115,1,8,0:0:0:0:
119,107,36216,1,0,0:0:0:0:
224,128,36317,1,8,0:0:0:0:
224,128,36417,1,0,0:0:0:0:
224,128,36518,1,0,0:0:0:0:
224,128,36619,1,8,0:0:0:0:
256,96,36820,1,8,0:0:0:0:
288,96,36921,1,8,0:0:0:0:
256,160,37021,1,0,0:0:0:0:
224,160,37223,1,0,0:0:0:0:
224,160,37424,1,8,0:0:0:0:
224,160,37625,1,8,0:0:0:0:
224,160,37726,1,8,0:0:0:0:
256,160,37827,1,0,0:0:0:0:
156,118,37927,1,8,0:0:0:0:
288,96,38028,1,0,0:0:0:0:
49,120,38229,1,8,0:0:0:0:
288,96,38431,1,0,0:0:0:0:
76,152,38531,1,0,0:0:0:0:
288,96,38632,1,0,0:0:0:0:
288,64,38833,1,0,0:0:0:0:
288,64,38934,1,0,0:0:0:0:
288,64,39035,1,8,0:0:0:0:
256,192,39236,1,0,0:0:0:0:
256,192,39337,1,8,0:0:0:0:
237,130,39437,1,0,0:0:0:0:
256,192,39538,1,8,0:0:0:0:
256,192,39639,1,0,0:0:0:0:
256,192,39739,1,0,0:0:0:0:
256,192,39840,1,8,0:0:0:0:
320,192,39941,1,0,0:0:0:0:
320,192,40041,1,8,0:0:0:0:
320,192,40142,1,8,0:0:0:0:
320,192,40243,1,4,0:0:0:0:
213,32,40444,1,0,0:0:0:0:
224,160,40545,1,0,0:0:0:0:
224,160,40645,1,8,0:0:0:0:
224,160,40847,1,0,0:0:0:0:
224,160,40947,1,0,0:0:0:0:
224,160,41048,1,0,0:0:0:0:
256,160,41249,1,8,0:0:0:0:
126,162,41350,1,8,0:0:0:0:
256,224,41451,1,0,0:0:0:0:
282,168,41551,1,0,0:0:0:0:
256,192,41652,1,8,0:0:0:0:
256,192,41753,1,8,0:0:0:0:
256,192,41853,1,0,0:0:0:0:
224,160,42055,1,0,0:0:0:0:
352,192,42155,1,0,0:0:0:0:
352,192,42256,1,8,0:0:0:0:
352,192,42458,1,0,0:0:0:0:
352,192,42558,1,8,0:0:0:0:
352,192,42659,1,0,0:0:0:0:
64,128,42760,1,0,0:0:0:0:
384,160,42860,1,8,0:0:0:0:
384,160,42961,1,0,0:0:0:0:
384,160,43062,1,8,0:0:0:0:
384,160,43162,1,8,0:0:0:0:
384,160,43263,1,0,0:0:0:0:
256,128,43364,1,0,0:0:0:0:
256,128,43464,1,8,0:0:0:0:
288,192,43666,1,8,0:0:0:0:
288,192,43766,1,0,0:0:0:0:
288,192,43867,1,0,0:0:0:0:
320,192,44068,1,0,0:0:0:0:
320,192,44169,1,0,0:0:0:0:
320,192,44270,1,8,0:0:0:0:
352,192,44370,1,0,0:0:0:0:
352,160,44471,1,8,0:0:0:0:
352,160,44572,1,0,0:0:0:0:
352,160,44672,1,8,0:0:0:0:
288,192,44874,1,8,0:0:0:0:
288,192,44974,1,8,0:0:0:0:
288,192,45075,1,0,0:0:0:0:
288,192,45276,1,0,0:0:0:0:
288,192,45478,1,8,0:0:0:0:
320,160,45679,1,0,0:0:0:0:
320,160,45780,1,8,0:0:0:0:
320,160,45880,1,0,0:0:0:0:
320,160,45981,1,8,0:0:0:0:
320,160,46082,1,0,0:0:0:0:
352,160,46182,1,0,0:0:0:0:
352,160,46283,1,8,0:0:0:0:
188,56,46384,1,0,0:0:0:0:
352,160,46484,1,8,0:0:0:0:
352,160,46585,1,8,0:0:0:0:
352,160,46686,1,4,0:0:0:0:
224,160,46887,1,0,0:0:0:0:
224,160,46988,1,0,0:0:0:0:
224,160,47088,1,8,0:0:0:0:
320,224,47290,1,0,0:0:0:0:
320,224,47390,1,0,0:0:0:0:
320,224,47491,1,8,0:0:0:0:
320,192,47558,1,0,0:0:0:0:
166,158,47625,1,0,0:0:0:0:
320,192,47692,1,8,0:0:0:0:
320,192,47760,1,8,0:0:0:0:
224,160,47827,1,0,0:0:0:0:
320,192,47894,1,8,0:0:0:0:
150,40,47961,1,0,0:0:0:0:
166,139,48028,1,0,0:0:0:0:
224,160,48095,1,8,0:0:0:0:
224,160,48196,1,8,0:0:0:0:
192,192,48296,1,0,0:0:0:0:
224,160,48498,1,0,0:0:0:0:
256,160,48598,1,0,0:0:0:0:
256,160,48699,1,8,0:0:0:0:
224,224,48900,1,8,0:0:0:0:
224,224,49001,1,0,0:0:0:0:
224,224,49202,1,0,0:0:0:0:
224,224,49303,1,0,0:0:0:0:
256,192,49504,1,8,0:0:0:0:
320,160,49706,1,8,0:0:0:0:
320,160,49806,1,8,0:0:0:0:
320,160,49907,1,0,0:0:0:0:
352,160,50109,1,0,0:0:0:0:
288,192,50310,1,8,0:0:0:0:
320,192,50511,1,8,0:0:0:0:
320,192,50612,1,0,0:0:0:0:
320,192,50713,1,8,0:0:0:0:
320,192,50780,1,8,0:0:0:0:
46,144,50847,1,8,0:0:0:0:
320,192,50914,1,0,0:0:0:0:
320,192,50981,1,0,0:0:0:0:
145,118,51048,1,0,0:0:0:0:
320,192,51115,1,8,0:0:0:0:
320,192,51182,1,0,0:0:0:0:
130,125,51249,1,0,0:0:0:0:
320,192,51317,1,8,0:0:0:0:
320,192,51417,1,8,0:0:0:0:
320,192,51518,1,0,0:0:0:0:
320,192,51719,1,8,0:0:0:0:
320,192,51820,1,0,0:0:0:0:
320,160,52021,1,0,0:0:0:0:
320,160,52122,1,0,0:0:0:0:
320,160,52323,1,8,0:0:0:0:
288,160,52424,1,0,0:0:0:0:
288,160,52525,1,0,0:0:0:0:
288,160,52625,1,8,0:0:0:0:
288,160,52726,1,0,0:0:0:0:
192,64,52927,1,8,0:0:0:0:
224,128,53028,1,8,0:0:0:0:
224,64,53129,1,0,0:0:0:0:
166,139,53196,1,0,0:0:0:0:
164,123,53263,1,0,0:0:0:0:
288,128,53330,1,8,0:0:0:0:
256,160,53397,1,8,0:0:0:0:
256,128,53464,1,8,0:0:0:0:
64,160,53531,1,0,0:0:0:0:
224,160,53632,1,8,0:0:0:0:
256,160,53733,1,0,0:0:0:0:
224,160,53800,1,0,0:0:0:0:
224,128,53867,1,0,0:0:0:0:
224,128,53934,1,8,0:0:0:0:
203,139,54035,1,0,0:0:0:0:
224,128,54135,1,8,0:0:0:0:
224,160,54202,1,0,0:0:0:0:
149,115,54270,1,0,0:0:0:0:
224,160,54337,1,8,0:0:0:0:
256,160,54437,1,8,0:0:0:0:
256,160,54538,1,0,0:0:0:0:
256,160,54639,1,0,0:0:0:0:
224,160,54739,1,8,0:0:0:0:
192,96,54806,1,8,0:0:0:0:
155,131,54874,1,0,0:0:0:0:
192,96,54941,1,8,0:0:0:0:
192,96,55008,1,8,0:0:0:0:
127,138,55075,1,0,0:0:0:0:
192,96,55142,1,8,0:0:0:0:
192,96,55209,1,8,0:0:0:0:
161,125,55276,1,0,0:0:0:0:
192,96,55343,1,8,0:0:0:0:
224,128,55444,1,8,0:0:0:0:
224,96,55545,1,0,0:0:0:0:
256,128,55645,1,0,0:0:0:0:
256,128,55746,1,8,0:0:0:0:
256,128,55847,1,0,0:0:0:0:
256,128,55947,1,8,0:0:0:0:
122,108,56048,1,0,0:0:0:0:
288,160,56149,1,8,0:0:0:0:
288,160,56216,1,8,0:0:0:0:
106,125,56283,1,8,0:0:0:0:
288,160,56350,1,0,0:0:0:0:
256,224,56417,1,0,0:0:0:0:
125,128,56484,1,8,0:0:0:0:
256,224,56551,1,0,0:0:0:0:
256,224,56652,1,0,0:0:0:0:
256,224,56753,1,8,0:0:0:0:
288,224,56853,1,0,0:0:0:0:
288,224,56954,1,8,0:0:0:0:
288,224,57055,1,8,0:0:0:0:
288,224,57155,1,0,0:0:0:0:
256,224,57223,1,8,0:0:0:0:
114,141,57290,1,8,0:0:0:0:
256,224,57357,1,0,0:0:0:0:
256,224,57458,1,0,0:0:0:0:
256,224,57558,1,8,0:0:0:0:
288,224,57659,1,0,0:0:0:0:
288,224,57760,1,8,0:0:0:0:
288,224,57860,1,8,0:0:0:0:
288,224,57961,1,0,0:0:0:0:
256,192,58028,1,8,0:0:0:0:
132,122,58095,1,0,0:0:0:0:
256,192,58162,1,0,0:0:0:0:
256,192,58229,1,8,0:0:0:0:
151,136,58296,1,0,0:0:0:0:
256,192,58364,1,8,0:0:0:0:
106,120,58431,1,8,0:0:0:0:
288,288,58498,1,0,0:0:0:0:
288,288,58565,1,0,0:0:0:0:
288,288,58632,1,8,0:0:0:0:
146,131,58699,1,8,0:0:0:0:
256,288,58766,1,0,0:0:0:0:
256,288,58867,1,8,0:0:0:0:
256,256,58968,1,0,0:0:0:0:
256,256,59035,1,0,0:0:0:0:
179,143,59102,1,0,0:0:0:0:
256,256,59169,1,8,0:0:0:0:
320,192,59270,1,8,0:0:0:0:
320,192,59370,1,8,0:0:0:0:
320,192,59471,1,8,0:0:0:0:
320,192,59572,1,4,0:0:0:0:
253,105,59773,1,0,0:0:0:0:
253,105,59874,1,0,0:0:0:0:
253,105,59974,1,8,0:0:0:0:
281,93,60176,1,8,0:0:0:0:
281,93,60377,1,0,0:0:0:0:
286,88,60578,1,0,0:0:0:0:
286,88,60679,1,0,0:0:0:0:
286,88,60780,1,8,0:0:0:0:
371,58,60847,1,0,0:0:0:0:
371,58,60914,1,0,0:0:0:0:
438,48,60981,1,8,0:0:0:0:
308,95,61082,1,8,0:0:0:0:
287,136,61182,1,0,0:0:0:0:
265,201,61384,1,0,0:0:0:0:
290,67,61484,1,8,0:0:0:0:
256,171,61585,1,0,0:0:0:0:
253,111,61786,1,8,0:0:0:0:
253,111,61988,1,0,0:0:0:0:
405,53,62088,1,0,0:0:0:0:
405,53,62189,1,8,0:0:0:0:
258,114,62290,1,0,0:0:0:0:
258,113,62390,1,8,0:0:0:0:
208,79,62458,1,8,0:0:0:0:
208,79,62525,1,8,0:0:0:0:
308,59,62592,1,0,0:0:0:0:
143,139,62692,1,0,0:0:0:0:
308,41,62793,1,0,0:0:0:0:
213,130,62994,1,0,0:0:0:0:
213,130,63095,1,0,0:0:0:0:
213,130,63196,1,8,0:0:0:0:
213,130,63397,1,8,0:0:0:0:
213,130,63498,1,0,0:0:0:0:
220,124,63699,1,0,0:0:0:0:
220,124,63800,1,0,0:0:0:0:
226,120,64001,1,8,0:0:0:0:
226,119,64202,1,0,0:0:0:0:
226,119,64303,1,8,0:0:0:0:
226,119,64404,1,0,0:0:0:0:
226,119,64504,1,0,0:0:0:0:
226,119,64605,1,8,0:0:0:0:
226,119,64672,1,8,0:0:0:0:
180,139,64739,1,8,0:0:0:0:
120,133,64806,1,0,0:0:0:0:
243,111,64907,1,0,0:0:0:0:
246,112,65008,1,8,0:0:0:0:
246,112,65075,1,0,0:0:0:0:
144,118,65142,1,0,0:0:0:0:
246,112,65209,1,8,0:0:0:0:
246,112,65276,1,8,0:0:0:0:
176,133,65343,1,8,0:0:0:0:
215,97,65411,1,0,0:0:0:0:
215,97,65511,1,8,0:0:0:0:
215,97,65612,1,0,0:0:0:0:
225,108,65713,1,0,0:0:0:0:
225,108,65813,1,12,0:0:0:0:
225,107,65914,1,12,0:0:0:0:
225,107,66015,1,4,0:0:0:0:
182,122,66216,1,0,0:0:0:0:
185,121,66317,1,0,0:0:0:0:
182,122,66417,1,8,0:0:0:0:
196,107,66619,1,8,0:0:0:0:
196,106,66719,1,8,0:0:0:0:
196,106,66820,1,0,0:0:0:0:
226,67,67021,1,8,0:0:0:0:
226,67,67122,1,8,0:0:0:0:
226,67,67223,1,8,0:0:0:0:
143,149,67290,1,0,0:0:0:0:
113,136,67357,1,0,0:0:0:0:
226,67,67424,1,8,0:0:0:0:
263,109,67525,1,8,0:0:0:0:
192,160,67625,1,0,0:0:0:0:
288,192,67827,1,0,0:0:0:0:
288,192,67927,1,0,0:0:0:0:
288,192,68028,1,8,0:0:0:0:
288,160,68229,1,0,0:0:0:0:
288,160,68330,1,0,0:0:0:0:
224,160,68431,1,8,0:0:0:0:
160,192,68632,1,8,0:0:0:0:
160,192,68699,1,0,0:0:0:0:
160,192,68766,1,0,0:0:0:0:
160,192,68833,1,8,0:0:0:0:
224,160,68900,1,0,0:0:0:0:
127,122,68968,1,0,0:0:0:0:
160,192,69035,1,8,0:0:0:0:
160,192,69102,1,8,0:0:0:0:
160,192,69169,1,8,0:0:0:0:
160,192,69236,1,0,0:0:0:0:
256,160,69337,1,8,0:0:0:0:
256,160,69437,1,0,0:0:0:0:
288,160,69538,1,0,0:0:0:0:
288,160,69639,1,8,0:0:0:0:
288,160,69739,1,0,0:0:0:0:
352,160,69840,1,8,0:0:0:0:
352,160,69907,1,8,0:0:0:0:
352,160,69974,1,8,0:0:0:0:
320,160,70041,1,0,0:0:0:0:
288,128,70142,1,0,0:0:0:0:
352,192,70243,1,8,0:0:0:0:
352,192,70310,1,8,0:0:0:0:
352,192,70377,1,0,0:0:0:0:
352,192,70444,1,8,0:0:0:0:
352,192,70511,1,8,0:0:0:0:
352,192,70578,1,8,0:0:0:0:
352,192,70645,1,0,0:0:0:0:
352,192,70713,1,0,0:0:0:0:
352,192,70780,1,0,0:0:0:0:
352,192,70847,1,8,0:0:0:0:
192,192,70947,1,0,0:0:0:0:
192,192,71048,1,8,0:0:0:0:
192,160,71115,1,0,0:0:0:0:
128,160,71182,1,0,0:0:0:0:
192,160,71249,1,8,0:0:0:0:
192,160,71317,1,0,0:0:0:0:
201,82,71384,1,0,0:0:0:0:
192,160,71451,1,8,0:0:0:0:
256,128,71518,1,8,0:0:0:0:
256,128,71585,1,0,0:0:0:0:
256,128,71652,1,8,0:0:0:0:
128,128,71753,1,8,0:0:0:0:
352,128,71853,1,0,0:0:0:0:
96,160,71954,1,0,0:0:0:0:
352,128,72055,1,8,0:0:0:0:
352,128,72155,1,0,0:0:0:0:
123,125,72206,1,0,0:0:0:0:
224,96,72256,1,8,0:0:0:0:
274,143,72357,1,0,0:0:0:0:
193,169,72458,1,0,0:0:0:0:
211,153,72508,1,0,0:0:0:0:
211,152,72558,1,0,0:0:0:0:
211,153,72609,1,0,0:0:0:0:
211,147,72659,1,8,0:0:0:0:
211,141,72709,1,0,0:0:0:0:
211,141,72760,1,8,0:0:0:0:
211,141,72810,1,8,0:0:0:0:
211,141,72860,1,0,0:0:0:0:
211,141,72911,1,0,0:0:0:0:
211,141,72961,1,0,0:0:0:0:
211,141,73011,1,0,0:0:0:0:
211,141,73062,1,8,0:0:0:0:
176,102,73112,1,0,0:0:0:0:
176,102,73162,1,0,0:0:0:0:
176,102,73213,1,0,0:0:0:0:
176,102,73263,1,8,0:0:0:0:
176,102,73313,1,0,0:0:0:0:
176,102,73364,1,8,0:0:0:0:
176,102,73414,1,8,0:0:0:0:
176,102,73464,1,0,0:0:0:0:
176,102,73565,1,0,0:0:0:0:
256,224,73666,1,12,0:0:0:0:
256,224,73766,1,12,0:0:0:0:
256,224,73867,1,12,0:0:0:0:
256,224,73968,1,12,0:0:0:0:
262,250,74068,1,0,0:0:0:0:
47,139,74119,1,0,0:0:0:0:
199,117,74169,1,0,0:0:0:0:
152,150,74219,1,0,0:0:0:0:
199,117,74270,1,0,0:0:0:0:
199,117,74337,1,0,0:0:0:0:
201,126,74404,1,0,0:0:0:0:
203,136,74471,1,8,0:0:0:0:
331,108,74572,1,0,0:0:0:0:
229,114,74672,1,8,0:0:0:0:
229,114,74739,1,8,0:0:0:0:
229,114,74806,1,8,0:0:0:0:
229,114,74874,1,0,0:0:0:0:
373,143,74924,1,0,0:0:0:0:
373,143,74974,1,0,0:0:0:0:
375,138,75025,1,0,0:0:0:0:
298,89,75075,1,8,0:0:0:0:
316,99,75142,1,0,0:0:0:0:
208,138,75209,1,0,0:0:0:0:
316,99,75276,1,8,0:0:0:0:
277,97,75327,1,8,0:0:0:0:
277,97,75377,1,0,0:0:0:0:
206,166,75427,1,0,0:0:0:0:
309,166,75478,1,8,0:0:0:0:
172,132,75528,1,0,0:0:0:0:
309,166,75578,1,8,0:0:0:0:
309,166,75679,1,0,0:0:0:0:
197,141,75729,1,0,0:0:0:0:
197,141,75780,1,0,0:0:0:0:
194,138,75830,1,0,0:0:0:0:
197,141,75880,1,8,0:0:0:0:
197,141,75947,1,0,0:0:0:0:
246,97,76015,1,0,0:0:0:0:
197,141,76082,1,8,0:0:0:0:
169,146,76149,1,8,0:0:0:0:
82,127,76216,1,0,0:0:0:0:
213,144,76283,1,8,0:0:0:0:
213,143,76333,1,8,0:0:0:0:
211,143,76384,1,0,0:0:0:0:
191,103,76484,1,8,0:0:0:0:
326,93,76535,1,8,0:0:0:0:
323,87,76585,1,0,0:0:0:0:
145,150,76635,1,0,0:0:0:0:
323,87,76686,1,8,0:0:0:0:
367,84,76736,1,0,0:0:0:0:
203,144,76786,1,8,0:0:0:0:
150,137,76837,1,8,0:0:0:0:
220,130,76887,1,0,0:0:0:0:
333,64,76954,1,0,0:0:0:0:
96,126,77021,1,0,0:0:0:0:
333,64,77088,1,8,0:0:0:0:
333,64,77189,1,8,0:0:0:0:
333,64,77290,1,0,0:0:0:0:
207,165,77340,1,0,0:0:0:0:
208,165,77390,1,0,0:0:0:0:
56,148,77441,1,0,0:0:0:0:
208,165,77491,1,0,0:0:0:0:
209,164,77558,1,0,0:0:0:0:
215,162,77625,1,0,0:0:0:0:
222,158,77692,1,8,0:0:0:0:
331,108,77793,1,0,0:0:0:0:
229,114,77893,1,8,0:0:0:0:
229,114,77960,1,8,0:0:0:0:
229,114,78027,1,8,0:0:0:0:
229,114,78095,1,0,0:0:0:0:
373,143,78145,1,0,0:0:0:0:
373,143,78195,1,0,0:0:0:0:
375,138,78246,1,0,0:0:0:0:
298,89,78296,1,8,0:0:0:0:
316,99,78363,1,0,0:0:0:0:
208,138,78430,1,0,0:0:0:0:
316,99,78497,1,8,0:0:0:0:
277,97,78548,1,8,0:0:0:0:
277,97,78598,1,0,0:0:0:0:
206,166,78648,1,0,0:0:0:0:
309,166,78699,1,8,0:0:0:0:
237,176,78749,1,0,0:0:0:0:
309,166,78799,1,8,0:0:0:0:
309,166,78900,1,0,0:0:0:0:
355,47,78951,1,0,0:0:0:0:
74,106,79001,1,0,0:0:0:0:
355,47,79051,1,0,0:0:0:0:
355,47,79102,1,8,0:0:0:0:
263,88,79169,1,0,0:0:0:0:
258,89,79236,1,0,0:0:0:0:
255,89,79303,1,8,0:0:0:0:
251,163,79404,1,0,0:0:0:0:
251,163,79504,1,8,0:0:0:0:
251,163,79555,1,8,0:0:0:0:
251,163,79605,1,0,0:0:0:0:
320,47,79655,1,0,0:0:0:0:
184,62,79706,1,8,0:0:0:0:
133,87,79756,1,0,0:0:0:0:
163,124,79806,1,8,0:0:0:0:
217,124,79857,1,8,0:0:0:0:
133,87,79907,1,0,0:0:0:0:
113,112,79974,1,0,0:0:0:0:
117,109,80041,1,0,0:0:0:0:
133,87,80109,1,8,0:0:0:0:
340,151,80159,1,8,0:0:0:0:
171,64,80209,1,8,0:0:0:0:
150,78,80260,1,0,0:0:0:0:
171,64,80310,1,8,0:0:0:0:
171,64,80411,1,8,0:0:0:0:
262,250,80511,1,0,0:0:0:0:
47,139,80562,1,0,0:0:0:0:
199,117,80612,1,0,0:0:0:0:
152,150,80662,1,0,0:0:0:0:
199,117,80713,1,0,0:0:0:0:
199,117,80780,1,0,0:0:0:0:
201,126,80847,1,0,0:0:0:0:
203,136,80914,1,8,0:0:0:0:
331,108,81015,1,0,0:0:0:0:
229,114,81115,1,8,0:0:0:0:
229,114,81182,1,8,0:0:0:0:
229,114,81249,1,8,0:0:0:0:
229,114,81317,1,0,0:0:0:0:
373,143,81367,1,0,0:0:0:0:
373,143,81417,1,0,0:0:0:0:
375,138,81468,1,0,0:0:0:0:
298,89,81518,1,8,0:0:0:0:
316,99,81585,1,0,0:0:0:0:
208,138,81652,1,0,0:0:0:0:
316,99,81719,1,8,0:0:0:0:
277,97,81770,1,8,0:0:0:0:
277,97,81820,1,0,0:0:0:0:
206,166,81870,1,0,0:0:0:0:
309,166,81921,1,8,0:0:0:0:
172,132,81971,1,0,0:0:0:0:
309,166,82021,1,8,0:0:0:0:
309,166,82122,1,0,0:0:0:0:
181,110,82172,1,0,0:0:0:0:
209,97,82223,1,0,0:0:0:0:
209,97,82273,1,0,0:0:0:0:
381,107,82323,1,8,0:0:0:0:
381,107,82390,1,0,0:0:0:0:
381,107,82458,1,0,0:0:0:0:
381,107,82525,1,8,0:0:0:0:
279,53,82625,1,0,0:0:0:0:
279,53,82726,1,8,0:0:0:0:
279,53,82776,1,0,0:0:0:0:
237,141,82827,1,8,0:0:0:0:
243,121,82877,1,0,0:0:0:0:
279,53,82927,1,0,0:0:0:0:
381,107,82994,1,0,0:0:0:0:
112,97,83062,1,0,0:0:0:0:
381,107,83129,1,8,0:0:0:0:
381,107,83196,1,0,0:0:0:0:
373,93,83263,1,0,0:0:0:0:
381,107,83330,1,8,0:0:0:0:
373,93,83380,1,8,0:0:0:0:
236,93,83431,1,0,0:0:0:0:
101,122,83481,1,0,0:0:0:0:
282,148,83531,1,8,0:0:0:0:
434,86,83632,1,8,0:0:0:0:
185,140,83733,1,0,0:0:0:0:
291,82,83783,1,0,0:0:0:0:
291,82,83833,1,0,0:0:0:0:
113,129,83884,1,0,0:0:0:0:
236,93,83934,1,8,0:0:0:0:
236,93,84001,1,0,0:0:0:0:
236,93,84068,1,0,0:0:0:0:
261,92,84135,1,8,0:0:0:0:
281,124,84236,1,8,0:0:0:0:
281,124,84337,1,0,0:0:0:0:
323,62,84404,1,0,0:0:0:0:
323,62,84471,1,0,0:0:0:0:
323,62,84538,1,8,0:0:0:0:
321,81,84588,1,8,0:0:0:0:
321,81,84639,1,0,0:0:0:0:
160,42,84689,1,0,0:0:0:0:
323,62,84739,1,8,0:0:0:0:
166,88,84840,1,0,0:0:0:0:
176,91,84941,1,0,0:0:0:0:
371,62,85008,1,0,0:0:0:0:
371,62,85075,1,0,0:0:0:0:
371,62,85142,1,8,0:0:0:0:
399,52,85243,1,0,0:0:0:0:
212,163,85343,1,12,0:0:0:0:
390,67,85444,1,12,0:0:0:0:
390,67,85545,1,12,0:0:0:0:
334,108,85746,1,12,0:0:0:0:
334,108,85847,1,12,0:0:0:0:
334,108,85947,1,12,0:0:0:0:
281,62,86149,1,0,0:0:0:0:
216,81,86199,1,0,0:0:0:0:
216,81,86249,1,0,0:0:0:0:
216,81,86300,1,0,0:0:0:0:
426,57,86350,1,8,0:0:0:0:
276,114,86400,1,0,0:0:0:0:
128,139,86451,1,8,0:0:0:0:
156,58,86501,1,8,0:0:0:0:
276,114,86551,1,0,0:0:0:0:
233,55,86602,1,8,0:0:0:0:
233,55,86652,1,0,0:0:0:0:
233,55,86702,1,0,0:0:0:0:
233,55,86753,1,8,0:0:0:0:
194,115,86803,1,0,0:0:0:0:
373,46,86853,1,8,0:0:0:0:
130,148,86904,1,8,0:0:0:0:
373,46,86954,1,0,0:0:0:0:
362,41,87055,1,0,0:0:0:0:
361,47,87155,1,8,0:0:0:0:
391,105,87223,1,8,0:0:0:0:
394,92,87290,1,8,0:0:0:0:
394,92,87357,1,0,0:0:0:0:
399,56,87458,1,0,0:0:0:0:
396,60,87558,1,8,0:0:0:0:
311,91,87609,1,8,0:0:0:0:
311,91,87659,1,0,0:0:0:0:
311,91,87709,1,0,0:0:0:0:
311,91,87760,1,8,0:0:0:0:
345,64,87827,1,0,0:0:0:0:
345,64,87894,1,0,0:0:0:0:
386,108,87961,1,8,0:0:0:0:
386,108,88011,1,0,0:0:0:0:
387,108,88062,1,8,0:0:0:0:
391,105,88112,1,8,0:0:0:0:
391,105,88162,1,0,0:0:0:0:
266,58,88263,1,0,0:0:0:0:
266,58,88313,1,0,0:0:0:0:
271,73,88364,1,8,0:0:0:0:
251,53,88464,1,8,0:0:0:0:
247,49,88565,1,0,0:0:0:0:
429,163,88615,1,0,0:0:0:0:
423,162,88666,1,0,0:0:0:0:
423,162,88716,1,0,0:0:0:0:
420,163,88766,1,8,0:0:0:0:
268,115,88817,1,0,0:0:0:0:
268,115,88867,1,8,0:0:0:0:
268,115,88917,1,8,0:0:0:0:
269,106,88968,1,0,0:0:0:0:
246,62,89068,1,0,0:0:0:0:
246,62,89169,1,8,0:0:0:0:
246,62,89236,1,8,0:0:0:0:
128,163,89303,1,8,0:0:0:0:
171,139,89370,1,0,0:0:0:0:
128,163,89421,1,0,0:0:0:0:
151,159,89471,1,8,0:0:0:0:
128,157,89521,1,8,0:0:0:0:
305,44,89572,1,0,0:0:0:0:
305,44,89639,1,0,0:0:0:0:
326,52,89706,1,0,0:0:0:0:
326,52,89773,1,8,0:0:0:0:
290,52,89823,1,0,0:0:0:0:
289,52,89874,1,0,0:0:0:0:
231,132,89924,1,0,0:0:0:0:
216,127,89974,1,8,0:0:0:0:
211,127,90025,1,0,0:0:0:0:
206,127,90075,1,8,0:0:0:0:
196,50,90176,1,0,0:0:0:0:
362,41,90276,1,0,0:0:0:0:
361,47,90376,1,8,0:0:0:0:
391,105,90444,1,8,0:0:0:0:
394,92,90511,1,8,0:0:0:0:
394,92,90578,1,0,0:0:0:0:
399,56,90679,1,0,0:0:0:0:
396,60,90779,1,8,0:0:0:0:
311,91,90830,1,8,0:0:0:0:
311,91,90880,1,0,0:0:0:0:
311,91,90930,1,0,0:0:0:0:
311,91,90981,1,8,0:0:0:0:
345,64,91048,1,0,0:0:0:0:
345,64,91115,1,0,0:0:0:0:
386,108,91182,1,8,0:0:0:0:
386,108,91232,1,0,0:0:0:0:
387,108,91283,1,8,0:0:0:0:
391,105,91333,1,8,0:0:0:0:
391,105,91383,1,0,0:0:0:0:
266,58,91484,1,0,0:0:0:0:
266,58,91534,1,0,0:0:0:0:
271,73,91585,1,8,0:0:0:0:
251,53,91685,1,8,0:0:0:0:
433,190,91786,1,0,0:0:0:0:
265,47,91837,1,0,0:0:0:0:
265,47,91887,1,0,0:0:0:0:
265,47,91937,1,0,0:0:0:0:
295,98,91988,1,0,0:0:0:0:
284,86,92055,1,0,0:0:0:0:
286,86,92122,1,0,0:0:0:0:
287,97,92189,1,8,0:0:0:0:
279,44,92256,1,0,0:0:0:0:
279,44,92323,1,0,0:0:0:0:
279,44,92390,1,8,0:0:0:0:
246,128,92441,1,8,0:0:0:0:
246,128,92491,1,8,0:0:0:0:
236,125,92541,1,8,0:0:0:0:
252,46,92592,1,0,0:0:0:0:
221,59,92659,1,8,0:0:0:0:
221,59,92726,1,8,0:0:0:0:
221,59,92793,1,0,0:0:0:0:
221,59,92860,1,0,0:0:0:0:
205,99,92927,1,0,0:0:0:0:
223,95,92994,1,8,0:0:0:0:
380,56,93045,1,8,0:0:0:0:
380,56,93095,1,0,0:0:0:0:
380,56,93145,1,0,0:0:0:0:
380,56,93196,1,8,0:0:0:0:
184,79,93246,1,0,0:0:0:0:
184,79,93296,1,8,0:0:0:0:
184,79,93397,1,0,0:0:0:0:
362,41,93498,1,0,0:0:0:0:
361,47,93598,1,8,0:0:0:0:
391,105,93666,1,8,0:0:0:0:
394,92,93733,1,8,0:0:0:0:
394,92,93800,1,0,0:0:0:0:
399,56,93901,1,0,0:0:0:0:
396,60,94001,1,8,0:0:0:0:
311,91,94052,1,8,0:0:0:0:
311,91,94102,1,0,0:0:0:0:
311,91,94152,1,0,0:0:0:0:
311,91,94203,1,8,0:0:0:0:
345,64,94270,1,0,0:0:0:0:
345,64,94337,1,0,0:0:0:0:
386,108,94404,1,8,0:0:0:0:
386,108,94454,1,0,0:0:0:0:
387,108,94505,1,8,0:0:0:0:
391,105,94555,1,8,0:0:0:0:
391,105,94605,1,0,0:0:0:0:
266,58,94706,1,0,0:0:0:0:
266,58,94756,1,0,0:0:0:0:
271,73,94807,1,8,0:0:0:0:
251,53,94907,1,8,0:0:0:0:
276,75,95008,1,0,0:0:0:0:
253,26,95075,1,0,0:0:0:0:
253,26,95142,1,0,0:0:0:0:
253,26,95209,1,8,0:0:0:0:
389,58,95310,1,8,0:0:0:0:
389,58,95411,1,0,0:0:0:0:
349,127,95461,1,0,0:0:0:0:
349,127,95511,1,0,0:0:0:0:
349,127,95562,1,0,0:0:0:0:
349,127,95612,1,8,0:0:0:0:
351,72,95679,1,0,0:0:0:0:
351,72,95746,1,0,0:0:0:0:
351,72,95813,1,8,0:0:0:0:
349,93,95864,1,0,0:0:0:0:
349,93,95914,1,8,0:0:0:0:
349,93,95964,1,8,0:0:0:0:
349,93,96015,1,0,0:0:0:0:
349,92,96115,1,0,0:0:0:0:
349,92,96216,1,8,0:0:0:0:
349,92,96266,1,8,0:0:0:0:
349,92,96317,1,0,0:0:0:0:
349,92,96367,1,0,0:0:0:0:
349,92,96417,1,8,0:0:0:0:
395,47,96518,1,8,0:0:0:0:
395,47,96619,1,0,0:0:0:0:
352,62,96686,1,0,0:0:0:0:
352,62,96753,1,0,0:0:0:0:
352,62,96820,1,8,0:0:0:0:
121,145,96870,1,8,0:0:0:0:
121,145,96921,1,8,0:0:0:0:
121,145,96971,1,8,0:0:0:0:
370,50,97021,1,0,0:0:0:0:
347,20,97122,1,8,0:0:0:0:
139,119,97172,1,0,0:0:0:0:
347,20,97223,1,8,0:0:0:0:
253,82,97323,1,0,0:0:0:0:
254,87,97374,1,0,0:0:0:0:
253,82,97424,1,8,0:0:0:0:
176,130,97491,1,8,0:0:0:0:
176,130,97558,1,8,0:0:0:0:
176,130,97625,1,0,0:0:0:0:
291,72,97676,1,0,0:0:0:0:
291,72,97726,1,0,0:0:0:0:
291,72,97776,1,0,0:0:0:0:
291,72,97827,1,8,0:0:0:0:
136,128,97894,1,0,0:0:0:0:
146,122,97961,1,0,0:0:0:0:
242,45,98028,1,8,0:0:0:0:
314,18,98078,1,0,0:0:0:0:
236,46,98129,1,8,0:0:0:0:
236,46,98229,1,8,0:0:0:0:
182,160,98330,1,12,0:0:0:0:
176,158,98431,1,12,0:0:0:0:
174,153,98632,1,12,0:0:0:0:
174,153,98733,1,12,0:0:0:0:
174,153,98833,1,12,0:0:0:0:
239,111,99035,1,4,0:0:0:0:
239,111,99135,1,4,0:0:0:0:
239,111,99236,1,12,0:0:0:0:
239,111,99337,1,12,0:0:0:0:
239,111,99437,1,4,0:0:0:0:
239,111,99538,1,12,0:0:0:0:
239,111,99639,1,4,0:0:0:0:
239,111,99739,1,12,0:0:0:0:
239,111,99840,1,0,0:0:0:0:
204,110,99907,1,8,0:0:0:0:
230,87,99974,1,8,0:0:0:0:
231,100,100041,1,0,0:0:0:0:
260,73,100092,1,0,0:0:0:0:
260,73,100142,1,0,0:0:0:0:
260,73,100192,1,0,0:0:0:0:
260,73,100243,1,8,0:0:0:0:
367,118,100310,1,0,0:0:0:0:
367,118,100377,1,0,0:0:0:0:
367,118,100444,1,8,0:0:0:0:
384,152,100494,1,0,0:0:0:0:
384,152,100545,1,0,0:0:0:0:
59,140,100595,1,0,0:0:0:0:
446,67,100645,1,8,0:0:0:0:
336,66,100696,1,0,0:0:0:0:
229,27,100746,1,8,0:0:0:0:
229,27,100796,1,8,0:0:0:0:
229,27,100847,1,0,0:0:0:0:
267,31,100914,1,0,0:0:0:0:
267,31,100981,1,0,0:0:0:0:
224,28,101048,1,8,0:0:0:0:
238,87,101098,1,8,0:0:0:0:
238,87,101149,1,0,0:0:0:0:
235,81,101199,1,0,0:0:0:0:
277,29,101249,1,0,0:0:0:0:
261,153,101300,1,0,0:0:0:0:
277,29,101350,1,8,0:0:0:0:
277,29,101451,1,4,0:0:0:0:
285,192,101652,1,0,0:0:0:0:
285,192,101753,1,0,0:0:0:0:
285,192,101853,1,8,0:0:0:0:
281,150,101954,1,0,0:0:0:0:
281,150,102055,1,0,0:0:0:0:
281,150,102155,1,8,0:0:0:0:
286,130,102256,1,0,0:0:0:0:
286,130,102357,1,8,0:0:0:0:
286,130,102458,1,0,0:0:0:0:
286,130,102558,1,0,0:0:0:0:
286,130,102659,1,8,0:0:0:0:
286,130,102760,1,0,0:0:0:0:
286,130,102860,1,8,0:0:0:0:
286,130,102961,1,8,0:0:0:0:
286,130,103062,1,0,0:0:0:0:
288,224,103162,1,0,0:0:0:0:
288,224,103262,1,8,0:0:0:0:
288,192,103329,1,0,0:0:0:0:
184,115,103396,1,0,0:0:0:0:
288,192,103464,1,8,0:0:0:0:
288,192,103564,1,0,0:0:0:0:
81,144,103615,1,0,0:0:0:0:
288,192,103665,1,8,0:0:0:0:
224,192,103766,1,8,0:0:0:0:
224,192,103866,1,0,0:0:0:0:
192,192,103933,1,0,0:0:0:0:
52,122,104000,1,0,0:0:0:0:
128,160,104068,1,8,0:0:0:0:
224,224,104168,1,0,0:0:0:0:
192,224,104269,1,8,0:0:0:0:
256,128,104319,1,8,0:0:0:0:
256,192,104370,1,8,0:0:0:0:
160,138,104420,1,8,0:0:0:0:
256,192,104470,1,0,0:0:0:0:
256,192,104571,1,8,0:0:0:0:
160,224,104672,1,0,0:0:0:0:
288,224,104739,1,0,0:0:0:0:
160,128,104806,1,0,0:0:0:0:
352,256,104873,1,8,0:0:0:0:
384,256,104974,1,0,0:0:0:0:
384,256,105074,1,8,0:0:0:0:
256,160,105125,1,8,0:0:0:0:
288,160,105175,1,8,0:0:0:0:
260,125,105225,1,8,0:0:0:0:
192,128,105276,1,0,0:0:0:0:
154,117,105343,1,0,0:0:0:0:
192,128,105410,1,0,0:0:0:0:
192,128,105477,1,8,0:0:0:0:
192,128,105578,1,8,0:0:0:0:
224,128,105678,1,0,0:0:0:0:
224,128,105745,1,0,0:0:0:0:
130,147,105813,1,0,0:0:0:0:
224,128,105880,1,8,0:0:0:0:
320,192,105930,1,8,0:0:0:0:
352,128,105980,1,0,0:0:0:0:
256,128,106081,1,8,0:0:0:0:
256,128,106182,1,8,0:0:0:0:
256,128,106282,1,0,0:0:0:0:
256,160,106349,1,0,0:0:0:0:
224,192,106417,1,0,0:0:0:0:
288,160,106484,1,8,0:0:0:0:
256,160,106584,1,0,0:0:0:0:
288,160,106685,1,8,0:0:0:0:
64,224,106735,1,8,0:0:0:0:
288,160,106786,1,0,0:0:0:0:
384,96,106836,1,0,0:0:0:0:
204,138,106886,1,8,0:0:0:0:
352,96,106987,1,8,0:0:0:0:
256,224,107088,1,0,0:0:0:0:
170,137,107138,1,0,0:0:0:0:
256,224,107188,1,8,0:0:0:0:
256,224,107289,1,0,0:0:0:0:
160,160,107356,1,0,0:0:0:0:
75,120,107423,1,0,0:0:0:0:
288,192,107490,1,8,0:0:0:0:
320,96,107541,1,8,0:0:0:0:
192,192,107591,1,0,0:0:0:0:
288,192,107692,1,8,0:0:0:0:
288,192,107792,1,8,0:0:0:0:
288,192,107893,1,8,0:0:0:0:
128,128,107943,1,8,0:0:0:0:
224,224,107994,1,8,0:0:0:0:
160,160,108044,1,8,0:0:0:0:
320,192,108094,1,0,0:0:0:0:
288,192,108195,1,0,0:0:0:0:
320,192,108296,1,8,0:0:0:0:
224,192,108363,1,8,0:0:0:0:
224,160,108430,1,8,0:0:0:0:
352,224,108497,1,0,0:0:0:0:
224,96,108547,1,0,0:0:0:0:
352,224,108598,1,8,0:0:0:0:
224,96,108648,1,8,0:0:0:0:
352,224,108698,1,0,0:0:0:0:
352,224,108766,1,0,0:0:0:0:
171,136,108833,1,0,0:0:0:0:
352,224,108900,1,8,0:0:0:0:
352,224,108950,1,8,0:0:0:0:
288,96,109000,1,0,0:0:0:0:
116,97,109051,1,8,0:0:0:0:
352,224,109101,1,0,0:0:0:0:
384,192,109202,1,0,0:0:0:0:
224,96,109252,1,0,0:0:0:0:
384,192,109302,1,8,0:0:0:0:
384,192,109403,1,8,0:0:0:0:
384,192,109504,1,4,0:0:0:0:
65,127,109605,1,0,0:0:0:0:
320,192,109705,1,8,0:0:0:0:
320,192,109772,1,8,0:0:0:0:
256,64,109839,1,8,0:0:0:0:
192,160,109907,1,0,0:0:0:0:
288,192,110007,1,0,0:0:0:0:
231,133,110058,1,0,0:0:0:0:
288,192,110108,1,8,0:0:0:0:
288,192,110209,1,8,0:0:0:0:
288,192,110309,1,0,0:0:0:0:
288,192,110376,1,0,0:0:0:0:
192,160,110443,1,0,0:0:0:0:
288,192,110511,1,8,0:0:0:0:
141,119,110561,1,8,0:0:0:0:
192,128,110611,1,0,0:0:0:0:
216,77,110662,1,0,0:0:0:0:
192,128,110712,1,8,0:0:0:0:
256,128,110779,1,0,0:0:0:0:
176,152,110846,1,0,0:0:0:0:
256,64,110913,1,8,0:0:0:0:
256,64,111014,1,0,0:0:0:0:
256,64,111115,1,8,0:0:0:0:
160,160,111165,1,8,0:0:0:0:
192,192,111215,1,0,0:0:0:0:
192,192,111316,1,0,0:0:0:0:
192,192,111417,1,8,0:0:0:0:
320,128,111467,1,8,0:0:0:0:
192,192,111517,1,0,0:0:0:0:
141,123,111584,1,0,0:0:0:0:
192,192,111651,1,0,0:0:0:0:
192,192,111719,1,8,0:0:0:0:
192,192,111819,1,8,0:0:0:0:
192,160,111920,1,0,0:0:0:0:
256,192,111970,1,0,0:0:0:0:
256,128,112021,1,0,0:0:0:0:
256,192,112071,1,0,0:0:0:0:
256,128,112121,1,8,0:0:0:0:
256,128,112188,1,0,0:0:0:0:
217,137,112256,1,0,0:0:0:0:
256,128,112323,1,8,0:0:0:0:
320,128,112373,1,8,0:0:0:0:
256,128,112423,1,0,0:0:0:0:
192,128,112524,1,8,0:0:0:0:
192,128,112625,1,8,0:0:0:0:
192,128,112725,1,0,0:0:0:0:
96,192,112776,1,0,0:0:0:0:
96,192,112826,1,0,0:0:0:0:
96,160,112876,1,0,0:0:0:0:
224,160,112927,1,8,0:0:0:0:
256,192,112994,1,0,0:0:0:0:
233,134,113061,1,0,0:0:0:0:
256,192,113128,1,8,0:0:0:0:
256,192,113178,1,8,0:0:0:0:
256,192,113229,1,8,0:0:0:0:
256,192,113279,1,8,0:0:0:0:
256,192,113329,1,0,0:0:0:0:
179,139,113430,1,0,0:0:0:0:
288,224,113531,1,8,0:0:0:0:
288,224,113581,1,0,0:0:0:0:
288,224,113631,1,8,0:0:0:0:
288,224,113682,1,8,0:0:0:0:
288,224,113732,1,0,0:0:0:0:
224,128,113782,1,0,0:0:0:0:
128,160,113833,1,0,0:0:0:0:
160,128,113883,1,0,0:0:0:0:
160,128,113933,1,8,0:0:0:0:
192,160,114000,1,0,0:0:0:0:
148,118,114068,1,0,0:0:0:0:
192,160,114135,1,8,0:0:0:0:
166,172,114235,1,8,0:0:0:0:
192,160,114336,1,4,0:0:0:0:
212,153,114437,1,4,0:0:0:0:
212,153,114538,1,4,0:0:0:0:
247,114,114739,1,4,0:0:0:0:
247,114,114840,1,0,0:0:0:0:
174,117,114890,1,0,0:0:0:0:
174,116,114941,1,8,0:0:0:0:
241,113,115041,1,0,0:0:0:0:
241,113,115142,1,8,0:0:0:0:
196,133,115209,1,8,0:0:0:0:
193,133,115276,1,8,0:0:0:0:
193,133,115343,1,0,0:0:0:0:
381,52,115394,1,0,0:0:0:0:
381,52,115444,1,0,0:0:0:0:
381,52,115494,1,0,0:0:0:0:
381,52,115545,1,8,0:0:0:0:
347,99,115595,1,0,0:0:0:0:
347,99,115645,1,8,0:0:0:0:
347,99,115696,1,8,0:0:0:0:
347,99,115746,1,0,0:0:0:0:
336,71,115847,1,0,0:0:0:0:
328,71,115947,1,0,0:0:0:0:
342,80,115998,1,8,0:0:0:0:
122,143,116048,1,8,0:0:0:0:
129,81,116098,1,0,0:0:0:0:
338,80,116149,1,0,0:0:0:0:
229,34,116216,1,0,0:0:0:0:
105,118,116283,1,0,0:0:0:0:
229,34,116350,1,8,0:0:0:0:
423,26,116400,1,0,0:0:0:0:
423,26,116451,1,8,0:0:0:0:
106,126,116501,1,8,0:0:0:0:
423,26,116551,1,0,0:0:0:0:
242,135,116602,1,0,0:0:0:0:
258,119,116652,1,0,0:0:0:0:
258,119,116702,1,0,0:0:0:0:
258,119,116753,1,8,0:0:0:0:
333,102,116853,1,8,0:0:0:0:
328,101,116954,1,0,0:0:0:0:
296,77,117055,1,0,0:0:0:0:
304,40,117155,1,4,0:0:0:0:
236,173,117256,1,4,0:0:0:0:
236,173,117357,1,4,0:0:0:0:
236,173,117458,1,4,0:0:0:0:
289,168,117659,1,4,0:0:0:0:
289,168,117760,1,12,0:0:0:0:
289,168,117860,1,4,0:0:0:0:
289,168,117961,1,12,0:0:0:0:
289,168,118062,1,12,0:0:0:0:
289,168,118162,1,4,0:0:0:0:
289,168,118263,1,12,0:0:0:0:
119,114,118364,6,4,L|349:143,30,186.666666666667
